osu file format v14

[General]
AudioFilename: audio.mp3
AudioLeadIn: 0
PreviewTime: 162020
Countdown: 0
SampleSet: Soft
StackLeniency: 0.8
Mode: 0
LetterboxInBreaks: 0
WidescreenStoryboard: 0

[Editor]
Bookmarks: 10610,30557,40766,45792,71550,76419,86471,96680,101549,106733,126837,131863,141915,151968,156994,162020,164533,182125,187151,189665,194691,199560
DistanceSpacing: 1.2
BeatDivisor: 4
GridSize: 32
TimelineZoom: 1.9

[Metadata]
Title:One Me Two Hearts
TitleUnicode:ワンミーツハー
Artist:hitorie
ArtistUnicode:ヒトリエ
Creator:Black Man
Version:Expert
Source:ディバインゲート
Tags:Fixxis Amity ImpurePug -xenon xen xehn Agatsu Divine Gate Anime Japanese Rock J-Rock wowaka shinoda シノダ igarashi イガラシ yumao ゆーまお
BeatmapID:2267539
BeatmapSetID:1084284

[Difficulty]
HPDrainRate:6.5
CircleSize:4
OverallDifficulty:8.5
ApproachRate:9.2
SliderMultiplier:1.4
SliderTickRate:1

[Events]
//Background and Video events
0,0,"toys__children__scenic_anime_3905x2227.jpg",0,0
//Break Periods
//Storyboard Layer 0 (Background)
//Storyboard Layer 1 (Fail)
//Storyboard Layer 2 (Pass)
//Storyboard Layer 3 (Foreground)
//Storyboard Layer 4 (Overlay)
//Storyboard Sound Samples

[TimingPoints]
548,314.13612565445,4,2,99,60,1,0
548,-125,4,2,99,60,0,0
9972,-250,4,2,99,60,0,0
10600,-83.3333333333333,4,2,99,60,0,0
15626,-76.9230769230769,4,2,99,60,0,0
20495,314.13612565445,4,2,99,60,1,0
20966,-100,4,2,1,40,0,0
30547,-100,4,2,99,40,0,0
31018,-100,4,2,1,40,0,0
38086,-100,4,2,98,40,0,0
38557,-100,4,2,1,40,0,0
40756,314.13612565445,4,2,99,60,1,0
40756,-111.111111111111,4,2,99,60,0,0
41070,-111.111111111111,4,2,99,60,0,0
45782,-90.9090909090909,4,2,99,60,0,0
45860,-90.9090909090909,4,2,0,60,0,0
46096,-90.9090909090909,4,2,99,40,0,0
46174,-90.9090909090909,4,2,0,40,0,0
46253,-90.9090909090909,4,2,99,40,0,0
46331,-90.9090909090909,4,2,0,40,0,0
46410,-90.9090909090909,4,2,99,40,0,0
46488,-90.9090909090909,4,2,0,40,0,0
46724,-90.9090909090909,4,2,99,45,0,0
46803,-90.9090909090909,4,2,0,45,0,0
46881,-90.9090909090909,4,2,99,45,0,0
46960,-90.9090909090909,4,2,0,45,0,0
47038,-90.9090909090909,4,2,99,55,0,0
47117,-90.9090909090909,4,2,0,55,0,0
47352,-90.9090909090909,4,2,99,55,0,0
47431,-90.9090909090909,4,2,0,55,0,0
47509,-90.9090909090909,4,2,99,55,0,0
47588,-90.9090909090909,4,2,0,55,0,0
47666,-90.9090909090909,4,2,99,55,0,0
47745,-90.9090909090909,4,2,0,55,0,0
47980,-90.9090909090909,4,2,99,55,0,0
48059,-90.9090909090909,4,2,0,55,0,0
48137,-90.9090909090909,4,2,99,55,0,0
48216,-90.9090909090909,4,2,0,55,0,0
48295,-90.9090909090909,4,2,99,60,0,0
48373,-90.9090909090909,4,2,0,60,0,0
48609,-90.9090909090909,4,2,99,60,0,0
48687,-90.9090909090909,4,2,0,60,0,0
48766,-90.9090909090909,4,2,99,60,0,0
48845,-90.9090909090909,4,2,0,60,0,0
48923,-90.9090909090909,4,2,99,60,0,0
49001,-90.9090909090909,4,2,0,60,0,0
49237,-90.9090909090909,4,2,99,60,0,0
49315,-90.9090909090909,4,2,0,60,0,0
49394,-90.9090909090909,4,2,99,60,0,0
49473,-90.9090909090909,4,2,0,60,0,0
49551,-90.9090909090909,4,2,99,60,0,0
51436,314.13612565445,4,2,99,40,1,0
51436,-71.4285714285714,4,2,99,80,0,0
71540,-71.4285714285714,4,2,99,60,0,0
76409,314.13612565445,4,2,99,40,1,0
76409,-100,4,2,99,40,0,0
76880,-100,4,2,1,40,0,0
81435,-100,4,2,98,40,0,0
81749,-100,4,2,99,40,0,0
86775,-100,4,2,1,40,0,0
96670,314.13612565445,4,2,99,40,1,0
96670,-111.111111111111,4,2,99,40,0,0
101696,-111.111111111111,4,2,99,40,0,0
102010,-90.9090909090909,4,2,99,40,0,0
102088,-90.9090909090909,4,2,0,40,0,0
102167,-90.9090909090909,4,2,99,40,0,0
102245,-90.9090909090909,4,2,0,40,0,0
102324,-90.9090909090909,4,2,99,40,0,0
102402,-90.9090909090909,4,2,0,40,0,0
102638,-90.9090909090909,4,2,99,45,0,0
102717,-90.9090909090909,4,2,0,45,0,0
102795,-90.9090909090909,4,2,99,45,0,0
102874,-90.9090909090909,4,2,0,45,0,0
102952,-111.111111111111,4,2,99,55,0,0
103031,-90.9090909090909,4,2,0,55,0,0
103266,-90.9090909090909,4,2,99,55,0,0
103345,-90.9090909090909,4,2,0,55,0,0
103423,-90.9090909090909,4,2,99,55,0,0
103502,-90.9090909090909,4,2,0,55,0,0
103580,-90.9090909090909,4,2,99,55,0,0
103659,-90.9090909090909,4,2,0,55,0,0
103894,-90.9090909090909,4,2,99,55,0,0
103973,-90.9090909090909,4,2,0,55,0,0
104051,-90.9090909090909,4,2,99,55,0,0
104130,-90.9090909090909,4,2,0,55,0,0
104209,-111.111111111111,4,2,99,60,0,0
104287,-90.9090909090909,4,2,0,60,0,0
104523,-90.9090909090909,4,2,99,60,0,0
104601,-90.9090909090909,4,2,0,60,0,0
104680,-90.9090909090909,4,2,99,60,0,0
104759,-90.9090909090909,4,2,0,60,0,0
104837,-90.9090909090909,4,2,99,60,0,0
104915,-90.9090909090909,4,2,0,60,0,0
105151,-90.9090909090909,4,2,99,60,0,0
105229,-90.9090909090909,4,2,0,60,0,0
105308,-90.9090909090909,4,2,99,60,0,0
105387,-90.9090909090909,4,2,0,60,0,0
105465,-90.9090909090909,4,2,99,60,0,0
106722,-71.4285714285714,4,2,99,80,0,0
126827,-90.9090909090909,4,2,99,60,0,0
131853,-90.9090909090909,4,2,98,60,0,0
132167,-90.9090909090909,4,2,99,60,0,0
136879,-90.9090909090909,4,2,98,60,0,0
137193,-90.9090909090909,4,2,99,60,0,0
141905,-83.3333333333333,4,2,99,60,0,0
146931,-83.3333333333333,4,2,98,60,0,0
147245,-83.3333333333333,4,2,99,60,0,0
156984,-62.5,4,2,99,60,0,0
157141,-62.5,4,2,0,60,0,0
157298,-62.5,4,2,99,40,0,0
157376,-62.5,4,2,0,40,0,0
157455,-62.5,4,2,99,40,0,0
157533,-62.5,4,2,0,40,0,0
157612,-62.5,4,2,99,40,0,0
157690,-62.5,4,2,0,40,0,0
157926,-62.5,4,2,99,40,0,0
158005,-62.5,4,2,0,40,0,0
158083,-62.5,4,2,99,40,0,0
158162,-62.5,4,2,0,40,0,0
158240,-62.5,4,2,99,40,0,0
158319,-62.5,4,2,0,40,0,0
158554,-62.5,4,2,99,55,0,0
158633,-62.5,4,2,0,40,0,0
158711,-62.5,4,2,99,55,0,0
158790,-62.5,4,2,0,40,0,0
158868,-62.5,4,2,99,55,0,0
158947,-62.5,4,2,0,40,0,0
159183,-62.5,4,2,99,55,0,0
159261,-62.5,4,2,0,40,0,0
159340,-62.5,4,2,99,55,0,0
159418,-62.5,4,2,0,40,0,0
159497,-62.5,4,2,1,55,0,0
159811,-62.5,4,2,1,60,0,0
162010,-62.5,4,2,2,60,0,0
163266,-62.5,4,2,99,60,0,0
163423,-62.5,4,2,1,60,0,0
163895,-62.5,4,2,99,60,0,0
164523,-62.5,4,2,99,90,0,0
187141,-166.666666666667,4,2,99,80,0,0
188397,-125,4,2,99,80,0,0
189654,-83.3333333333333,4,2,99,60,0,0
194680,-76.9230769230769,4,2,99,80,0,0
198293,-75.7575757575758,4,2,99,80,0,0
198450,307.692307692308,4,2,99,80,1,0
199526,-125,4,2,99,80,0,0

[Colours]
Combo1 : 255,108,108
Combo2 : 210,209,211
Combo3 : 85,85,85

[HitObjects]
18,367,548,5,2,0:0:0:0:
82,321,862,1,2,0:0:0:0:
92,323,1019,1,2,0:0:0:0:
168,347,1333,1,2,0:0:0:0:
223,289,1647,6,0,P|231:230|249:163,1,112,2|0,0:0|0:0,0:0:0:0:
308,141,2118,1,2,0:0:0:0:
316,152,2275,1,0,0:0:0:0:
234,10,2432,2,0,P|241:47|187:115,1,112,2|0,0:0|0:0,0:0:0:0:
497,351,3061,5,2,0:0:0:0:
431,302,3375,1,2,0:0:0:0:
423,307,3532,1,2,0:0:0:0:
347,331,3846,1,2,0:0:0:0:
277,290,4160,6,0,P|269:229|252:166,1,112,2|0,0:0|0:0,0:0:0:0:
190,141,4631,1,2,0:0:0:0:
172,147,4788,1,0,0:0:0:0:
287,12,4945,2,0,P|257:73|279:113,1,112,2|0,0:0|0:0,0:0:0:0:
226,370,5574,5,2,0:0:0:0:
257,297,5888,1,2,0:0:0:0:
246,287,6045,1,2,0:0:0:0:
208,222,6359,1,2,0:0:0:0:
303,57,6673,6,0,P|274:105|260:159,1,112,2|2,0:0|0:0,0:0:0:0:
252,144,7144,2,0,P|247:112|229:75,2,56,2|0|2,0:0|0:0|0:0,0:0:0:0:
495,182,7773,5,2,0:0:0:0:
469,152,7930,1,0,0:0:0:0:
426,150,8087,1,2,0:0:0:0:
286,230,8401,5,2,0:0:0:0:
313,218,8558,1,2,0:0:0:0:
456,270,8872,5,2,0:0:0:0:
442,258,9029,1,2,0:0:0:0:
305,337,9343,5,2,0:0:0:0:
313,331,9500,1,2,0:0:0:0:
405,384,9815,5,0,0:0:0:0:
401,380,9972,2,0,B|398:358|398:358|387:357|387:357|397:327,1,56,4|0,0:0|0:0,0:0:0:0:
395,383,10600,6,0,P|398:335|414:277,1,83.9999974365235,8|0,0:0|0:0,0:0:0:0:
375,227,10914,2,0,P|397:170|425:128,1,83.9999974365235,0|0,0:0|0:0,0:0:0:0:
495,22,11228,1,0,0:0:0:0:
418,43,11385,1,0,0:0:0:0:
418,43,11464,1,2,0:0:0:0:
422,47,11542,1,0,0:1:0:0:
263,16,11699,6,0,P|284:62|295:113,1,83.9999974365235,0|0,0:0|0:0,0:0:0:0:
253,162,12013,1,0,0:0:0:0:
269,238,12171,2,0,P|312:212|326:172,1,83.9999974365235,0|0,0:0|0:0,0:0:0:0:
136,168,12485,1,0,0:0:0:0:
66,205,12642,1,0,0:0:0:0:
66,205,12720,1,0,0:0:0:0:
66,205,12799,1,2,0:0:0:0:
6,143,12956,6,0,P|16:102|31:62,1,83.9999974365235,0|0,0:0|0:0,0:0:0:0:
128,82,13270,1,0,0:0:0:0:
128,82,13427,2,0,P|148:35|174:-11,1,83.9999974365235,0|0,0:0|0:0,0:0:0:0:
238,38,13741,5,0,0:0:0:0:
274,113,13898,1,0,0:0:0:0:
274,113,13977,1,0,0:0:0:0:
278,117,14055,1,2,0:0:0:0:
465,143,14212,6,0,P|421:115|373:110,1,83.9999974365235,0|0,0:0|0:0,0:0:0:0:
341,201,14527,1,0,0:0:0:0:
341,201,14684,2,0,P|291:222|259:258,1,83.9999974365235,0|0,0:0|0:0,0:0:0:0:
177,152,14998,5,2,0:0:0:0:
141,143,15076,1,2,0:0:0:0:
96,134,15155,1,2,0:3:0:0:
55,124,15233,1,2,0:0:0:0:
21,113,15312,2,0,P|66:96|113:93,1,83.9999974365235,2|0,1:0|0:0,0:0:0:0:
350,37,15626,6,0,P|299:20|252:20,1,90.9999958343508,4|0,0:1|0:0,0:0:0:0:
263,19,15862,1,0,0:0:0:0:
263,19,15940,2,0,P|249:65|238:114,1,90.9999958343508,8|0,0:0|0:0,0:0:0:0:
356,169,16254,5,0,0:0:0:0:
377,246,16411,1,0,0:0:0:0:
379,262,16490,1,0,0:0:0:0:
381,281,16568,1,8,0:0:0:0:
194,173,16726,6,0,P|203:218|222:273,1,90.9999958343508,0|0,0:0|0:0,0:0:0:0:
217,260,16961,1,0,0:0:0:0:
217,260,17040,1,0,0:0:0:0:
126,354,17197,5,8,0:0:0:0:
78,292,17354,1,0,0:0:0:0:
10,326,17511,1,0,0:0:0:0:
113,171,17668,5,0,0:0:0:0:
109,167,17746,1,0,0:0:0:0:
105,163,17825,1,8,0:0:0:0:
245,261,17982,6,0,P|291:239|351:231,1,90.9999958343508
303,82,18296,1,0,0:0:0:0:
303,82,18375,1,0,0:0:0:0:
307,86,18453,2,0,P|291:43|265:5,1,90.9999958343508,8|0,0:0|0:0,0:0:0:0:
395,91,18767,5,0,0:0:0:0:
436,25,18924,1,0,0:0:0:0:
436,25,19003,1,0,0:0:0:0:
440,29,19082,1,8,0:0:0:0:
502,201,19239,6,0,P|457:167|403:170,1,90.9999958343508,0|2,0:0|0:0,0:0:0:0:
322,274,19553,1,10,0:0:0:0:
334,140,19710,1,10,0:0:0:0:
412,256,19867,1,0,0:0:0:0:
275,197,20024,5,8,0:0:0:0:
231,191,20102,1,8,0:0:0:0:
187,214,20181,1,8,0:0:0:0:
162,255,20260,1,8,0:0:0:0:
126,289,20338,1,8,3:0:0:0:
77,301,20417,1,8,3:0:0:0:
104,315,20495,6,0,P|114:234|124:171,1,140,4|0,1:2|1:0,0:0:0:0:
175,111,20966,1,8,0:0:0:0:
175,111,21280,1,0,1:0:0:0:
67,89,21437,2,0,P|81:42|91:12,1,70,0|8,1:0|0:0,0:0:0:0:
230,192,21751,6,0,P|163:186|95:229,1,140,2|0,1:2|1:0,0:0:0:0:
51,282,22222,1,8,0:0:0:0:
51,282,22536,1,0,1:0:0:0:
166,363,22693,2,0,P|139:328|114:317,1,70,0|8,1:0|0:0,0:0:0:0:
236,269,23008,6,0,P|289:276|394:316,1,140,2|0,1:2|1:0,0:0:0:0:
428,247,23479,2,0,P|466:263|505:286,1,70,8|0,0:0|0:0,0:0:0:0:
443,169,23793,2,0,P|481:185|520:208,1,70,0|0,1:0|1:0,0:0:0:0:
305,201,24107,5,8,0:0:0:0:
305,201,24264,2,0,P|312:149|342:48,1,140,2|0,0:0|0:0,0:0:0:0:
414,79,24735,2,0,P|426:39|443:9,1,70,8|0,0:0|0:0,0:0:0:0:
249,98,25049,5,2,1:2:0:0:
202,33,25207,1,0,1:0:0:0:
127,57,25364,1,8,0:0:0:0:
19,132,25521,6,0,P|124:149|140:177,1,140,2|0,1:2|1:0,0:0:0:0:
87,240,25992,2,0,P|38:229|1:229,1,70,8|0,0:0|0:0,0:0:0:0:
81,321,26306,2,0,P|32:310|-5:310,1,70,0|0,1:0|1:0,0:0:0:0:
216,199,26620,5,8,0:0:0:0:
216,199,26777,2,0,P|203:251|183:363,1,140,2|0,1:2|1:0,0:0:0:0:
125,263,27248,1,8,0:0:0:0:
125,263,27563,1,0,1:0:0:0:
79,195,27720,2,0,P|94:148|111:107,1,70,0|8,1:0|0:0,0:0:0:0:
231,63,28034,6,0,P|176:67|106:7,1,140,2|0,1:2|0:0,0:0:0:0:
57,77,28505,1,8,0:0:0:0:
57,77,28819,1,0,1:0:0:0:
75,162,28976,2,0,P|31:149|-18:150,1,70,0|8,0:0|0:0,0:0:0:0:
151,128,29290,6,0,P|193:137|299:171,1,140,2|0,1:2|1:0,0:0:0:0:
351,126,29762,2,0,P|394:140|436:163,1,70,8|0,0:0|0:0,0:0:0:0:
511,319,30076,5,2,1:2:0:0:
444,274,30233,1,2,1:2:0:0:
394,333,30390,1,8,0:0:0:0:
457,380,30547,6,0,P|450:331|431:229,1,140,4|0,1:0|1:0,0:0:0:0:
280,167,31018,1,8,0:0:0:0:
348,133,31175,1,4,3:0:0:0:
360,172,31254,1,8,0:0:0:0:
359,208,31332,1,2,1:2:0:0:
350,254,31411,1,2,0:3:0:0:
350,254,31489,2,0,P|308:247|257:262,1,70,0|8,1:0|0:0,0:0:0:0:
163,333,31803,5,2,1:2:0:0:
163,333,32118,2,0,P|215:325|237:328,1,70,0|8,1:0|0:0,0:0:0:0:
147,239,32432,1,4,3:0:0:0:
107,228,32510,1,8,0:0:0:0:
61,230,32589,1,2,1:2:0:0:
21,246,32667,1,2,0:3:0:0:
21,246,32746,2,0,P|16:207|17:167,1,70,0|8,1:0|0:0,0:0:0:0:
92,8,33060,6,0,P|98:43|102:156,1,140,2|0,1:2|1:0,0:0:0:0:
292,71,33531,1,8,0:0:0:0:
231,27,33688,1,4,3:0:0:0:
209,62,33767,1,8,0:0:0:0:
208,107,33845,1,2,1:2:0:0:
224,142,33924,1,2,0:3:0:0:
224,142,34002,2,0,P|231:188|230:231,1,70,0|8,0:0|0:0,0:0:0:0:
304,326,34316,5,2,0:0:0:0:
304,326,34631,2,0,P|297:280|298:237,1,70,0|8,1:0|0:0,0:0:0:0:
359,187,34945,5,4,3:0:0:0:
391,175,35023,1,8,0:0:0:0:
426,175,35102,1,2,1:2:0:0:
458,186,35180,1,2,0:3:0:0:
458,186,35259,2,0,P|465:232|464:275,1,70,0|8,1:0|0:0,0:0:0:0:
276,161,35573,6,0,P|284:49|291:-3,1,140,2|0,1:2|1:0,0:0:0:0:
202,125,36044,1,8,0:0:0:0:
150,67,36201,1,4,3:0:0:0:
115,53,36280,1,8,0:0:0:0:
78,56,36358,1,2,1:2:0:0:
46,74,36437,1,2,0:3:0:0:
46,74,36515,2,0,P|39:123|41:161,1,70,0|8,1:0|0:0,0:0:0:0:
106,358,36830,5,2,0:0:0:0:
106,358,37144,1,2,0:0:0:0:
106,358,37458,1,0,1:0:0:0:
118,326,37536,1,8,0:0:0:0:
127,288,37615,1,2,3:2:0:0:
122,246,37693,1,2,0:3:0:0:
105,204,37772,2,0,P|69:201|26:208,1,70,0|8,1:0|0:0,0:0:0:0:
160,132,38086,6,0,P|228:134|319:154,1,140,4|0,0:0|0:0,0:0:0:0:
428,63,38557,2,0,P|398:86|372:120,1,70,8|0,0:0|0:0,0:0:0:0:
401,249,38871,2,0,P|386:208|361:176,1,70,0|0,1:0|0:0,0:0:0:0:
229,340,39186,5,8,0:0:0:0:
229,340,39343,2,0,P|290:314|364:329,1,140,2|0,1:2|1:0,0:0:0:0:
182,259,39814,5,10,0:0:0:0:
222,117,39971,1,2,0:0:0:0:
105,208,40128,1,2,1:2:0:0:
252,201,40285,1,0,1:0:0:0:
135,119,40442,1,8,0:0:0:0:
135,119,40521,1,8,0:0:0:0:
135,119,40599,1,4,3:0:0:0:
135,119,40678,1,8,3:0:0:0:
135,119,40756,6,0,P|125:191|119:253,1,125.999996154785,4|0,0:0|1:0,0:0:0:0:
73,304,41227,2,0,P|34:315|0:332,2,62.9999980773926,2|0|0,0:0|1:0|0:0,0:0:0:0:
126,358,41698,1,2,1:2:0:0:
156,288,41855,1,2,0:0:0:0:
332,292,42012,5,0,1:0:0:0:
342,365,42169,2,0,P|295:358|258:276,1,125.999996154785,0|2,0:0|0:0,0:0:0:0:
435,275,42640,2,0,P|426:310|414:348,1,62.9999980773926,0|0,1:0|0:0,0:0:0:0:
496,212,42954,2,0,P|483:177|467:141,1,62.9999980773926,2|0,1:2|0:0,0:0:0:0:
311,131,43269,6,0,P|327:175|393:155,1,125.999996154785,0|0,1:0|1:0,0:0:0:0:
349,262,43740,2,0,P|311:269|267:285,2,62.9999980773926,2|0|0,0:0|1:0|0:0,0:0:0:0:
280,202,44211,1,2,1:2:0:0:
205,186,44368,1,2,0:0:0:0:
65,249,44525,5,0,1:0:0:0:
65,249,44682,2,0,P|38:214|67:141,1,125.999996154785,0|2,0:0|0:0,0:0:0:0:
182,48,45153,2,0,P|160:85|152:114,1,62.9999980773926,0|0,1:2|0:0,0:0:0:0:
292,41,45468,2,0,P|249:94|232:136,1,94.499997116089,10|0,0:0|0:0,0:0:0:0:
238,117,45782,6,0,P|247:171|251:182,1,38.5000011749268,12|0,3:2|3:0,0:0:0:0:
292,294,45939,1,2,0:3:0:0:
265,273,46017,1,0,3:0:0:0:
235,265,46096,1,8,0:0:0:0:
206,269,46174,1,0,3:0:0:0:
174,280,46253,1,2,0:3:0:0:
151,304,46331,1,0,3:0:0:0:
140,335,46410,6,0,L|152:377,3,38.5000011749268,0|0|2|0,3:0|3:0|0:3|3:0,0:0:0:0:
24,264,46724,6,0,L|45:198,3,38.5000011749268,8|0|2|0,0:1|0:0|0:3|0:0,0:0:0:0:
186,143,47038,5,0,1:2:0:0:
161,166,47117,1,0,3:0:0:0:
127,176,47195,1,2,0:3:0:0:
84,170,47274,1,0,3:0:0:0:
52,150,47352,1,8,0:0:0:0:
42,114,47431,1,0,3:0:0:0:
51,78,47509,1,2,0:3:0:0:
80,52,47588,1,0,3:0:0:0:
114,43,47666,6,0,L|130:98,3,38.5000011749268,0|0|2|0,3:0|3:0|0:3|3:0,0:0:0:0:
143,240,47981,6,0,L|162:172,3,38.5000011749268,8|0|2|0,0:1|3:0|0:3|3:0,0:0:0:0:
239,61,48295,6,0,L|258:129,3,38.5000011749268,0|0|2|0,3:2|3:0|0:3|3:0,0:0:0:0:
397,217,48609,5,8,0:1:0:0:
351,229,48687,1,0,3:0:0:0:
307,223,48766,1,2,0:3:0:0:
272,198,48845,1,0,3:0:0:0:
243,180,48923,1,0,3:0:0:0:
202,176,49002,1,0,3:0:0:0:
161,191,49080,1,2,0:3:0:0:
130,220,49159,1,0,3:0:0:0:
79,274,49237,5,8,0:1:0:0:
65,276,49316,1,0,3:0:0:0:
50,280,49394,1,2,0:3:0:0:
35,284,49473,1,0,3:0:0:0:
25,287,49551,5,2,3:2:0:0:
167,313,49865,5,2,1:2:0:0:
327,343,50180,5,2,1:2:0:0:
493,371,50494,5,2,1:2:0:0:
24,253,51436,5,4,3:1:0:0:
171,341,51593,1,0,0:0:0:0:
75,185,51750,1,8,0:0:0:0:
4,350,51907,6,0,B|53:323|99:328,1,97.9999970092774,0|0,0:0|0:0,0:0:0:0:
291,364,52221,1,0,0:0:0:0:
267,245,52378,1,8,0:0:0:0:
245,121,52535,6,0,B|192:123|137:149,1,97.9999970092774,2|0,0:0|0:0,0:0:0:0:
343,289,52849,2,0,B|384:268|437:266,1,97.9999970092774,2|8,0:0|0:0,0:0:0:0:
311,178,53163,1,2,0:0:0:0:
156,220,53320,1,0,1:0:0:0:
235,199,53477,1,0,1:0:0:0:
76,240,53634,6,0,B|58:185|61:118|61:118|61:118,1,97.9999970092774,8|0,0:0|0:0,0:0:0:0:
132,1,53949,2,0,B|148:99|157:199|157:199,1,195.999994018555,0|8,0:0|0:0,0:0:0:0:
244,122,54420,2,0,B|237:63|221:-1|221:-1|221:-1,1,97.9999970092774,2|0,0:0|0:0,0:0:0:0:
159,300,54734,5,0,1:0:0:0:
244,122,54891,1,8,0:0:0:0:
375,316,55048,2,0,B|323:305|258:306|258:306,1,97.9999970092774,2|0,0:0|0:0,0:0:0:0:
457,244,55362,2,0,B|403:228|350:212|350:212,1,97.9999970092774,2|8,0:0|0:0,0:0:0:0:
512,168,55676,5,0,1:0:0:0:
392,76,55833,1,8,3:0:0:0:
254,204,55990,1,0,3:0:0:0:
151,123,56148,1,8,0:0:0:0:
324,140,56305,1,0,3:0:0:0:
172,249,56462,6,0,B|152:132|227:177|208:38,1,195.999994018555,4|8,1:2|2:0,0:0:0:0:
79,178,56933,2,0,B|77:221|83:276,1,97.9999970092774,2|0,0:0|0:0,0:0:0:0:
229,349,57247,1,2,0:0:0:0:
131,354,57404,1,8,0:0:0:0:
260,259,57561,2,0,B|266:204|264:161,1,97.9999970092774,2|0,0:0|0:0,0:0:0:0:
26,12,57875,2,0,B|19:66|21:109,1,97.9999970092774,2|8,0:0|0:0,0:0:0:0:
281,62,58189,5,2,0:0:0:0:
180,176,58346,1,0,1:0:0:0:
119,40,58504,1,2,1:2:0:0:
260,155,58661,5,8,3:2:0:0:
202,22,58818,1,8,3:0:0:0:
108,131,58975,1,4,3:0:0:0:
202,22,59132,2,0,P|236:22|295:52,1,97.9999970092774,2|8,0:0|0:0,0:0:0:0:
129,238,59446,5,2,1:2:0:0:
270,273,59603,1,0,1:0:0:0:
129,238,59760,2,0,P|85:244|0:260,1,97.9999970092774,2|8,0:0|0:0,0:0:0:0:
189,143,60074,1,2,1:2:0:0:
247,363,60231,2,0,P|281:363|340:333,1,97.9999970092774,0|0,1:0|0:0,0:0:0:0:
429,179,60545,5,8,0:0:0:0:
429,179,60703,2,0,P|345:161|315:67,1,146.999995513916,2|0,0:0|0:0,0:0:0:0:
314,112,61017,1,0,3:0:0:0:
179,225,61174,1,8,3:2:0:0:
339,310,61331,1,4,3:0:0:0:
214,122,61488,5,4,3:1:0:0:
94,191,61645,1,0,0:0:0:0:
266,256,61802,1,8,0:0:0:0:
141,321,61959,2,0,P|77:331|28:343,1,97.9999970092774,2|0,0:0|0:0,0:0:0:0:
9,157,62273,5,2,0:0:0:0:
113,177,62430,1,8,0:0:0:0:
208,196,62587,2,0,P|255:206|304:213,1,97.9999970092774,2|0,0:0|0:0,0:0:0:0:
145,40,62901,2,0,P|111:82|62:89,1,97.9999970092774,2|8,0:0|0:0,0:0:0:0:
158,270,63216,1,0,0:0:0:0:
261,125,63373,1,0,1:0:0:0:
367,299,63530,1,0,1:0:0:0:
367,299,63687,2,0,P|317:319|288:366,1,97.9999970092774,8|0,0:0|3:0,0:0:0:0:
502,189,64001,6,0,B|351:167|441:248|279:208,1,195.999994018555,0|8,3:0|0:0,0:0:0:0:
410,84,64472,2,0,P|474:85|521:92,1,97.9999970092774,0|0,0:0|0:0,0:0:0:0:
336,137,64786,1,2,0:0:0:0:
502,189,64943,1,8,0:0:0:0:
266,73,65100,6,0,P|202:74|155:81,1,97.9999970092774,2|0,1:2|0:0,0:0:0:0:
3,300,65415,2,0,P|53:267|120:275,1,97.9999970092774,2|8,0:0|0:0,0:0:0:0:
166,366,65729,5,2,1:2:0:0:
104,174,65886,1,8,3:3:0:0:
166,366,66043,1,0,3:0:0:0:
307,230,66200,2,0,P|257:197|190:205,1,97.9999970092774,8|0,0:0|0:0,0:0:0:0:
2,29,66514,6,0,B|106:65|190:1,1,195.999994018555,4|10,1:2|0:0,0:0:0:0:
281,100,66985,2,0,P|333:77|374:39,1,97.9999970092774,0|0,0:0|0:0,0:0:0:0:
449,198,67299,5,2,0:0:0:0:
434,111,67456,1,8,0:0:0:0:
255,253,67614,6,0,P|219:263|161:305,1,97.9999970092774,2|0,0:0|0:0,0:0:0:0:
212,159,67928,5,2,1:2:0:0:
311,176,68085,1,8,0:0:0:0:
410,192,68242,1,2,1:2:0:0:
366,108,68399,5,0,1:0:0:0:
255,253,68556,1,0,1:0:0:0:
150,94,68713,1,8,0:0:0:0:
262,40,68870,5,0,3:0:0:0:
229,136,69027,1,8,3:0:0:0:
123,109,69184,1,0,0:0:0:0:
158,20,69341,1,10,0:0:0:0:
320,223,69498,5,8,0:0:0:0:
385,145,69655,1,0,3:0:0:0:
471,219,69812,1,2,1:2:0:0:
399,300,69969,1,8,0:0:0:0:
244,162,70127,6,0,P|235:95|228:48,1,97.9999970092774,4|0,1:0|0:0,0:0:0:0:
47,71,70441,1,0,1:0:0:0:
11,141,70598,2,0,P|18:189|24:238,1,97.9999970092774,8|0,0:0|0:0,0:0:0:0:
138,278,70912,5,8,1:2:0:0:
179,250,70990,1,8,0:0:0:0:
223,249,71069,1,8,0:0:0:0:
264,273,71148,1,8,0:0:0:0:
297,310,71226,1,8,1:2:0:0:
338,342,71305,1,8,0:0:0:0:
395,354,71383,1,8,0:0:0:0:
438,327,71462,1,8,0:0:0:0:
462,285,71540,5,4,0:1:0:0:
427,163,71697,1,2,0:0:0:0:
427,163,71776,1,0,0:0:0:0:
427,163,71854,2,0,P|386:156|328:153,1,97.9999970092774,8|2,0:0|0:0,0:0:0:0:
260,282,72168,5,0,0:0:0:0:
192,325,72325,1,2,0:0:0:0:
192,325,72404,1,0,0:0:0:0:
192,325,72483,1,8,0:0:0:0:
13,277,72640,6,0,P|74:278|143:289,1,97.9999970092774,2|0,0:0|0:0,0:0:0:0:
111,283,72875,1,0,0:0:0:0:
111,283,72954,1,2,0:0:0:0:
200,175,73111,5,8,0:0:0:0:
270,204,73268,1,2,0:0:0:0:
282,127,73425,1,0,0:0:0:0:
408,282,73582,5,2,0:0:0:0:
406,298,73660,1,0,0:0:0:0:
404,313,73739,1,8,0:0:0:0:
488,232,73896,6,0,P|479:192|467:132,1,97.9999970092774,2|0,0:0|0:0,0:0:0:0:
376,104,74210,1,2,0:0:0:0:
376,104,74289,1,0,0:0:0:0:
376,104,74367,2,0,P|359:52|340:7,1,97.9999970092774,8|2,0:0|0:0,0:0:0:0:
208,36,74681,5,0,0:0:0:0:
179,114,74838,1,2,0:0:0:0:
179,114,74917,1,0,0:0:0:0:
179,114,74996,1,8,0:0:0:0:
0,43,75153,6,0,P|54:31|108:32,1,97.9999970092774,2|4,0:0|0:0,0:0:0:0:
263,108,75467,1,10,0:0:0:0:
126,180,75624,1,10,0:0:0:0:
303,226,75781,1,0,0:0:0:0:
185,330,75938,5,8,0:0:0:0:
169,288,76016,1,8,0:0:0:0:
194,239,76095,1,8,0:0:0:0:
223,199,76174,1,8,0:0:0:0:
223,147,76252,1,8,0:0:0:0:
191,103,76331,1,8,0:0:0:0:
191,103,76409,6,0,P|185:160|191:255,1,140,4|0,0:0|0:0,0:0:0:0:
251,361,76880,2,0,P|255:319|252:272,1,70,8|0,0:0|3:0,0:0:0:0:
295,225,77194,1,8,0:0:0:0:
295,225,77508,1,8,0:0:0:0:
421,284,77665,2,0,P|394:278|346:282,1,70,0|8,3:0|0:0,0:0:0:0:
115,331,77979,6,0,P|151:319|189:316,1,70,0|8,3:0|0:0,0:0:0:0:
39,290,78293,2,0,P|64:269|114:252,1,70,0|8,3:0|0:0,0:0:0:0:
172,230,78607,1,0,3:0:0:0:
172,230,78765,1,8,0:0:0:0:
26,108,78922,6,0,P|77:138|160:98,1,140,0|0,3:0|3:0,0:0:0:0:
234,14,79393,2,0,P|225:53|218:94,1,70,8|0,0:0|3:0,0:0:0:0:
219,162,79707,1,8,0:0:0:0:
219,162,80021,1,8,0:0:0:0:
297,107,80178,6,0,P|340:102|388:112,1,70,0|8,3:0|0:0,0:0:0:0:
340,239,80492,2,0,P|292:233|244:243,1,70,0|8,3:0|0:0,0:0:0:0:
391,178,80806,1,0,3:0:0:0:
414,264,80963,1,8,0:0:0:0:
463,207,81121,1,0,3:0:0:0:
488,369,81278,5,8,0:0:0:0:
488,369,81435,2,0,P|481:307|491:211,1,140,4|0,0:1|3:0,0:0:0:0:
488,85,81906,2,0,P|478:129|452:161,1,70,8|0,0:0|3:0,0:0:0:0:
409,205,82220,1,8,0:0:0:0:
409,205,82534,1,8,0:0:0:0:
337,152,82691,6,0,P|331:116|320:71,1,70,0|8,3:0|0:0,0:0:0:0:
219,119,83005,1,0,3:0:0:0:
219,119,83162,2,0,P|205:72|194:36,1,70,8|0,0:0|3:0,0:0:0:0:
77,80,83477,5,8,0:0:0:0:
4,50,83634,1,0,3:0:0:0:
61,0,83791,1,8,0:0:0:0:
146,163,83948,6,0,P|92:154|-4:188,1,140,0|0,3:0|3:0,0:0:0:0:
23,288,84419,2,0,P|67:257|100:248,1,70,8|0,0:0|3:0,0:0:0:0:
158,248,84733,1,8,0:0:0:0:
158,248,85047,1,8,0:0:0:0:
229,367,85204,6,0,P|232:305|241:214,1,140,0|0,3:0|3:0,0:0:0:0:
330,267,85676,2,0,P|326:306|325:344,1,70,8|0,0:0|3:0,0:0:0:0:
421,304,85990,1,8,0:0:0:0:
421,304,86147,1,0,3:0:0:0:
421,304,86461,6,0,P|429:238|393:149,1,140,4|0,0:0|0:0,0:0:0:0:
476,31,86932,2,0,P|436:59|390:59,1,70,8|0,0:0|0:0,0:0:0:0:
276,148,87246,2,0,P|316:117|349:111,1,70,0|0,3:0|3:0,0:0:0:0:
338,28,87560,1,8,0:0:0:0:
337,201,87717,6,0,P|329:246|324:282,1,70,0|0,0:0|3:0,0:0:0:0:
220,256,88032,2,0,P|212:301|207:337,1,70,0|8,0:0|0:0,0:0:0:0:
82,309,88346,2,0,P|26:248|52:178,1,140,0|0,0:0|3:0,0:0:0:0:
176,93,88817,1,8,0:0:0:0:
101,68,88974,6,0,P|108:134|119:227,1,140,0|0,0:0|0:0,0:0:0:0:
204,186,89445,2,0,P|228:155|262:139,1,70,8|0,0:0|0:0,0:0:0:0:
360,260,89759,2,0,P|321:239|289:237,1,70,0|0,3:0|3:0,0:0:0:0:
346,147,90073,1,8,0:0:0:0:
216,325,90230,6,0,P|212:263|202:173,1,140,0|0,0:0|0:0,0:0:0:0:
256,53,90702,1,8,0:0:0:0:
256,53,90859,2,0,P|262:108|264:136,1,70,0|0,0:0|3:0,0:0:0:0:
414,157,91173,5,0,3:0:0:0:
420,74,91330,1,8,0:0:0:0:
414,157,91487,2,0,P|487:122|496:53,1,140,4|0,0:0|0:0,0:0:0:0:
507,262,91958,2,0,P|478:242|418:242,1,70,8|0,0:0|0:0,0:0:0:0:
278,225,92272,2,0,P|310:202|344:195,1,70,0|0,3:0|3:0,0:0:0:0:
444,315,92587,1,8,0:0:0:0:
345,353,92744,5,0,0:0:0:0:
259,325,92901,1,0,3:0:0:0:
345,353,93058,2,0,P|334:299|327:265,1,70,0|8,3:0|0:0,0:0:0:0:
259,231,93372,2,0,P|248:177|241:143,1,70,0|0,0:0|3:0,0:0:0:0:
177,294,93686,2,0,P|166:240|159:206,1,70,0|8,3:0|0:0,0:0:0:0:
74,85,94000,6,0,P|81:119|87:153,1,70,0|0,0:0|3:0,0:0:0:0:
48,282,94314,1,0,0:0:0:0:
48,282,94471,2,0,P|40:247|34:213,1,70,8|0,0:0|0:0,0:0:0:0:
174,119,94785,5,0,3:0:0:0:
235,70,94943,1,0,3:0:0:0:
307,106,95100,1,8,0:0:0:0:
307,106,95257,2,0,P|290:157|280:201,1,70,0|2,0:0|0:0,0:0:0:0:
330,369,95571,5,0,0:0:0:0:
330,369,95728,1,8,0:0:0:0:
256,325,95885,2,0,P|239:274|229:230,1,70,0|4,0:0|0:0,0:0:0:0:
369,202,96199,5,0,0:0:0:0:
452,227,96356,1,8,0:0:0:0:
369,202,96513,1,0,0:0:0:0:
452,227,96670,6,0,P|459:167|476:88,1,125.999996154785,4|0,0:1|1:0,0:0:0:0:
406,51,97141,1,0,0:0:0:0:
406,51,97298,2,0,P|363:62|343:77,1,62.9999980773926,0|0,1:0|0:0,0:0:0:0:
284,131,97612,5,0,1:0:0:0:
270,49,97769,1,0,0:0:0:0:
270,49,97848,1,0,0:0:0:0:
270,49,97926,1,2,0:0:0:0:
202,136,98083,5,0,0:0:0:0:
127,86,98240,1,0,1:0:0:0:
121,190,98397,5,0,0:0:0:0:
48,225,98554,1,0,1:0:0:0:
48,225,98633,1,0,0:0:0:0:
48,225,98711,1,2,0:0:0:0:
95,324,98868,6,0,P|39:308|20:306,1,62.9999980773926,0|0,1:0|0:0,0:0:0:0:
181,256,99183,2,0,P|226:273|282:226,1,125.999996154785,0|0,1:0|1:0,0:0:0:0:
329,154,99654,1,0,0:0:0:0:
329,154,99811,2,0,P|371:156|401:165,1,62.9999980773926,0|0,1:0|0:0,0:0:0:0:
502,159,100125,6,0,P|475:127|457:86,1,62.9999980773926,0|0,1:0|0:0,0:0:0:0:
423,35,100439,1,0,1:0:0:0:
423,35,100596,5,0,0:0:0:0:
366,88,100753,1,0,1:0:0:0:
266,72,100910,5,0,0:0:0:0:
258,153,101067,1,0,1:0:0:0:
258,153,101146,1,0,0:0:0:0:
258,153,101224,1,2,0:0:0:0:
150,165,101382,2,0,P|167:206|179:244,1,62.9999980773926,0|0,1:0|0:0,0:0:0:0:
32,360,101696,6,0,P|77:315|74:263,1,94.499997116089,12|0,3:2|0:0,0:0:0:0:
53,186,102010,5,8,0:0:0:0:
41,161,102088,1,0,3:0:0:0:
41,135,102167,1,2,0:3:0:0:
50,111,102245,1,0,3:0:0:0:
68,91,102324,1,0,3:0:0:0:
89,82,102402,1,0,3:0:0:0:
112,78,102481,1,2,0:3:0:0:
134,82,102560,1,0,3:0:0:0:
150,93,102638,2,0,L|166:146,3,38.5000011749268,8|0|2|0,0:1|0:0|0:3|0:0,0:0:0:0:
276,238,102952,5,0,1:2:0:0:
258,225,103031,1,0,3:0:0:0:
234,220,103109,1,2,0:3:0:0:
211,225,103188,1,0,3:0:0:0:
192,239,103266,1,8,0:0:0:0:
178,258,103345,1,0,3:0:0:0:
173,279,103423,1,2,0:3:0:0:
173,301,103502,1,0,3:0:0:0:
176,322,103580,6,0,L|203:379,3,38.5000011749268,0|0|2|0,3:0|3:0|0:3|3:0,0:0:0:0:
335,339,103895,2,0,L|363:395,3,38.5000011749268,8|0|2|0,0:1|3:0|0:3|3:0,0:0:0:0:
497,372,104209,5,0,3:2:0:0:
465,336,104287,1,0,3:0:0:0:
444,289,104366,1,2,0:3:0:0:
446,237,104444,1,0,3:0:0:0:
475,192,104523,1,8,0:1:0:0:
497,145,104601,1,0,3:0:0:0:
490,90,104680,1,2,0:3:0:0:
461,49,104759,1,0,3:0:0:0:
420,16,104837,6,0,L|373:25,1,38.5000011749268,0|0,3:0|3:0,0:0:0:0:
346,105,104994,2,0,L|274:122,1,38.5000011749268,2|0,0:3|3:0,0:0:0:0:
243,55,105151,2,0,L|185:68,1,38.5000011749268,8|0,0:1|3:0,0:0:0:0:
180,145,105308,2,0,L|122:160,1,38.5000011749268,2|0,0:3|3:0,0:0:0:0:
60,109,105465,5,2,0:0:0:0:
494,24,106722,5,4,3:1:0:0:
330,69,106879,1,0,0:0:0:0:
511,164,107036,1,8,0:0:0:0:
414,8,107193,6,0,B|413:61|413:124,1,97.9999970092774,2|0,0:0|0:0,0:0:0:0:
317,297,107507,1,0,1:0:0:0:
476,252,107664,1,8,0:0:0:0:
317,297,107821,6,0,B|321:243|325:172,1,97.9999970092774,0|0,0:0|0:0,0:0:0:0:
213,73,108135,2,0,B|171:104|107:111,1,97.9999970092774,0|8,0:0|0:0,0:0:0:0:
52,73,108449,1,0,0:0:0:0:
85,213,108606,1,0,1:0:0:0:
0,152,108763,1,0,1:0:0:0:
28,293,108921,2,0,B|76:297|118:328,1,97.9999970092774,8|0,0:0|1:0,0:0:0:0:
274,194,109235,6,0,B|171:153|67:223|67:223,1,195.999994018555,0|8,1:0|0:0,0:0:0:0:
252,97,109706,2,0,B|320:107|388:112|388:112,1,97.9999970092774,2|0,0:0|0:0,0:0:0:0:
323,277,110020,5,2,0:0:0:0:
203,265,110177,1,8,0:0:0:0:
323,277,110334,2,0,B|375:281|439:291|439:291,1,97.9999970092774,0|0,1:0|0:0,0:0:0:0:
283,191,110649,1,0,1:0:0:0:
488,43,110806,2,0,B|506:45|442:35|390:31,1,97.9999970092774,8|0,0:0|0:0,0:0:0:0:
175,154,111119,5,0,1:0:0:0:
306,88,111276,1,8,3:0:0:0:
386,213,111434,1,8,0:0:0:0:
246,282,111591,1,0,1:0:0:0:
286,181,111748,6,0,B|410:148|368:230|499:198,1,195.999994018555,4|8,1:2|0:0,0:0:0:0:
357,291,112219,2,0,B|314:299|254:308,1,97.9999970092774,0|0,0:0|1:0,0:0:0:0:
152,146,112533,1,0,1:0:0:0:
174,269,112690,1,8,0:0:0:0:
225,84,112848,2,0,B|268:76|328:67,1,97.9999970092774,2|0,0:0|0:0,0:0:0:0:
390,213,113162,5,2,0:0:0:0:
390,213,113319,2,0,B|433:205|493:196,1,97.9999970092774,8|0,0:0|0:0,0:0:0:0:
351,140,113632,1,0,1:0:0:0:
261,279,113790,1,0,3:0:0:0:
159,137,113947,1,8,0:0:0:0:
69,257,114104,1,0,3:0:0:0:
28,193,114261,2,0,P|91:173|153:167,1,97.9999970092774,8|0,3:0|0:0,0:0:0:0:
207,298,114575,5,8,0:0:0:0:
364,239,114732,1,2,0:0:0:0:
292,94,114889,1,0,1:0:0:0:
364,239,115046,2,0,P|305:220|255:211,1,97.9999970092774,2|8,3:2|0:0,0:0:0:0:
13,294,115360,1,2,1:2:0:0:
54,365,115517,2,0,P|111:342|164:336,1,97.9999970092774,0|2,0:0|1:2,0:0:0:0:
276,144,115831,5,8,0:0:0:0:
204,181,115989,2,0,P|120:163|90:69,1,146.999995513916,0|0,1:0|0:0,0:0:0:0:
89,114,116303,1,0,3:0:0:0:
239,57,116460,1,8,0:0:0:0:
313,226,116617,1,4,3:0:0:0:
181,283,116774,5,4,0:1:0:0:
247,325,116931,1,0,0:0:0:0:
180,362,117088,1,8,0:0:0:0:
247,325,117245,2,0,P|311:315|360:303,1,97.9999970092774,0|0,0:0|0:0,0:0:0:0:
471,255,117559,5,0,1:0:0:0:
348,172,117716,1,8,0:0:0:0:
462,100,117873,2,0,P|467:53|477:-19,1,97.9999970092774,0|0,0:0|0:0,0:0:0:0:
198,141,118187,2,0,P|191:185|185:238,1,97.9999970092774,0|8,0:0|0:0,0:0:0:0:
257,71,118502,1,0,1:0:0:0:
127,90,118659,1,0,3:0:0:0:
289,203,118816,1,4,3:0:0:0:
55,269,118973,2,0,P|63:208|71:160,1,97.9999970092774,8|0,0:0|1:0,0:0:0:0:
157,369,119287,6,0,B|168:268|179:132,1,195.999994018555,0|8,0:0|0:0,0:0:0:0:
289,203,119758,2,0,P|286:255|281:314,1,97.9999970092774,0|0,0:0|0:0,0:0:0:0:
338,135,120072,1,0,1:0:0:0:
208,246,120229,1,8,0:0:0:0:
390,345,120386,2,0,B|456:348|464:280|464:280,1,97.9999970092774,0|0,3:0|0:0,0:0:0:0:
232,145,120701,2,0,P|175:145|94:148,1,97.9999970092774,0|8,0:0|0:0,0:0:0:0:
394,220,121015,5,0,1:0:0:0:
232,145,121172,1,8,3:0:0:0:
312,296,121329,1,0,3:0:0:0:
373,62,121486,2,0,B|439:59|454:126|454:126,1,97.9999970092774,8|4,0:0|3:0,0:0:0:0:
214,265,121800,2,0,B|287:179|427:229,1,195.999994018555,0|8,1:0|0:0,0:0:0:0:
204,348,122271,2,0,P|145:343|76:342,1,97.9999970092774,2|0,0:0|1:0,0:0:0:0:
202,176,122585,5,2,3:2:0:0:
337,282,122742,1,8,0:0:0:0:
130,225,122900,6,0,P|64:223|5:228,1,97.9999970092774,2|0,0:0|0:0,0:0:0:0:
265,80,123214,5,2,1:2:0:0:
130,225,123371,1,8,0:0:0:0:
63,43,123528,1,2,0:0:0:0:
144,106,123685,5,8,3:0:0:0:
63,43,123842,1,2,3:2:0:0:
40,136,123999,1,8,0:0:0:0:
229,24,124156,5,0,3:0:0:0:
198,182,124313,1,4,0:0:0:0:
337,129,124470,1,0,0:0:0:0:
337,129,124627,1,8,0:0:0:0:
511,222,124784,5,0,0:0:0:0:
401,363,124941,1,0,1:0:0:0:
350,214,125099,1,8,3:0:0:0:
350,214,125256,1,8,0:0:0:0:
464,287,125413,6,0,P|411:284|359:288,1,97.9999970092774,0|0,1:0|1:0,0:0:0:0:
153,246,125727,1,0,0:0:0:0:
313,140,125884,1,8,0:0:0:0:
256,329,126041,1,0,1:0:0:0:
199,137,126198,1,0,3:0:0:0:
356,255,126355,1,8,3:0:0:0:
0,185,126512,2,0,P|53:182|105:186,1,97.9999970092774,8|0,0:0|0:0,0:0:0:0:
256,226,126827,5,2,0:0:0:0:
212,294,127141,1,0,0:0:0:0:
290,318,127455,1,0,0:0:0:0:
270,232,127612,1,0,0:0:0:0:
270,232,127690,1,2,0:0:0:0:
270,232,127769,1,8,0:0:0:0:
278,86,127926,1,0,1:0:0:0:
278,86,128240,5,0,1:0:0:0:
228,143,128397,2,0,P|192:150|125:168,1,77.0000023498536,8|0,0:0|0:0,0:0:0:0:
45,166,128711,5,8,0:2:0:0:
55,131,128790,1,8,0:0:0:0:
68,96,128868,2,0,P|78:57|87:15,1,77.0000023498536,0|0,1:0|0:0,0:0:0:0:
152,81,129183,1,0,0:0:0:0:
155,87,129497,5,8,0:0:0:0:
173,172,129654,2,0,P|159:232|152:259,1,77.0000023498536,2|0,0:0|0:0,0:0:0:0:
174,326,129968,5,2,0:0:0:0:
174,326,130046,1,2,0:0:0:0:
174,326,130125,1,2,0:0:0:0:
244,256,130282,1,8,0:0:0:0:
405,301,130439,1,0,1:0:0:0:
405,301,130753,5,0,1:0:0:0:
410,148,130910,1,2,0:0:0:0:
410,148,131224,5,8,0:0:0:0:
411,186,131303,1,8,0:0:0:0:
413,221,131382,1,8,0:0:0:0:
415,254,131460,1,8,0:0:0:0:
420,287,131539,2,0,P|430:244|443:197,1,77.0000023498536,8|0,0:0|0:0,0:0:0:0:
300,145,131853,6,0,P|289:74|282:46,1,77.0000023498536,4|0,0:1|0:0,0:0:0:0:
368,5,132167,2,0,P|376:48|385:103,1,77.0000023498536,8|0,0:0|0:0,0:0:0:0:
308,245,132481,1,0,0:0:0:0:
225,285,132638,1,0,0:0:0:0:
225,285,132717,1,0,1:0:0:0:
225,285,132795,1,8,0:0:0:0:
151,220,132952,6,0,P|160:182|169:145,1,77.0000023498536,0|0,0:0|3:0,0:0:0:0:
237,199,133266,1,0,0:0:0:0:
207,363,133423,2,0,P|154:354|112:354,1,77.0000023498536,8|0,0:0|0:0,0:0:0:0:
59,324,133738,1,0,3:0:0:0:
44,250,133895,1,0,0:0:0:0:
44,250,133973,1,0,1:0:0:0:
44,250,134052,1,8,0:0:0:0:
21,167,134209,6,0,P|12:129|2:92,1,77.0000023498536,0|0,0:0|1:0,0:0:0:0:
170,27,134523,1,0,3:0:0:0:
236,76,134680,1,8,0:0:0:0:
236,76,134994,5,0,1:0:0:0:
133,120,135151,1,0,0:0:0:0:
133,120,135230,1,0,1:0:0:0:
133,120,135308,1,8,0:0:0:0:
225,202,135465,2,0,P|268:183|325:175,1,77.0000023498536,0|0,0:0|0:0,0:0:0:0:
456,233,135779,1,0,0:0:0:0:
399,286,135937,2,0,P|350:267|300:266,1,77.0000023498536,8|0,0:0|0:0,0:0:0:0:
346,110,136251,5,8,0:0:0:0:
384,94,136329,1,8,0:0:0:0:
418,80,136408,1,8,0:0:0:0:
453,65,136486,1,8,0:0:0:0:
496,60,136565,6,0,P|449:51|398:34,1,77.0000023498536,8|0,0:0|0:0,0:0:0:0:
271,163,136879,6,0,P|224:172|173:189,1,77.0000023498536,4|0,0:1|0:0,0:0:0:0:
201,81,137193,2,0,P|238:70|275:63,1,77.0000023498536,8|0,0:0|0:0,0:0:0:0:
359,229,137507,1,0,0:0:0:0:
441,266,137664,1,0,0:0:0:0:
441,266,137743,1,0,1:0:0:0:
441,266,137821,1,8,0:0:0:0:
496,205,137978,6,0,P|483:159|478:122,1,77.0000023498536,0|0,0:0|3:0,0:0:0:0:
333,27,138293,1,0,1:0:0:0:
271,76,138450,6,0,P|284:122|289:159,1,77.0000023498536,8|0,0:0|0:0,0:0:0:0:
262,224,138764,1,0,3:0:0:0:
199,112,138921,1,0,0:0:0:0:
199,112,138999,1,0,1:0:0:0:
199,112,139078,1,8,0:0:0:0:
169,177,139235,6,0,P|182:223|187:260,1,77.0000023498536,0|0,0:0|1:0,0:0:0:0:
216,104,139549,1,0,3:0:0:0:
83,154,139706,1,8,0:0:0:0:
83,154,140020,1,0,0:0:0:0:
118,49,140177,1,0,0:0:0:0:
118,49,140256,1,0,1:0:0:0:
118,49,140334,1,8,0:0:0:0:
233,29,140491,6,0,P|220:75|215:112,1,77.0000023498536,0|0,0:0|0:0,0:0:0:0:
377,200,140806,1,0,0:0:0:0:
297,177,140963,2,0,P|244:189|192:199,1,77.0000023498536,8|0,0:0|0:0,0:0:0:0:
110,318,141277,1,8,0:0:0:0:
129,350,141355,1,8,0:0:0:0:
169,366,141434,1,8,0:0:0:0:
210,357,141512,1,8,0:0:0:0:
241,341,141591,2,0,P|256:298|260:248,1,77.0000023498536,8|0,0:0|0:0,0:0:0:0:
330,100,141905,6,0,P|383:112|442:126,1,83.9999974365235,4|0,0:1|0:0,0:0:0:0:
408,288,142219,2,0,P|370:280|318:267,1,83.9999974365235,8|0,0:0|0:0,0:0:0:0:
171,102,142533,2,0,P|118:114|57:129,2,83.9999974365235,0|0|8,1:0|0:0|0:0,0:0:0:0:
149,324,143005,2,0,P|110:312|60:298,1,83.9999974365235,0|0,0:0|1:0,0:0:0:0:
209,223,143319,2,0,P|161:210|107:199,1,83.9999974365235,0|8,0:0|0:0,0:0:0:0:
250,109,143633,1,0,0:0:0:0:
250,109,143790,2,0,P|203:101|149:90,1,83.9999974365235,0|0,1:0|0:0,0:0:0:0:
368,34,144104,5,8,0:0:0:0:
410,98,144261,2,0,P|451:94|487:53,1,83.9999974365235,0|0,0:0|1:0,0:0:0:0:
339,233,144575,2,0,P|293:253|262:292,1,83.9999974365235,0|8,0:0|0:0,0:0:0:0:
439,201,144889,1,0,0:0:0:0:
336,142,145046,1,0,1:0:0:0:
231,201,145204,1,0,3:0:0:0:
127,138,145361,1,8,0:0:0:0:
127,138,145518,6,0,P|61:152|37:157,1,83.9999974365235,0|0,0:0|1:0,0:0:0:0:
203,38,145832,2,0,P|269:52|293:57,2,83.9999974365235,0|8|0,0:0|0:0|0:0,0:0:0:0:
158,232,146303,1,8,0:0:0:0:
196,223,146382,1,8,0:0:0:0:
237,211,146460,1,8,0:0:0:0:
273,202,146539,1,8,0:0:0:0:
304,193,146617,6,0,P|349:205|393:239,1,83.9999974365235,8|0,0:0|0:0,0:0:0:0:
491,359,146931,2,0,P|467:310|462:263,1,83.9999974365235,4|0,0:0|0:0,0:0:0:0:
312,279,147245,2,0,P|346:306|369:344,1,83.9999974365235,8|0,0:0|0:0,0:0:0:0:
446,166,147560,2,0,L|465:77,2,83.9999974365235,0|0|8,1:0|0:0|0:0,0:0:0:0:
350,91,148031,2,0,L|325:9,1,83.9999974365235,0|0,0:0|1:0,0:0:0:0:
273,178,148345,2,0,L|221:97,1,83.9999974365235,0|8,0:0|0:0,0:0:0:0:
109,250,148659,1,0,0:0:0:0:
109,250,148816,2,0,P|167:240|210:241,1,83.9999974365235,0|0,1:0|0:0,0:0:0:0:
21,17,149130,5,8,0:0:0:0:
84,58,149287,2,0,P|142:68|185:67,1,83.9999974365235,0|0,0:0|1:0,0:0:0:0:
0,163,149601,2,0,P|44:163|96:163,1,83.9999974365235,0|8,0:0|0:0,0:0:0:0:
259,199,149916,5,0,0:0:0:0:
140,279,150073,1,0,1:0:0:0:
288,280,150230,1,0,3:0:0:0:
174,195,150387,1,8,0:0:0:0:
219,346,150544,2,0,P|216:312|210:256,1,83.9999974365235,0|0,0:0|1:0,0:0:0:0:
298,104,150858,6,0,P|287:61|276:14,2,83.9999974365235,0|8|0,0:0|0:0|0:0,0:0:0:0:
472,235,151329,1,8,0:0:0:0:
434,215,151408,1,8,0:0:0:0:
391,203,151486,1,8,0:0:0:0:
350,202,151565,1,8,0:0:0:0:
310,214,151643,2,0,P|264:222|225:229,1,83.9999974365235,8|0,0:0|0:0,0:0:0:0:
56,341,151957,6,0,P|125:318|137:217,1,167.999994873047,4|10,0:1|0:0,0:0:0:0:
74,156,152429,1,0,0:0:0:0:
204,178,152586,1,2,1:2:0:0:
123,84,152743,1,0,1:0:0:0:
253,102,152900,2,0,P|298:104|359:112,1,83.9999974365235,10|0,0:0|0:0,0:0:0:0:
89,168,153214,6,0,P|50:165|-9:175,2,83.9999974365235,2|0|10,1:2|0:0|0:0,0:0:0:0:
228,214,153685,1,0,0:0:0:0:
87,266,153842,1,2,1:2:0:0:
172,141,153999,1,0,1:2:0:0:
182,293,154156,6,0,P|196:326|216:383,1,83.9999974365235,10|0,0:0|0:0,0:0:0:0:
350,264,154471,1,2,1:2:0:0:
258,237,154628,1,0,0:0:0:0:
350,264,154785,6,0,P|393:259|448:266,1,83.9999974365235,10|0,0:0|0:0,0:0:0:0:
322,183,155099,1,2,1:2:0:0:
276,319,155256,1,0,1:2:0:0:
180,222,155413,1,10,0:0:0:0:
235,157,155570,5,0,0:0:0:0:
180,222,155727,1,2,1:2:0:0:
258,237,155884,1,0,0:0:0:0:
429,114,156041,5,10,0:0:0:0:
327,48,156198,1,0,0:0:0:0:
317,166,156355,1,2,1:2:0:0:
327,48,156512,5,0,1:0:0:0:
371,230,156669,2,0,P|425:219|470:220,1,83.9999974365235,10|0,0:0|0:0,0:0:0:0:
512,56,156984,6,0,B|477:92|477:92|479:102|479:102|453:159,1,112,4|0,1:2|0:0,0:0:0:0:
481,337,157298,5,8,0:1:0:0:
471,298,157376,1,0,3:0:0:0:
443,261,157455,1,2,0:3:0:0:
403,249,157533,1,0,3:0:0:0:
358,253,157612,1,0,3:0:0:0:
318,277,157690,1,0,0:0:0:0:
289,316,157769,1,2,0:3:0:0:
241,323,157848,1,0,3:0:0:0:
203,296,157926,6,0,L|216:234,3,56,8|0|2|0,0:1|3:0|0:3|3:0,0:0:0:0:
117,118,158240,2,0,L|127:182,3,56,0|0|2|0,3:0|3:0|0:3|3:0,0:0:0:0:
45,304,158554,2,0,L|62:233,1,56,8|0,0:1|3:0,0:0:0:0:
112,365,158711,2,0,L|127:304,1,56,2|0,0:3|3:0,0:0:0:0:
218,187,158868,5,0,3:0:0:0:
260,170,158947,1,0,3:0:0:0:
306,182,159026,1,2,0:3:0:0:
339,214,159104,1,0,3:0:0:0:
382,238,159183,1,8,0:1:0:0:
432,236,159261,1,0,3:0:0:0:
479,207,159340,1,2,0:3:0:0:
489,160,159418,1,0,3:0:0:0:
451,176,159497,6,0,P|470:245|478:290,1,112,0|0,3:2|0:0,0:0:0:0:
270,255,160125,6,0,P|289:324|296:371,1,112
295,177,160439,1,8,0:0:0:0:
295,177,160518,1,8,0:0:0:0:
295,177,160596,1,0,3:0:0:0:
91,311,160910,5,0,3:0:0:0:
0,102,161382,5,8,0:0:0:0:
40,73,161460,1,8,0:0:0:0:
86,71,161539,1,8,0:0:0:0:
126,85,161617,1,8,0:0:0:0:
156,121,161696,1,8,0:0:0:0:
91,339,162010,5,4,0:3:0:0:
503,92,163266,5,0,1:0:0:0:
458,67,163345,1,0,1:0:0:0:
405,69,163423,1,8,0:0:0:0:
367,102,163502,1,8,0:0:0:0:
340,145,163580,1,8,0:0:0:0:
289,165,163659,1,8,0:0:0:0:
238,149,163738,1,8,0:0:0:0:
218,108,163816,1,8,0:0:0:0:
165,53,163895,5,8,0:1:0:0:
147,49,163973,1,8,0:1:0:0:
132,46,164052,1,8,0:1:0:0:
123,43,164130,1,8,0:1:0:0:
72,103,164209,5,8,0:0:0:0:
56,99,164287,1,8,0:0:0:0:
39,94,164366,1,8,0:0:0:0:
24,90,164444,1,8,0:0:0:0:
8,87,164523,6,0,B|66:54|125:100|92:127|159:169|234:120,1,224,4|8,0:1|0:0,0:0:0:0:
394,35,164994,2,0,B|332:38|262:27|262:27,1,112,0|0,0:0|1:2,0:0:0:0:
176,217,165308,5,0,3:0:0:0:
181,54,165465,1,10,0:0:0:0:
176,217,165622,2,0,B|112:207|50:212|50:212,1,112,0|0,3:0|0:0,0:0:0:0:
234,354,165936,2,0,B|171:323|110:311|110:311,1,112,0|10,0:0|0:0,0:0:0:0:
300,228,166250,5,0,0:0:0:0:
469,239,166407,1,0,3:0:0:0:
380,363,166564,1,8,3:0:0:0:
386,168,166722,5,8,0:0:0:0:
380,363,166879,1,8,0:0:0:0:
287,104,167036,6,0,B|294:230|291:353,1,224,6|8,0:0|2:0,0:0:0:0:
112,257,167507,2,0,B|155:202|233:209,1,112,2|0,0:0|0:3,0:0:0:0:
385,291,167821,1,2,0:0:0:0:
194,298,167978,1,8,0:0:0:0:
471,214,168135,2,0,B|428:159|356:164,1,112,2|0,0:2|0:3,0:0:0:0:
203,63,168450,2,0,B|246:8|318:13,1,112,2|8,0:0|0:0,0:0:0:0:
290,133,168763,5,0,1:0:0:0:
205,212,168920,1,0,3:0:0:0:
113,140,169078,1,0,3:0:0:0:
305,266,169235,5,8,3:2:0:0:
203,136,169392,1,4,3:0:0:0:
101,257,169549,1,4,3:2:0:0:
190,365,169706,2,0,P|201:300|211:236,1,112,0|8,0:0|0:0,0:0:0:0:
131,22,170020,5,0,1:0:0:0:
104,246,170177,1,0,3:0:0:0:
131,22,170334,2,0,P|122:77|112:132,1,112,0|8,1:0|0:0,0:0:0:0:
299,277,170648,1,0,1:0:0:0:
366,239,170806,2,0,P|375:183|384:128,1,112,0|0,1:0|0:0,0:0:0:0:
245,19,171119,5,8,0:0:0:0:
245,19,171277,2,0,B|270:112|208:89|250:218,1,168,0|0,1:0|0:0,0:0:0:0:
240,183,171591,1,0,1:0:0:0:
318,130,171748,1,8,0:0:0:0:
158,179,171905,1,8,3:0:0:0:
277,263,172062,5,4,0:1:0:0:
220,109,172219,1,0,0:0:0:0:
277,263,172376,1,8,0:0:0:0:
118,310,172533,2,0,P|57:323|-1:336,1,112,0|0,0:0|1:0,0:0:0:0:
255,187,172847,5,0,3:0:0:0:
332,201,173004,1,8,0:0:0:0:
403,217,173162,2,0,P|464:230|522:243,1,112,2|0,0:0|0:0,0:0:0:0:
379,82,173476,2,0,P|321:41|272:48,1,112,2|8,0:0|0:0,0:0:0:0:
192,266,173790,1,2,0:0:0:0:
305,119,173947,1,0,3:0:0:0:
114,124,174104,1,8,3:0:0:0:
267,312,174261,2,0,P|209:353|160:346,1,112,8|0,0:0|1:0,0:0:0:0:
15,160,174575,6,0,B|164:132|76:219|261:184,1,224,4|8,0:3|0:0,0:0:0:0:
467,254,175046,2,0,P|406:253|322:259,1,112,0|0,0:0|0:0,0:0:0:0:
310,146,175360,1,0,1:0:0:0:
281,311,175517,1,8,0:0:0:0:
136,197,175674,2,0,P|200:198|257:207,1,112,2|0,0:0|0:0,0:0:0:0:
382,4,175989,2,0,P|388:72|387:124,1,112,2|8,0:0|0:0,0:0:0:0:
279,275,176303,5,2,0:0:0:0:
248,181,176460,1,0,3:0:0:0:
377,288,176617,1,6,3:0:0:0:
204,352,176774,2,0,P|198:284|199:232,1,112,10|0,0:0|3:0,0:0:0:0:
0,112,177088,2,0,P|60:44|186:39,1,224,4|10,0:0|0:0,0:0:0:0:
360,237,177559,2,0,P|331:174|254:149,1,112,0|0,0:0|1:0,0:0:0:0:
39,248,177873,5,8,3:0:0:0:
257,294,178030,1,8,0:0:0:0:
39,248,178188,6,0,P|79:205|167:197,1,112,0|0,1:0|0:0,0:0:0:0:
182,345,178502,1,0,0:0:0:0:
200,150,178659,2,0,P|208:81|213:17,1,112,8|2,0:0|0:0,0:0:0:0:
115,114,178973,1,0,1:0:0:0:
281,179,179130,1,2,3:0:0:0:
93,354,179287,6,0,B|82:297|82:297|91:280|91:280|80:220,1,112,8|2,0:0|0:0,0:0:0:0:
191,41,179601,2,0,B|202:98|202:98|193:115|193:115|204:175,1,112,0|2,0:0|0:0,0:0:0:0:
334,377,179916,2,0,B|323:320|323:320|332:303|332:303|321:243,1,112,8|2,0:0|0:0,0:0:0:0:
394,18,180230,2,0,B|405:75|405:75|396:92|396:92|407:152,1,112,0|2,0:0|0:0,0:0:0:0:
506,357,180544,2,0,B|495:300|495:300|504:283|504:283|493:223,1,112,8|2,0:0|0:0,0:0:0:0:
483,110,180858,5,8,0:0:0:0:
441,186,181015,1,0,3:0:0:0:
263,20,181172,5,8,0:0:0:0:
257,101,181329,1,0,3:0:0:0:
21,115,181486,5,0,3:0:0:0:
46,190,181643,1,4,3:0:0:0:
21,115,181800,2,0,B|87:99|87:99|110:65|110:65|191:51,1,168,12|0,0:0|0:0,0:0:0:0:
182,51,182115,6,0,P|134:40|66:26,1,112,4|0,3:1|0:0,0:0:0:0:
158,195,182429,1,8,0:0:0:0:
58,350,182586,6,0,P|103:342|187:327,1,112,0|8,3:0|0:0,0:0:0:0:
224,130,182900,1,0,3:0:0:0:
73,198,183057,1,8,0:0:0:0:
214,266,183214,2,0,P|262:274|339:290,1,112,0|8,3:0|0:0,0:0:0:0:
124,115,183528,1,0,3:0:0:0:
118,279,183685,5,8,0:0:0:0:
273,194,183842,1,0,3:0:0:0:
441,311,183999,1,8,0:0:0:0:
261,373,184156,1,0,3:0:0:0:
297,281,184313,1,8,0:0:0:0:
224,114,184471,5,0,3:0:0:0:
261,28,184628,2,0,L|392:49,1,112,8|0,0:0|0:0,0:0:0:0:
512,263,184942,5,8,0:0:0:0:
459,202,185099,2,0,P|395:211|323:223,1,112,0|8,3:0|0:0,0:0:0:0:
130,280,185413,5,0,3:0:0:0:
217,247,185570,1,8,0:0:0:0:
276,317,185727,1,0,3:0:0:0:
190,354,185884,1,8,0:0:0:0:
12,152,186041,5,0,3:0:0:0:
147,190,186198,1,8,0:0:0:0:
192,69,186355,1,0,3:0:0:0:
64,42,186512,1,8,0:0:0:0:
64,42,186669,1,0,3:0:0:0:
237,143,186827,5,8,0:0:0:0:
275,146,186905,1,8,0:0:0:0:
320,150,186984,1,8,0:0:0:0:
364,157,187062,1,8,0:0:0:0:
383,117,187141,6,0,P|201:139|84:153,1,293.999991027832,4|0,0:1|0:0,0:0:0:0:
168,222,188397,2,0,P|251:212|343:201,1,168,8|0,0:0|0:0,0:0:0:0:
331,284,189026,2,0,B|323:289|323:289|314:281|314:281|307:291|307:291|294:283|294:283|284:291|284:291|274:286|274:286|262:293|262:293|258:288|258:288|244:298|244:298|237:290|237:290|231:300|231:300|221:293|221:293|217:301|217:301|201:304,1,168,2|0,0:1|0:0,0:0:0:0:
311,368,189654,6,0,P|357:367|410:388,1,83.9999974365235,8|0,0:0|0:0,0:0:0:0:
203,303,189968,2,0,P|147:321|120:351,1,83.9999974365235
53,372,190282,1,0,0:0:0:0:
0,300,190439,1,0,0:0:0:0:
0,300,190518,1,0,0:0:0:0:
0,300,190596,1,2,0:0:0:0:
94,188,190753,6,0,P|142:208|176:243,1,83.9999974365235,0|0,0:0|0:0,0:0:0:0:
228,147,191067,1,0,0:0:0:0:
228,147,191225,2,0,P|262:176|282:244,1,83.9999974365235,0|0,0:0|0:0,0:0:0:0:
370,157,191539,1,0,0:0:0:0:
398,234,191696,1,0,0:0:0:0:
398,234,191774,1,0,0:0:0:0:
398,234,191853,1,2,0:0:0:0:
437,92,192010,6,0,P|469:44|480:-7,1,83.9999974365235,0|0,0:0|0:0,0:0:0:0:
377,33,192324,1,0,0:0:0:0:
295,133,192481,2,0,P|272:101|275:43,1,83.9999974365235,0|0,0:0|0:0,0:0:0:0:
195,85,192795,5,0,0:0:0:0:
114,59,192952,1,0,0:0:0:0:
114,59,193031,1,0,0:0:0:0:
114,59,193109,1,2,0:0:0:0:
27,176,193266,6,0,P|71:148|119:143,1,83.9999974365235,0|0,0:0|0:0,0:0:0:0:
244,226,193581,1,0,0:0:0:0:
244,226,193738,2,0,P|200:202|134:205,1,83.9999974365235,0|0,0:0|0:0,0:0:0:0:
246,334,194052,5,2,0:0:0:0:
281,311,194130,1,2,3:0:0:0:
319,307,194209,1,2,0:3:0:0:
353,324,194287,1,2,0:0:0:0:
375,353,194366,2,0,P|370:285|365:243,1,83.9999974365235,2|0,0:1|0:0,0:0:0:0:
499,134,194680,6,0,P|453:166|406:166,1,90.9999958343508,4|0,0:1|0:0,0:0:0:0:
419,168,194916,1,0,0:0:0:0:
419,168,194994,2,0,P|368:157|328:147,1,90.9999958343508,8|2,0:0|0:0,0:0:0:0:
243,92,195308,5,0,0:0:0:0:
284,23,195465,1,2,0:0:0:0:
284,23,195544,1,0,0:0:0:0:
284,23,195622,1,8,0:0:0:0:
78,79,195780,6,0,P|117:58|169:53,1,90.9999958343508,2|0,0:0|0:0,0:0:0:0:
163,53,196015,1,0,0:0:0:0:
163,53,196094,1,2,0:0:0:0:
229,189,196251,5,8,0:0:0:0:
265,256,196408,1,2,0:0:0:0:
318,203,196565,1,0,0:0:0:0:
182,266,196722,5,2,0:0:0:0:
170,277,196800,1,0,0:0:0:0:
163,284,196879,1,8,0:0:0:0:
293,130,197036,6,0,P|284:90|266:39,1,90.9999958343508,2|0,0:0|0:0,0:0:0:0:
427,163,197350,1,2,0:0:0:0:
427,163,197429,1,0,0:0:0:0:
427,163,197507,2,0,P|414:117|399:76,1,90.9999958343508,8|2,0:0|0:0,0:0:0:0:
474,298,197821,5,0,0:0:0:0:
501,220,197978,1,2,0:0:0:0:
501,220,198057,1,0,0:0:0:0:
501,220,198136,1,8,0:0:0:0:
356,210,198293,6,0,P|302:218|281:262,1,92.3999997180176,2|0,0:0|0:0,0:0:0:0:
184,359,198603,1,10,0:0:0:0:
101,342,198757,1,8,0:0:0:0:
23,328,198911,1,2,0:0:0:0:
168,266,199065,5,8,0:0:0:0:
338,344,199219,1,0,1:0:0:0:
463,224,199373,1,8,3:0:0:0:
299,150,199526,1,4,0:1:0:0:
