osu file format v14

[General]
AudioFilename: audio.ogg
AudioLeadIn: 0
PreviewTime:56674
Countdown: 0
SampleSet: Soft
StackLeniency: 0.7
Mode: 0
LetterboxInBreaks: 0
WidescreenStoryboard: 0

[Editor]
Bookmarks: 11442,21339,31236,46082,75154,84123
DistanceSpacing: 1
BeatDivisor: 4
GridSize: 32
TimelineZoom: 1.4

[Metadata]
Title:On the Frontline (TV Size)
TitleUnicode:オン・ザ・フロントライン (TV Size)
Artist:hitorie
ArtistUnicode:ヒトリエ
Creator:kxlman
Version:nemi's Expert
Source:無職転生II ~異世界行ったら本気だす~
Tags:nemidnight sekai sekai-nyan sekaii suimya andrea osuplayer111 midorijeon シルフィエット sylphiette sylphy mushoku tensei: isekai ittara honki dasu 2nd second season s2 part 2 two jobless reincarnation: i will seriously try if go to another world anime opening op japanese rock jrock j-rock male vocals
BeatmapID:4572661
BeatmapSetID:2167353

[Difficulty]
HPDrainRate:4.8
CircleSize:4
OverallDifficulty:9
ApproachRate:9.2
SliderMultiplier:1.6
SliderTickRate:1

[Events]
//Background and Video events
0,0,"kolmanbg.jpg",0,0
Video,0,"op2.avi"
//Break Periods
//Storyboard Layer 0 (Background)
//Storyboard Layer 1 (Fail)
//Storyboard Layer 2 (Pass)
//Storyboard Layer 3 (Foreground)
//Storyboard Layer 4 (Overlay)
//Storyboard Sound Samples

[TimingPoints]
1553,309.278350515464,4,2,1,50,1,0
1553,-166.666666666667,4,2,1,50,0,0
5109,-166.666666666667,4,2,1,50,0,0
5264,-166.666666666667,4,2,1,50,0,0
5573,-166.666666666667,4,2,1,50,0,0
6192,-166.666666666667,4,2,1,50,0,0
6656,-166.666666666667,4,2,1,50,0,0
6810,-166.666666666667,4,2,1,50,0,0
8821,-166.666666666667,4,2,1,50,0,0
8975,-166.666666666667,4,2,1,50,0,0
9903,-166.666666666667,4,2,1,50,0,0
10212,-166.666666666667,4,2,1,50,0,0
11449,-125,4,2,1,60,0,0
12841,-125,4,2,1,60,0,0
12996,-125,4,2,1,60,0,0
15315,-125,4,2,1,60,0,0
15470,-125,4,2,1,60,0,0
18872,-125,4,2,1,65,0,0
19877,-125,4,2,1,65,0,0
19955,-125,4,2,1,65,0,0
20032,-125,4,2,1,65,0,0
20109,-125,4,2,1,50,0,0
21346,-100,4,2,1,75,0,0
25058,-80,4,2,1,75,0,0
25367,-100,4,2,1,75,0,0
28769,-166.666666666667,4,2,1,75,0,0
30006,-111.111111111111,4,2,1,70,0,0
30161,-111.111111111111,4,2,1,70,0,0
30315,-111.111111111111,4,2,1,70,0,0
31243,-111.111111111111,4,2,1,65,0,0
31553,-111.111111111111,4,2,1,65,0,0
31707,-111.111111111111,4,2,1,65,0,0
32480,-111.111111111111,4,2,1,65,0,0
32790,-111.111111111111,4,2,1,65,0,0
33717,-111.111111111111,4,2,1,65,0,0
33872,-111.111111111111,4,2,1,65,0,0
36501,-111.111111111111,4,2,1,65,0,0
36656,-111.111111111111,4,2,1,65,0,0
38666,-111.111111111111,4,2,1,65,0,0
38975,-111.111111111111,4,2,1,65,0,0
39826,-111.111111111111,4,2,1,65,0,0
39903,-111.111111111111,4,2,1,65,0,0
41449,-111.111111111111,4,2,1,65,0,0
41604,-111.111111111111,4,2,1,65,0,0
42223,-111.111111111111,4,2,1,65,0,0
42377,-111.111111111111,4,2,1,65,0,0
43614,-111.111111111111,4,2,1,65,0,0
43769,-111.111111111111,4,2,1,65,0,0
46089,-100,4,2,1,70,0,0
53511,-100,4,2,1,70,0,0
53821,-100,4,2,1,70,0,0
55676,-125,4,2,1,70,0,0
55831,-125,4,2,1,70,0,0
55985,-125,4,2,1,50,0,0
56913,-125,4,2,1,65,0,0
57068,-125,4,2,1,65,0,0
57223,-90.9090909090909,4,2,1,80,0,1
59078,-90.9090909090909,4,2,1,80,0,1
59233,-90.9090909090909,4,2,1,80,0,1
59851,-90.9090909090909,4,2,1,80,0,1
60006,-90.9090909090909,4,2,1,80,0,1
63563,-90.9090909090909,4,2,1,80,0,1
63717,-90.9090909090909,4,2,1,80,0,1
75161,309.278350515464,3,2,1,75,1,0
75161,-80,7,2,1,75,0,0
76011,-80,7,2,1,75,0,0
76088,309.278350515464,4,2,1,75,1,0
76088,-80,7,2,1,75,0,0
76319,-80,7,2,1,75,0,0
76551,-80,7,2,1,75,0,0
77325,309.278350515464,3,2,1,75,1,0
77325,-80,3,2,1,75,0,0
78175,-80,7,2,1,75,0,0
78253,309.278350515464,4,2,1,75,1,0
78253,-80,7,2,1,75,0,0
78484,-80,7,2,1,75,0,0
78716,-80,7,2,1,75,0,0
79490,309.278350515464,3,2,1,75,1,0
79490,-80,3,2,1,75,0,0
80418,309.278350515464,4,2,1,75,1,0
80418,-80,4,2,1,75,0,0
81655,309.278350515464,3,2,1,75,1,0
81655,-80,3,2,1,75,0,0
82583,309.278350515464,4,2,1,75,1,0
82892,-80,4,2,1,75,0,0
84130,309.278350515464,4,2,1,65,1,0
84130,-80,7,2,1,65,0,0
84207,-80,7,2,1,65,0,0
89233,-80,7,2,1,5,0,0

[Colours]
Combo1 : 250,52,3
Combo2 : 35,169,58

[HitObjects]
378,384,1553,6,0,P|350:339|208:333,1,192,2|2,0:0|0:0,0:0:0:0:
221,323,2480,2,0,P|231:285|231:261,1,47.9999999999999,2|2,0:0|0:0,0:0:0:0:
143,354,2790,6,0,P|133:317|141:240,1,95.9999999999998,2|2,0:0|0:0,0:0:0:0:
284,188,3408,2,0,P|292:152|279:80,1,95.9999999999998,2|2,0:0|0:0,0:0:0:0:
130,5,4027,5,2,0:0:0:0:
130,4,4336,2,0,P|124:56|111:111,1,95.9999999999998,2|2,0:0|0:0,0:0:0:0:
334,156,4955,6,0,P|324:112|322:95,1,47.9999999999999,2|0,0:0|0:0,0:0:0:0:
407,36,5264,2,0,P|441:68|488:73,2,95.9999999999998,2|0|2,0:0|0:0|0:0,0:0:0:0:
481,226,6192,5,2,0:0:0:0:
397,254,6346,1,2,0:0:0:0:
358,178,6501,2,0,L|370:120,1,47.9999999999999,2|0,0:0|0:0,0:0:0:0:
397,254,6810,2,0,L|387:313,1,47.9999999999999,2|0,0:0|0:0,0:0:0:0:
295,263,7120,2,0,P|244:273|194:278,1,95.9999999999998,2|2,0:0|0:0,0:0:0:0:
45,310,7583,1,2,0:0:0:0:
121,331,7738,6,0,P|120:285|87:235,1,95.9999999999998,2|2,0:0|0:0,0:0:0:0:
25,88,8357,2,0,P|0:128|0:176,1,95.9999999999998,2|2,0:0|0:0,0:0:0:0:
117,128,8821,5,0,0:0:0:0:
163,203,8975,2,0,B|320:210|263:279|424:321,1,287.999999999999,2|2,0:0|0:0,0:0:0:0:
402,86,10212,2,0,P|508:37|464:121,1,287.999999999999,2|2,0:0|0:0,0:0:0:0:
381,165,11449,6,0,P|333:152|298:149,1,64,6|0,1:2|0:0,0:0:0:0:
184,55,11759,2,0,P|217:65|258:69,1,64,2|0,1:2|0:0,0:0:0:0:
212,201,12068,2,0,P|147:193|90:233,1,128,2|2,1:2|1:2,0:0:0:0:
135,348,12532,1,0,0:0:0:0:
275,283,12687,6,0,L|344:298,1,64,2|0,1:2|0:0,0:0:0:0:
212,201,12996,2,0,L|190:133,1,64,2|0,1:2|0:0,0:0:0:0:
179,301,13305,2,0,L|131:353,1,64,2|0,1:2|0:0,0:0:0:0:
61,364,13614,1,2,1:2:0:0:
6,259,13769,5,0,3:2:0:0:
6,259,13846,1,0,3:2:0:0:
6,259,13924,2,0,L|32:130,1,128,2|2,1:2|1:2,0:0:0:0:
136,80,14388,1,0,0:0:0:0:
56,8,14542,2,0,P|19:14|-7:43,1,64,2|0,1:2|0:0,0:0:0:0:
136,80,14851,2,0,P|164:102|200:103,1,64,2|0,1:2|0:0,0:0:0:0:
289,27,15161,5,2,1:2:0:0:
322,105,15315,1,0,0:0:0:0:
406,118,15470,1,2,1:2:0:0:
478,71,15625,1,2,0:0:0:0:
322,105,15779,5,2,1:2:0:0:
464,175,15934,1,0,0:0:0:0:
351,237,16089,1,2,1:2:0:0:
406,118,16243,1,2,0:0:0:0:
505,265,16398,6,0,L|491:341,1,64,2|0,1:2|0:0,0:0:0:0:
272,270,16707,2,0,L|260:207,1,64,2|0,1:2|0:0,0:0:0:0:
46,300,17016,2,0,L|34:362,1,64,2|0,1:2|0:0,0:0:0:0:
144,225,17326,1,2,1:2:0:0:
7,185,17480,1,2,0:0:0:0:
70,73,17635,6,0,L|52:-5,1,64,2|0,1:2|0:0,0:0:0:0:
264,139,17944,2,0,L|252:201,1,64,2|0,1:2|0:0,0:0:0:0:
462,74,18254,2,0,L|450:11,1,64,2|0,1:2|0:0,0:0:0:0:
258,0,18563,2,0,L|257:75,1,64,2|0,1:2|0:0,0:0:0:0:
328,204,18872,5,10,0:0:0:0:
360,229,18949,1,8,0:0:0:0:
401,236,19027,1,0,1:2:0:0:
439,219,19104,1,0,1:2:0:0:
464,186,19181,1,10,0:3:0:0:
457,144,19259,1,8,0:3:0:0:
431,111,19336,1,2,1:2:0:0:
389,111,19413,1,0,1:2:0:0:
353,132,19491,2,0,L|301:120,1,32,10|8,0:0|0:0,0:0:0:0:
256,176,19645,5,10,0:0:0:0:
256,176,19723,1,8,0:0:0:0:
256,176,19800,2,0,L|211:186,1,32,10|8,0:0|0:0,0:0:0:0:
129,61,19955,2,0,L|84:51,1,32,2|0,1:2|0:0,0:0:0:0:
489,374,21346,6,0,L|478:285,1,80,14|0,0:0|1:2,0:0:0:0:
470,262,21578,1,0,1:2:0:0:
470,262,21656,1,10,0:0:0:0:
305,340,21810,1,0,1:2:0:0:
252,164,21965,6,0,L|264:80,1,80,10|0,0:0|1:2,0:0:0:0:
290,67,22197,1,0,1:2:0:0:
290,67,22274,2,0,L|343:78,1,40,10|8,0:0|0:0,0:0:0:0:
216,20,22429,2,0,L|169:27,1,40,0|0,1:2|1:2,0:0:0:0:
380,147,22583,6,0,L|470:127,1,80,10|0,0:0|1:2,0:0:0:0:
288,325,22893,2,0,L|374:351,1,80,10|0,0:0|1:2,0:0:0:0:
219,190,23202,5,10,0:0:0:0:
219,190,23279,1,8,0:0:0:0:
219,190,23357,2,0,L|209:133,1,40,0|0,1:2|1:2,0:0:0:0:
50,190,23511,1,10,0:0:0:0:
50,190,23589,1,8,0:0:0:0:
50,190,23666,2,0,L|59:248,1,40,0|0,1:2|1:2,0:0:0:0:
177,357,23821,6,0,L|162:273,1,80,10|0,0:0|1:2,0:0:0:0:
150,55,24130,1,10,0:0:0:0:
289,227,24284,1,0,1:2:0:0:
69,170,24439,1,10,0:0:0:0:
278,82,24594,5,0,1:2:0:0:
278,82,24671,1,0,1:2:0:0:
278,82,24748,1,10,0:0:0:0:
171,277,24903,1,0,1:2:0:0:
352,139,25058,6,0,B|400:173|463:145|463:145|496:159,1,150,10|0,0:0|1:2,0:0:0:0:
509,82,25367,2,0,P|510:40|473:10,1,80,10|0,0:0|1:2,0:0:0:0:
352,139,25676,1,10,0:0:0:0:
242,20,25831,5,0,1:2:0:0:
210,25,25908,1,0,1:2:0:0:
178,29,25985,1,10,0:0:0:0:
146,34,26063,1,8,0:0:0:0:
114,38,26140,1,8,0:0:0:0:
82,43,26217,1,8,0:0:0:0:
50,48,26295,6,0,B|34:89|34:89|50:124,1,80,6|0,1:2|0:0,0:0:0:0:
147,234,26604,5,10,1:2:0:0:
147,234,26681,1,8,0:0:0:0:
147,234,26759,2,0,L|154:185,1,40,10|8,0:0|0:0,0:0:0:0:
236,314,26913,1,10,1:2:0:0:
236,314,26991,1,8,0:0:0:0:
236,314,27068,2,0,L|241:353,1,40,10|8,0:0|0:0,0:0:0:0:
341,249,27223,1,10,1:2:0:0:
341,249,27300,1,8,0:0:0:0:
341,249,27377,2,0,L|405:260,1,40,8|8,0:0|0:0,0:0:0:0:
215,123,27532,6,0,L|131:109,1,80,6|0,1:2|0:0,0:0:0:0:
314,21,27841,5,10,1:2:0:0:
353,14,27918,1,8,0:0:0:0:
393,11,27996,1,10,0:0:0:0:
432,7,28073,1,8,0:0:0:0:
471,3,28150,2,0,L|481:56,1,40,10|8,1:2|0:0,0:0:0:0:
378,143,28305,2,0,L|370:103,1,40,10|8,0:3|0:3,0:0:0:0:
465,234,28460,5,6,1:3:0:0:
444,246,28537,1,4,0:3:0:0:
420,249,28614,1,4,0:3:0:0:
396,242,28692,1,4,0:3:0:0:
382,222,28769,6,0,B|358:161|414:90|538:137|527:277|433:333,1,335.999999999999,6|0,1:1|0:0,0:0:0:0:
445,324,30006,2,0,L|361:302,1,72.0000000000001,14|0,1:2|0:0,0:0:0:0:
250,255,30315,1,10,0:3:0:0:
186,350,30470,1,8,0:3:0:0:
93,269,30625,2,0,L|13:287,1,72.0000000000001,10|8,0:0|0:3,0:0:0:0:
159,168,30934,1,6,0:3:0:0:
186,350,31089,1,4,0:3:0:0:
159,168,31243,6,0,L|175:15,1,144,6|0,1:1|0:0,0:0:0:0:
246,0,31707,1,8,0:0:0:0:
333,108,31862,1,2,0:0:0:0:
333,108,32171,6,0,P|398:126|471:78,2,144,2|0|2,1:2|0:0|1:2,0:0:0:0:
269,155,32944,1,0,1:2:0:0:
409,238,33099,1,10,0:0:0:0:
409,238,33408,6,0,B|322:243|356:270|252:309,1,144,6|0,1:2|0:0,0:0:0:0:
192,353,33872,1,8,0:0:0:0:
126,280,34027,2,0,L|139:202,1,72.0000000000001,2|0,1:2|0:0,0:0:0:0:
223,143,34336,1,10,0:0:0:0:
142,47,34491,2,0,L|-6:70,1,144,0|0,1:2|0:0,0:0:0:0:
236,130,34955,6,0,P|246:91|235:56,1,72.0000000000001,2|0,1:2|0:0,0:0:0:0:
382,0,35264,2,0,P|371:34|380:68,1,72.0000000000001,10|8,0:0|0:0,0:0:0:0:
480,196,35573,5,10,0:0:0:0:
390,155,35728,1,8,0:0:0:0:
471,100,35882,1,10,0:3:0:0:
397,247,36037,1,4,0:3:0:0:
492,370,36192,6,0,P|459:341|352:351,1,144,6|0,1:2|0:0,0:0:0:0:
285,372,36656,1,8,0:0:0:0:
245,209,36810,1,2,0:0:0:0:
245,209,37120,6,0,P|192:248|108:234,2,144,2|8|10,1:2|0:0|0:0,0:0:0:0:
188,134,37841,6,0,L|128:118,1,48
58,91,38047,1,2,1:2:0:0:
58,91,38357,6,0,L|214:64,1,144,6|0,1:1|0:0,0:0:0:0:
312,48,38821,1,0,0:0:0:0:
353,135,38975,2,0,P|345:174|341:207,1,72.0000000000001,2|0,1:2|0:0,0:0:0:0:
305,57,39284,1,10,0:0:0:0:
408,17,39439,1,0,1:2:0:0:
470,102,39594,6,0,P|488:140|483:216,1,108
476,222,39903,2,0,L|402:204,1,72.0000000000001,2|8,1:2|0:0,0:0:0:0:
352,363,40212,2,0,L|421:345,1,72.0000000000001,2|8,1:2|0:0,0:0:0:0:
287,235,40522,5,10,0:0:0:0:
219,384,40676,1,8,0:0:0:0:
287,235,40831,2,0,L|278:163,1,72.0000000000001,10|4,0:3|0:3,0:0:0:0:
176,289,41140,6,0,P|125:330|33:324,1,144,6|0,1:2|0:0,0:0:0:0:
0,269,41604,1,8,0:0:0:0:
99,129,41759,1,2,0:0:0:0:
99,129,42068,2,0,P|61:121|26:108,1,72.0000000000001,2|8,1:2|0:0,0:0:0:0:
159,47,42377,5,8,0:0:0:0:
231,167,42532,1,8,0:0:0:0:
283,35,42687,2,0,P|323:33|361:54,1,72.0000000000001,10|8,0:3|0:3,0:0:0:0:
404,136,42996,2,0,P|371:156|330:149,1,72.0000000000001,6|4,0:3|0:3,0:0:0:0:
480,0,43305,6,0,P|509:39|498:139,1,144,6|0,1:1|0:0,0:0:0:0:
433,218,43769,1,8,0:0:0:0:
507,284,43924,2,0,P|470:304|428:301,1,72.0000000000001,2|0,1:2|0:0,0:0:0:0:
346,358,44233,1,10,0:0:0:0:
268,249,44388,2,0,L|285:97,1,144,0|8,1:2|0:0,0:0:0:0:
161,8,44851,6,0,B|129:29|129:29|80:17,1,72.0000000000001,2|0,1:2|0:0,0:0:0:0:
192,163,45161,2,0,B|189:124|189:124|224:88,1,72.0000000000001,10|8,0:0|0:0,0:0:0:0:
75,107,45470,5,10,0:0:0:0:
16,244,45625,1,8,0:0:0:0:
93,199,45779,1,10,0:3:0:0:
0,156,45934,1,4,0:3:0:0:
128,277,46089,6,0,P|62:276|-3:350,2,160,6|8|0,1:1|0:0|0:0,0:0:0:0:
208,251,46862,1,0,1:2:0:0:
305,361,47016,1,10,0:0:0:0:
208,251,47171,1,2,0:0:0:0:
359,219,47326,1,2,1:2:0:0:
295,273,47480,1,0,1:2:0:0:
422,364,47635,6,0,P|452:321|452:212,1,160,8|0,0:0|0:0,0:0:0:0:
476,145,48099,1,0,1:2:0:0:
315,93,48254,1,10,0:0:0:0:
476,145,48408,1,2,0:0:0:0:
410,49,48563,5,2,1:2:0:0:
346,176,48717,1,0,1:2:0:0:
234,30,48872,6,0,B|83:65|193:41|43:72,1,160,8|0,0:0|0:0,0:0:0:0:
23,123,49336,1,0,1:2:0:0:
172,197,49491,1,10,0:0:0:0:
23,123,49645,1,2,0:0:0:0:
54,230,49800,1,2,1:2:0:0:
117,131,49955,1,0,1:2:0:0:
154,296,50109,5,8,0:0:0:0:
225,105,50264,1,2,1:2:0:0:
54,230,50418,1,8,0:0:0:0:
255,241,50573,1,0,1:2:0:0:
107,103,50728,2,0,L|117:17,1,80,10|2,0:0|0:0,0:0:0:0:
322,0,51037,6,0,L|335:91,1,53.3333333333333,6|8,1:1|0:0,0:0:0:0:
460,157,51243,1,10,0:0:0:0:
484,137,51346,2,0,P|491:105|468:71,1,53.3333333333333,8|10,0:0|0:0,0:0:0:0:
370,238,51553,5,8,0:0:0:0:
375,265,51656,2,0,P|411:278|433:282,1,53.3333333333333,6|8,1:2|0:0,0:0:0:0:
263,158,51862,2,0,P|238:167|212:173,1,53.3333333333333,6|8,1:2|0:0,0:0:0:0:
403,157,52068,2,0,P|397:117|387:93,1,53.3333333333333,10|8,0:0|0:0,0:0:0:0:
261,248,52274,5,2,1:2:0:0:
268,289,52377,1,8,0:0:0:0:
274,331,52480,2,0,L|268:384,1,53.3333333333333,10|8,0:0|0:0,0:0:0:0:
102,328,52687,2,0,L|96:275,1,53.3333333333333,10|8,0:0|0:0,0:0:0:0:
3,154,52893,5,10,0:3:0:0:
45,149,52996,1,8,0:3:0:0:
87,144,53099,1,10,0:3:0:0:
120,113,53202,5,8,0:3:0:0:
162,118,53305,1,6,0:3:0:0:
204,123,53408,1,4,0:3:0:0:
249,98,53511,6,0,L|238:17,1,80,6|0,1:1|0:0,0:0:0:0:
383,120,53821,2,0,L|374:202,1,80,0|0,1:2|0:0,0:0:0:0:
217,280,54130,2,0,L|205:196,1,80,2|0,1:2|0:0,0:0:0:0:
287,348,54439,1,2,1:2:0:0:
392,272,54594,5,10,0:0:0:0:
392,272,54671,1,8,0:0:0:0:
392,272,54748,1,10,0:0:0:0:
290,242,54903,1,8,0:3:0:0:
419,359,55058,1,6,0:3:0:0:
486,204,55212,1,0,1:2:0:0:
419,359,55367,1,10,0:3:0:0:
299,160,55522,5,0,1:2:0:0:
299,160,55599,1,0,1:2:0:0:
299,160,55676,2,0,L|315:22,1,128,8|0,0:0|0:0,0:0:0:0:
350,31,56913,6,0,L|270:14,1,64,2|0,0:0|0:0,0:0:0:0:
337,136,57223,6,0,B|395:133|425:162|425:162|482:148|472:72,1,176,6|8,1:1|0:0,0:0:0:0:
287,17,57687,1,0,0:0:0:0:
189,186,57841,1,2,1:2:0:0:
337,136,57996,1,0,1:2:0:0:
152,25,58150,2,0,L|36:44,1,88,10|0,0:0|0:0,0:0:0:0:
189,186,58460,6,0,P|145:139|14:156,1,176,2|10,1:2|0:0,0:0:0:0:
114,317,58924,2,0,P|171:314|200:293,1,88,2|0,0:0|1:2,0:0:0:0:
269,186,59233,1,0,1:2:0:0:
406,268,59388,2,0,L|388:366,1,88,10|0,0:0|1:2,0:0:0:0:
363,376,59620,5,8,0:0:0:0:
363,376,59697,1,2,1:2:0:0:
502,272,59851,1,0,0:0:0:0:
348,178,60006,1,10,0:0:0:0:
495,87,60161,6,0,L|482:-6,1,88,2|0,0:0|1:2,0:0:0:0:
348,178,60470,1,0,1:2:0:0:
258,36,60625,2,0,P|303:15|351:26,1,88,10|0,0:0|0:0,0:0:0:0:
207,169,60934,5,2,1:2:0:0:
109,32,61089,1,0,1:2:0:0:
330,112,61243,2,0,L|427:127,1,88,10|2,0:0|0:0,0:0:0:0:
258,36,61553,5,2,1:2:0:0:
344,203,61707,1,2,1:2:0:0:
440,15,61862,1,10,0:0:0:0:
235,182,62016,5,0,1:2:0:0:
235,182,62094,1,8,0:0:0:0:
235,182,62171,2,0,B|213:241|217:299|217:299|241:317|262:353,1,176,6|8,1:2|0:0,0:0:0:0:
333,217,62635,1,0,0:0:0:0:
188,88,62790,6,0,P|141:79|95:105,1,88,2|0,1:2|1:2,0:0:0:0:
0,249,63099,2,0,P|38:268|84:264,1,88,10|0,0:0|0:0,0:0:0:0:
235,182,63408,5,2,1:2:0:0:
129,356,63563,1,0,1:2:0:0:
59,169,63717,1,10,0:0:0:0:
249,307,63872,2,0,L|343:297,1,88,2|0,0:0|1:2,0:0:0:0:
382,178,64181,1,0,1:2:0:0:
486,347,64336,2,0,P|497:307|474:259,1,88,10|0,0:0|0:0,0:0:0:0:
372,163,64645,6,0,B|335:176|301:180|301:180|275:213|275:213|240:219|193:236,1,176,2|8,1:2|0:0,0:0:0:0:
354,289,65109,1,2,0:0:0:0:
482,114,65264,2,0,P|422:63|312:77,1,176,2|8,1:2|0:0,0:0:0:0:
236,0,65728,1,2,0:0:0:0:
216,228,65882,5,2,1:2:0:0:
328,67,66037,1,0,1:2:0:0:
119,141,66192,2,0,L|22:126,1,88,14|2,0:0|0:0,0:0:0:0:
0,316,66501,5,8,1:2:0:0:
33,287,66578,1,8,0:0:0:0:
76,280,66656,1,10,0:0:0:0:
115,299,66733,1,8,0:0:0:0:
144,331,66810,1,10,1:2:0:0:
174,362,66888,1,8,0:0:0:0:
217,366,66965,1,8,0:0:0:0:
258,349,67042,1,8,0:0:0:0:
287,315,67120,6,0,B|388:303|388:303|414:337|451:339,1,176,6|12,1:1|0:0,0:0:0:0:
307,223,67583,1,0,0:0:0:0:
467,167,67738,2,0,B|481:214|481:214|460:258,1,88,2|0,1:2|1:2,0:0:0:0:
305,87,68047,2,0,L|318:-15,1,88,10|0,0:0|0:0,0:0:0:0:
379,197,68357,5,2,1:2:0:0:
213,130,68511,1,0,1:2:0:0:
397,67,68666,1,10,0:0:0:0:
218,0,68821,5,2,1:2:0:0:
218,0,68898,1,8,0:0:0:0:
218,0,68975,1,0,1:2:0:0:
305,87,69130,1,0,1:2:0:0:
146,201,69284,2,0,L|132:108,1,88,10|0,0:0|0:0,0:0:0:0:
269,313,69594,6,0,P|243:349|112:352,1,176,2|8,1:2|0:0,0:0:0:0:
325,188,70058,1,2,0:0:0:0:
397,375,70212,1,0,1:2:0:0:
325,188,70367,1,0,1:2:0:0:
498,265,70522,6,0,P|513:315|502:360,1,88,10|0,0:0|0:0,0:0:0:0:
424,124,70831,2,0,L|435:29,1,88,2|0,1:2|1:2,0:0:0:0:
211,6,71140,5,10,0:0:0:0:
320,229,71295,1,2,1:2:0:0:
90,114,71449,1,10,0:0:0:0:
342,69,71604,1,2,1:2:0:0:
179,259,71759,2,0,L|193:365,1,88,10|0,0:0|0:0,0:0:0:0:
257,132,72068,5,14,0:0:0:0:
59,234,72223,1,0,1:2:0:0:
302,351,72377,1,0,1:2:0:0:
96,109,72532,6,0,P|48:105|10:125,1,88,14|0,0:0|1:2,0:0:0:0:
193,239,72841,1,0,1:2:0:0:
361,87,72996,2,0,L|347:-20,1,88,14|0,0:0|1:2,0:0:0:0:
511,221,73305,5,10,0:0:0:0:
511,221,73382,1,8,0:0:0:0:
511,221,73460,2,0,L|443:210,1,44,0|0,1:2|1:2,0:0:0:0:
331,357,73614,1,8,0:3:0:0:
331,357,73692,1,8,0:3:0:0:
331,357,73769,2,0,L|389:348,1,44,2|0,1:2|1:2,0:0:0:0:
340,168,73924,6,0,L|328:229,1,44,8|8,0:0|0:0,0:0:0:0:
505,365,74078,2,0,L|493:309,1,44,8|8,0:0|0:0,0:0:0:0:
259,264,74233,1,6,1:1:0:0:
13,12,75161,6,0,P|66:3|116:35,1,100,6|0,1:1|0:0,0:0:0:0:
155,90,75392,2,0,P|110:110|62:101,1,100,2|0,1:2|0:0,0:0:0:0:
105,23,75624,1,2,1:2:0:0:
265,45,75779,6,0,L|460:75,1,150,10|0,0:0|0:0,0:0:0:0:
492,92,76088,6,0,P|499:44|462:2,1,100,2|0,1:2|0:0,0:0:0:0:
413,67,76319,2,0,P|406:115|435:153,1,100,2|0,1:2|0:0,0:0:0:0:
511,167,76551,1,2,1:2:0:0:
336,46,76706,5,10,0:0:0:0:
280,249,76861,1,2,1:2:0:0:
138,84,77015,5,10,0:0:0:0:
102,66,77093,1,8,0:0:0:0:
61,62,77170,1,8,0:0:0:0:
23,76,77247,1,8,0:0:0:0:
1,110,77325,6,0,L|15:213,1,100,6|0,1:2|0:0,0:0:0:0:
84,283,77556,2,0,L|97:183,1,100,2|0,1:2|0:0,0:0:0:0:
14,209,77788,1,2,1:2:0:0:
10,329,77943,6,0,P|40:370|156:362,1,150,10|0,0:0|0:0,0:0:0:0:
182,297,78253,6,0,L|80:282,1,100,2|0,1:2|0:0,0:0:0:0:
133,209,78484,2,0,L|182:298,1,100,2|0,1:2|0:0,0:0:0:0:
218,371,78716,1,2,1:2:0:0:
317,196,78871,5,10,0:0:0:0:
83,282,79026,1,2,1:2:0:0:
181,92,79180,5,10,0:0:0:0:
215,111,79258,1,8,0:0:0:0:
255,105,79335,1,8,0:0:0:0:
287,81,79412,1,8,0:0:0:0:
300,43,79490,6,0,L|200:30,1,100,6|0,1:2|1:2,0:0:0:0:
178,7,79721,5,2,1:2:0:0:
178,7,79799,1,8,0:0:0:0:
56,172,79953,1,2,1:2:0:0:
227,263,80108,6,0,L|209:151,1,100,10|0,0:0|0:0,0:0:0:0:
411,9,80418,2,0,L|393:121,1,100,2|0,1:2|1:2,0:0:0:0:
372,137,80649,5,2,1:2:0:0:
372,137,80727,1,8,0:0:0:0:
133,81,80881,1,2,1:2:0:0:
306,289,81036,1,10,0:0:0:0:
280,22,81191,1,2,1:2:0:0:
484,140,81345,5,10,0:0:0:0:
480,179,81423,1,8,0:0:0:0:
476,219,81500,1,8,0:0:0:0:
472,258,81577,1,8,0:0:0:0:
467,297,81655,2,0,L|400:282,1,50,6|0,1:2|1:2,0:0:0:0:
318,204,81809,2,0,L|366:193,1,50,8|10,0:0|0:0,0:0:0:0:
254,311,81964,5,8,0:0:0:0:
224,305,82041,1,8,0:0:0:0:
194,299,82118,1,2,1:2:0:0:
164,291,82196,1,0,1:2:0:0:
134,285,82273,2,0,L|147:212,1,50,10|8,0:0|0:0,0:0:0:0:
46,130,82428,2,0,L|55:191,1,50,8|8,0:0|0:0,0:0:0:0:
177,63,82583,5,2,1:2:0:0:
207,87,82660,1,0,1:2:0:0:
246,92,82737,1,8,0:0:0:0:
281,74,82814,1,10,0:0:0:0:
308,44,82892,2,0,L|377:56,1,50,8|8,0:0|0:0,0:0:0:0:
473,120,83046,5,2,1:2:0:0:
473,120,83124,1,0,1:2:0:0:
473,120,83201,2,0,L|483:60,1,50,10|8,0:3|0:3,0:0:0:0:
334,166,83356,2,0,L|348:225,1,50,10|8,0:3|0:3,0:0:0:0:
463,276,83510,2,0,L|474:227,1,50,6|4,0:3|0:3,0:0:0:0:
347,330,83665,2,0,L|360:385,1,50,4|4,0:3|0:3,0:0:0:0:
256,191,84130,5,6,1:1:0:0:
256,192,84207,12,0,89233,0:0:0:0:
