osu file format v14

[General]
AudioFilename: audio.ogg
AudioLeadIn: 0
PreviewTime:56674
Countdown: 0
SampleSet: Soft
StackLeniency: 0.7
Mode: 0
LetterboxInBreaks: 0
WidescreenStoryboard: 1

[Editor]
DistanceSpacing: 1
BeatDivisor: 2
GridSize: 32
TimelineZoom: 1.4

[Metadata]
Title:On the Frontline (TV Size)
TitleUnicode:オン・ザ・フロントライン (TV Size)
Artist:hitorie
ArtistUnicode:ヒトリエ
Creator:kxlman
Version:Normal
Source:無職転生II ~異世界行ったら本気だす~
Tags:nemidnight sekai sekai-nyan sekaii suimya andrea osuplayer111 midorijeon シルフィエット sylphiette sylphy mushoku tensei: isekai ittara honki dasu 2nd second season s2 part 2 two jobless reincarnation: i will seriously try if go to another world anime opening op japanese rock jrock j-rock male vocals
BeatmapID:4572662
BeatmapSetID:2167353

[Difficulty]
HPDrainRate:3.5
CircleSize:3.5
OverallDifficulty:4
ApproachRate:5.5
SliderMultiplier:0.899999999999999
SliderTickRate:1

[Events]
//Background and Video events
0,0,"kolmanbg.jpg",0,0
Video,0,"op2.avi"
//Break Periods
//Storyboard Layer 0 (Background)
//Storyboard Layer 1 (Fail)
//Storyboard Layer 2 (Pass)
//Storyboard Layer 3 (Foreground)
//Storyboard Layer 4 (Overlay)
//Storyboard Sound Samples

[TimingPoints]
1553,309.278350515464,4,2,1,70,1,0
1553,-100,4,2,1,70,0,0
11449,-111.111111111111,4,2,1,50,0,0
18872,-111.111111111111,4,2,1,60,0,0
21346,-100,4,2,1,70,0,0
30006,-111.111111111111,4,2,1,70,0,0
46089,-100,4,2,1,70,0,0
53511,-111.111111111111,4,2,1,70,0,0
57223,-100,4,2,1,70,0,0
75161,309.278350515464,3,2,1,70,1,0
75161,-100,7,2,1,70,0,0
76088,309.278350515464,4,2,1,70,1,0
77325,309.278350515464,3,2,1,70,1,0
78253,309.278350515464,4,2,1,70,1,0
79490,309.278350515464,3,2,1,70,1,0
80418,309.278350515464,4,2,1,70,1,0
81655,309.278350515464,3,2,1,70,1,0
82583,309.278350515464,4,2,1,70,1,0
84130,309.278350515464,4,2,1,70,1,0
89233,-100,7,2,1,5,0,0

[Colours]
Combo1 : 250,52,3
Combo2 : 35,169,58

[HitObjects]
51,287,11449,6,0,L|134:270,1,80.99999999999999,6|2,1:2|1:2,0:0:0:0:
211,274,12068,1,2,1:2:0:0:
267,332,12377,1,2,1:2:0:0:
342,302,12687,2,0,P|358:264|354:212,1,80.99999999999999,2|2,1:2|1:2,0:0:0:0:
330,148,13305,1,2,1:2:0:0:
384,88,13614,1,2,1:2:0:0:
329,27,13924,6,0,L|246:10,1,80.99999999999999,2|2,1:2|1:2,0:0:0:0:
177,47,14542,1,2,1:2:0:0:
111,93,14851,2,0,P|70:92|26:69,2,80.99999999999999,2|2|2,1:2|1:2|1:2,0:0:0:0:
166,151,15779,1,2,1:2:0:0:
138,227,16089,2,0,L|146:270,1,40.49999999999999,2|2,1:2|0:0,0:0:0:0:
170,298,16398,6,0,L|251:310,1,80.99999999999999,2|2,1:2|1:2,0:0:0:0:
329,295,17016,2,0,P|341:253|341:214,1,80.99999999999999,2|2,1:2|1:2,0:0:0:0:
321,180,17480,1,2,0:0:0:0:
321,180,17635,2,0,L|335:95,1,80.99999999999999,2|2,1:2|1:2,0:0:0:0:
384,36,18254,1,2,1:2:0:0:
453,77,18563,2,0,L|461:125,1,40.49999999999999,2|0,1:2|0:0,0:0:0:0:
479,152,18872,6,0,P|481:195|469:234,1,80.99999999999999,10|10,0:0|0:3,0:0:0:0:
419,295,19491,2,0,L|374:302,1,40.49999999999999,10|10,0:0|0:0,0:0:0:0:
344,292,19800,1,10,0:0:0:0:
344,292,19955,1,2,1:2:0:0:
83,49,21346,6,0,L|96:140,1,89.99999999999991,14|10,0:0|0:0,0:0:0:0:
82,183,21810,1,0,1:2:0:0:
82,183,21965,1,10,0:0:0:0:
33,258,22274,2,0,P|27:279|29:301,1,44.99999999999996,10|0,0:0|1:2,0:0:0:0:
45,344,22583,2,0,L|136:330,1,89.99999999999991,10|10,0:0|0:0,0:0:0:0:
180,349,23047,1,0,1:2:0:0:
180,349,23202,1,10,0:0:0:0:
254,298,23511,2,0,L|263:242,1,44.99999999999996,10|0,0:0|1:2,0:0:0:0:
279,212,23821,6,0,P|320:192|368:194,1,89.99999999999991,10|10,0:0|0:0,0:0:0:0:
397,222,24284,1,0,1:2:0:0:
397,222,24439,1,10,0:0:0:0:
481,192,24748,2,0,L|490:136,1,44.99999999999996,10|0,0:0|1:2,0:0:0:0:
467,107,25058,2,0,P|422:107|382:87,1,89.99999999999991,10|10,0:0|0:0,0:0:0:0:
305,40,25676,2,0,B|257:50,1,44.99999999999996,10|0,0:0|1:2,0:0:0:0:
221,28,25985,2,0,B|173:18,1,44.99999999999996,10|8,0:0|0:0,0:0:0:0:
133,33,26295,6,0,P|113:74|115:122,1,89.99999999999991,6|10,1:2|1:2,0:0:0:0:
140,160,26759,1,10,0:0:0:0:
140,160,26913,2,0,L|131:204,1,44.99999999999996,10|10,1:2|0:0,0:0:0:0:
100,237,27223,1,10,1:2:0:0:
149,311,27532,2,0,L|241:299,1,89.99999999999991,6|10,1:2|1:2,0:0:0:0:
279,318,27996,1,10,0:0:0:0:
279,318,28150,2,0,P|285:340|285:370,2,44.99999999999996,10|10|6,1:2|0:3|1:3,0:0:0:0:
312,234,28769,5,6,1:1:0:0:
476,97,30006,5,14,1:2:0:0:
449,173,30315,2,0,L|407:180,1,40.49999999999999,10|8,0:3|0:3,0:0:0:0:
371,163,30625,1,10,0:0:0:0:
294,135,30934,1,6,0:3:0:0:
267,210,31243,6,0,P|215:244|139:239,1,121.5,6|8,1:1|0:0,0:0:0:0:
118,233,31862,1,2,0:0:0:0:
49,190,32171,2,0,B|34:152|34:152|40:112,1,80.99999999999999,2|2,1:2|1:2,0:0:0:0:
63,34,32790,1,2,1:2:0:0:
140,64,33099,1,10,0:0:0:0:
215,35,33408,6,0,L|299:24,1,80.99999999999999,6|2,1:2|1:2,0:0:0:0:
375,10,34027,1,2,1:2:0:0:
451,45,34336,1,10,0:0:0:0:
351,172,34955,2,0,P|308:170|269:142,2,80.99999999999999,2|10|10,1:2|0:0|0:0,0:0:0:0:
425,141,35882,1,0,0:0:0:0:
443,220,36192,6,0,L|415:344,1,121.5,6|8,1:2|0:0,0:0:0:0:
384,363,36810,1,2,0:0:0:0:
311,327,37120,2,0,L|293:244,2,80.99999999999999,2|8|10,1:2|0:0|0:0,0:0:0:0:
247,377,38047,1,0,0:0:0:0:
166,364,38357,2,0,P|128:357|97:325,1,80.99999999999999,6|2,1:1|1:2,0:0:0:0:
90,247,38975,1,2,1:2:0:0:
139,183,39284,1,10,0:0:0:0:
292,212,39903,6,0,L|306:302,2,80.99999999999999,2|2|10,1:2|1:2|0:0,0:0:0:0:
245,145,40831,1,10,0:3:0:0:
295,82,41140,2,0,P|345:47|407:51,1,121.5,6|8,1:2|0:0,0:0:0:0:
438,70,41759,1,2,0:0:0:0:
408,146,42068,2,0,L|397:229,1,80.99999999999999,2|8,1:2|0:0,0:0:0:0:
410,269,42532,1,8,0:0:0:0:
410,269,42687,1,10,0:3:0:0:
380,344,42996,1,0,0:0:0:0:
301,362,43305,6,0,B|258:358|263:371|221:368,1,80.99999999999999,6|2,1:1|1:2,0:0:0:0:
139,372,43924,1,2,1:2:0:0:
80,316,44233,1,10,0:0:0:0:
101,155,44851,2,0,L|87:66,2,80.99999999999999,2|10|10,1:2|0:0|0:0,0:0:0:0:
125,187,45625,1,8,0:0:0:0:
125,187,45779,1,10,0:3:0:0:
208,220,46089,6,0,L|305:206,1,89.99999999999991,6|8,1:1|0:0,0:0:0:0:
341,216,46553,1,2,0:0:0:0:
415,164,46862,1,0,1:2:0:0:
415,164,47016,2,0,L|404:108,1,44.99999999999996,10|2,0:0|0:0,0:0:0:0:
380,82,47326,2,0,P|342:60|290:62,1,89.99999999999991,2|8,1:2|0:0,0:0:0:0:
257,81,47790,1,2,0:0:0:0:
175,113,48099,1,0,1:2:0:0:
175,113,48254,2,0,L|124:103,1,44.99999999999996,10|2,0:0|0:0,0:0:0:0:
86,111,48563,6,0,P|63:152|60:196,1,89.99999999999991,2|8,1:2|0:0,0:0:0:0:
84,231,49027,1,2,0:0:0:0:
162,285,49336,1,0,1:2:0:0:
162,285,49491,2,0,L|208:277,1,44.99999999999996,10|2,0:0|0:0,0:0:0:0:
244,300,49800,2,0,L|336:313,1,89.99999999999991,2|8,1:2|0:0,0:0:0:0:
417,282,50418,2,0,P|426:258|426:233,1,44.99999999999996,8|0,0:0|1:2,0:0:0:0:
413,195,50728,1,10,0:0:0:0:
455,115,51037,6,0,P|484:112|511:99,2,59.99999999999994,6|10|10,1:1|0:0|0:0,0:0:0:0:
397,97,51656,2,0,L|326:87,1,59.99999999999994,6|6,1:2|1:2,0:0:0:0:
217,95,52274,2,0,P|208:60|211:26,2,59.99999999999994,2|10|10,1:2|0:0|0:0,0:0:0:0:
241,150,52893,2,0,L|226:272,1,119.99999999999989,10|6,0:3|0:3,0:0:0:0:
242,320,53511,5,6,1:1:0:0:
303,373,53821,1,0,1:2:0:0:
376,338,54130,2,0,P|384:295|377:248,1,80.99999999999999,2|2,1:2|1:2,0:0:0:0:
364,220,54594,1,10,0:0:0:0:
364,220,54748,1,10,0:0:0:0:
423,165,55058,1,6,0:3:0:0:
377,98,55367,2,0,P|358:90|332:87,1,40.49999999999999,10|0,0:3|1:2,0:0:0:0:
300,102,55676,1,8,0:0:0:0:
449,360,56913,5,2,0:0:0:0:
385,296,57223,2,0,P|341:281|288:284,1,89.99999999999991,6|8,1:1|0:0,0:0:0:0:
210,303,57841,2,0,L|203:251,1,44.99999999999996,2|0,1:2|1:2,0:0:0:0:
179,220,58150,1,10,0:0:0:0:
231,146,58460,2,0,L|277:139,1,44.99999999999996,2|0,1:2|1:2,0:0:0:0:
317,154,58769,1,10,0:0:0:0:
317,154,58924,2,0,L|415:164,1,89.99999999999991,2|0,0:0|1:2,0:0:0:0:
447,144,59388,1,10,0:0:0:0:
428,55,59697,6,0,P|392:30|344:29,1,89.99999999999991,2|10,1:2|0:0,0:0:0:0:
306,47,60161,2,0,L|260:57,1,44.99999999999996,2|0,0:0|1:2,0:0:0:0:
220,40,60470,1,0,1:2:0:0:
220,40,60625,1,10,0:0:0:0:
139,79,60934,2,0,P|129:122|134:175,2,89.99999999999991,2|10|2,1:2|0:0|1:2,0:0:0:0:
77,12,61862,2,0,P|49:13|24:24,1,44.99999999999996,10|0,0:0|0:0,0:0:0:0:
2,51,62171,6,0,B|8:87|8:87|19:102|19:102|26:141,1,89.99999999999991,6|8,1:2|0:0,0:0:0:0:
70,214,62790,2,0,L|59:262,1,44.99999999999996,2|0,1:2|1:2,0:0:0:0:
30,291,63099,1,10,0:0:0:0:
95,352,63408,2,0,L|139:343,1,44.99999999999996,2|0,1:2|1:2,0:0:0:0:
182,354,63717,1,10,0:0:0:0:
182,354,63872,2,0,P|200:303|202:263,1,89.99999999999991,2|0,0:0|1:2,0:0:0:0:
226,229,64336,1,10,0:0:0:0:
292,167,64645,6,0,P|332:149|383:155,1,89.99999999999991,2|8,1:2|0:0,0:0:0:0:
416,174,65109,1,2,0:0:0:0:
416,174,65264,2,0,L|423:219,1,44.99999999999996,2|0,1:2|1:2,0:0:0:0:
449,255,65573,1,8,0:0:0:0:
423,341,65882,2,0,L|376:349,1,44.99999999999996,2|0,1:2|1:2,0:0:0:0:
337,367,66192,1,14,0:0:0:0:
250,343,66501,2,0,L|258:296,1,44.99999999999996,8|10,1:2|0:0,0:0:0:0:
246,254,66810,2,0,P|222:245|199:246,1,44.99999999999996,10|8,1:2|0:0,0:0:0:0:
158,256,67120,6,0,B|111:254|115:268|68:266,1,89.99999999999991,6|12,1:1|0:0,0:0:0:0:
38,181,67738,2,0,L|31:133,1,44.99999999999996,2|0,1:2|1:2,0:0:0:0:
46,94,68047,1,10,0:0:0:0:
133,114,68357,2,0,P|156:111|176:105,1,44.99999999999996,2|0,1:2|1:2,0:0:0:0:
215,80,68666,1,10,0:0:0:0:
215,80,68821,2,0,L|310:87,1,89.99999999999991,2|0,0:0|1:2,0:0:0:0:
336,118,69284,1,10,0:0:0:0:
420,149,69594,6,0,P|436:107|432:58,1,89.99999999999991,2|8,1:2|0:0,0:0:0:0:
413,28,70058,1,2,0:0:0:0:
413,28,70212,2,0,L|361:19,1,44.99999999999996,0|0,1:2|1:2,0:0:0:0:
326,3,70522,1,10,0:0:0:0:
264,69,70831,2,0,L|248:157,1,89.99999999999991,2|10,1:2|0:0,0:0:0:0:
271,201,71295,1,2,1:2:0:0:
271,201,71449,2,0,L|279:247,1,44.99999999999996,10|2,0:0|1:2,0:0:0:0:
256,285,71759,2,0,L|247:331,1,44.99999999999996,10|0,0:0|0:0,0:0:0:0:
211,356,72068,6,0,P|165:357|122:326,1,89.99999999999991,14|0,0:0|1:2,0:0:0:0:
97,302,72532,1,14,0:0:0:0:
133,222,72841,1,0,1:2:0:0:
133,222,72996,2,0,L|122:164,1,44.99999999999996,14|0,0:0|1:2,0:0:0:0:
93,145,73305,2,0,P|98:90|117:50,1,89.99999999999991,10|8,0:0|0:3,0:0:0:0:
149,33,73769,1,2,1:2:0:0:
149,33,73924,1,8,0:0:0:0:
221,85,74233,1,6,1:1:0:0:
119,308,75161,6,0,P|85:305|50:289,2,67.49999999999993,6|2|2,1:1|1:2|1:2,0:0:0:0:
159,288,75779,2,0,L|177:197,1,89.9999999999999,10|2,0:0|1:2,0:0:0:0:
205,164,76242,1,2,1:2:0:0:
291,204,76551,1,2,1:2:0:0:
291,204,76706,2,0,L|339:197,1,44.99999999999996,10|2,0:0|1:2,0:0:0:0:
370,168,77015,2,0,L|418:175,1,44.99999999999996,10|8,0:0|0:0,0:0:0:0:
459,168,77325,6,0,P|455:134|440:104,2,67.49999999999993,6|2|2,1:2|1:2|1:2,0:0:0:0:
489,201,77943,2,0,L|477:292,1,90.2909999999999,10|2,0:0|1:2,0:0:0:0:
495,331,78407,1,2,1:2:0:0:
417,373,78716,1,2,1:2:0:0:
417,373,78871,2,0,P|391:373|370:364,1,44.99999999999996,10|2,0:0|1:2,0:0:0:0:
340,335,79180,2,0,L|292:342,1,44.99999999999996,10|8,0:0|0:0,0:0:0:0:
251,332,79490,6,0,P|231:292|233:240,1,89.99999999999991,6|8,1:2|0:0,0:0:0:0:
251,207,79953,1,2,1:2:0:0:
251,207,80108,1,10,0:0:0:0:
305,135,80418,2,0,L|397:123,1,89.99999999999991,2|8,1:2|0:0,0:0:0:0:
439,109,80881,1,2,1:2:0:0:
439,109,81036,2,0,P|446:87|445:65,1,44.99999999999996,10|2,0:0|1:2,0:0:0:0:
417,30,81345,2,0,L|369:23,1,44.99999999999996,10|8,0:0|0:0,0:0:0:0:
330,40,81655,6,0,B|283:38|287:52|240:50,1,89.99999999999991,6|8,1:2|0:0,0:0:0:0:
204,76,82118,1,2,1:2:0:0:
204,76,82273,1,10,0:0:0:0:
138,137,82583,2,0,L|89:128,1,44.99999999999996,2|8,1:2|0:0,0:0:0:0:
55,153,82892,2,0,P|48:176|46:202,1,44.99999999999996,8|2,0:0|1:2,0:0:0:0:
72,233,83201,1,10,0:3:0:0:
25,309,83510,1,6,0:3:0:0:
25,309,83665,1,4,0:3:0:0:
151,355,84130,5,6,1:1:0:0:
256,192,84284,12,0,89233,0:0:0:0:
