osu file format v14

[General]
AudioFilename: audio.mp3
AudioLeadIn: 0
PreviewTime: 140996
Countdown: 0
SampleSet: Soft
StackLeniency: 0.3
Mode: 0
LetterboxInBreaks: 0
WidescreenStoryboard: 1

[Editor]
DistanceSpacing: 0.7
BeatDivisor: 3
GridSize: 8
TimelineZoom: 1.5

[Metadata]
Title:Nichijou to Chikyuu no Gakubuchi (wowaka x Hatsune Miku Edit)
TitleUnicode:日常と地球の額縁 (wowaka x 初音ミク Edit)
Artist:hitorie
ArtistUnicode:ヒトリエ
Creator:flake
Version:shidoni's insane
Source:
Tags:moph phynta shidoni dailycare morinaga ヲワカ japanese wowaka edit mix polaris unhappy refrain jrock j-rock rock vocaloid frame of normal life and the world genjitsutouhi-p hatsune miku
BeatmapID:4222043
BeatmapSetID:1985060

[Difficulty]
HPDrainRate:5
CircleSize:3.8
OverallDifficulty:7.5
ApproachRate:9.2
SliderMultiplier:2
SliderTickRate:1

[Events]
//Background and Video events
0,0,"mbo.jpg",0,0
//Break Periods
2,141196,152395
//Storyboard Layer 0 (Background)
//Storyboard Layer 1 (Fail)
//Storyboard Layer 2 (Pass)
//Storyboard Layer 3 (Foreground)
//Storyboard Layer 4 (Overlay)
//Storyboard Sound Samples

[TimingPoints]
185,404.721753794266,4,2,2,50,1,0
185,-181.818181818181,4,2,2,50,0,0
1803,393.44262295082,4,2,2,50,1,0
1803,-182.481751824818,4,2,2,50,0,0
2983,402.684563758389,4,2,2,50,1,0
3385,402.955003357958,4,2,2,50,1,0
4996,400,4,2,2,50,1,0
5796,410.958904109589,4,2,2,50,1,0
6412,387.096774193548,4,2,2,50,1,0
6605,399.666944213156,4,2,2,50,1,0
6605,-181.818181818181,4,2,2,50,0,0
9802,397.350993377483,4,2,2,50,1,0
10994,408.163265306122,4,2,1,65,1,0
11402,396.039603960396,4,2,1,80,1,0
12590,407.055630936228,4,2,1,75,1,0
12997,400,4,2,1,75,1,0
12997,-83.3333333333333,4,2,1,75,0,0
14197,-200,4,2,1,75,0,0
14597,-83.3333333333333,4,2,1,75,0,0
15797,-200,4,2,1,75,0,0
16197,-83.3333333333333,4,2,1,75,0,0
20597,-200,4,2,1,75,0,0
20997,-83.3333333333333,4,2,1,75,0,0
22197,-200,4,2,1,75,0,0
22597,-83.3333333333333,4,2,1,75,0,0
24197,395.387149917628,4,2,1,75,1,0
24197,-83.3333333333333,4,2,1,75,0,0
25778,403.361344537815,4,2,1,85,1,1
25778,-76.9230769230769,4,2,1,85,0,1
26383,-76.9230769230769,4,2,1,85,0,1
26483,-76.9230769230769,4,2,1,85,0,1
26887,-76.9230769230769,4,2,1,85,0,1
26988,-76.9230769230769,4,2,1,85,0,1
27290,-76.9230769230769,4,2,1,85,0,1
27391,400,4,2,1,85,1,1
27391,-76.9230769230769,4,2,1,85,0,1
27991,-76.9230769230769,4,2,1,85,0,1
28091,-76.9230769230769,4,2,1,85,0,1
28491,-76.9230769230769,4,2,1,85,0,1
28591,-76.9230769230769,4,2,1,85,0,1
28891,-76.9230769230769,4,2,1,85,0,1
28991,401.33779264214,4,2,1,85,1,1
28991,-76.9230769230769,4,2,1,85,0,1
29593,-76.9230769230769,4,2,1,85,0,1
29693,-76.9230769230769,4,2,1,85,0,1
30094,-76.9230769230769,4,2,1,85,0,1
30195,-76.9230769230769,4,2,1,85,0,1
30294,-76.9230769230769,4,2,1,85,0,1
30395,-76.9230769230769,4,2,1,85,0,1
30494,-76.9230769230769,4,2,1,85,0,1
30595,-76.9230769230769,4,2,1,85,0,1
30596,400,4,2,1,85,1,1
30596,-76.9230769230769,4,2,1,85,0,1
31796,389.61038961039,4,2,1,85,1,1
31796,-76.9230769230769,4,2,1,85,0,1
32185,404.858299595142,4,2,1,85,1,1
32185,-76.9230769230769,4,2,1,85,0,1
33399,394.736842105263,4,2,1,85,1,1
33399,-76.9230769230769,4,2,1,85,0,1
33793,400,4,2,1,85,1,1
33793,-76.9230769230769,4,2,1,85,0,1
35393,402.010050251256,4,2,1,85,1,1
35393,-76.9230769230769,4,2,1,85,0,1
37001,397.350993377483,4,2,1,85,1,1
37001,-76.9230769230769,4,2,1,85,0,1
38590,404.040404040404,4,2,3,65,1,1
38590,-100,4,2,3,65,0,0
39600,-99.009900990099,4,2,3,65,0,0
39802,396.039603960396,4,2,3,65,1,0
39802,-100,4,2,3,65,0,0
40198,400,4,2,3,65,1,0
40198,-100,4,2,3,65,0,0
52998,396.825396825397,4,2,3,65,1,0
54585,402.684563758389,4,2,3,65,1,0
56195,398.009950248756,4,2,3,65,1,0
57389,410.958904109589,4,2,3,65,1,0
57799,398.14200398142,4,2,3,65,1,0
59391,401.002506265664,4,2,3,65,1,0
62599,404.040404040404,4,2,3,65,1,0
63407,400,4,2,3,65,1,0
64207,400,4,2,1,60,1,0
64607,-100,4,2,2,60,0,0
67407,398.671096345515,4,2,2,60,1,0
68603,392.156862745098,4,2,2,60,1,0
68995,400,4,2,2,60,1,0
70195,405.405405405405,4,2,2,60,1,0
70600,401.33779264214,4,2,2,60,1,0
72205,399.135207051389,4,2,2,60,1,0
73801,400,4,2,2,60,1,0
75801,394.736842105263,4,2,2,60,1,0
75998,-100,4,2,1,60,0,0
76590,406.779661016949,4,2,1,60,1,0
76996,402.010050251256,4,2,2,60,1,0
76996,-90.9090909090909,4,2,2,60,0,0
78604,400,4,2,2,60,1,0
78604,-90.9090909090909,4,2,2,60,0,0
81804,397.350993377483,4,2,2,60,1,0
81804,-90.9090909090909,4,2,2,60,0,0
83393,404.040404040404,4,2,2,60,1,0
83393,-90.9090909090909,4,2,2,60,0,0
84605,397.350993377483,4,2,2,60,1,0
84605,-90.9090909090909,4,2,2,60,0,0
85002,392.156862745098,4,2,2,60,1,0
85002,-90.9090909090909,4,2,2,60,0,0
85786,406.091370558376,4,2,2,60,1,0
85786,-90.9090909090909,4,2,2,60,0,0
86395,-90.9090909090909,4,2,1,70,0,0
86598,399.334442595674,4,2,1,70,1,0
86598,-90.9090909090909,4,2,1,70,0,0
89593,-90.9090909090909,4,2,1,50,0,0
89792,403.429147755925,4,2,1,80,1,1
89792,-66.6666666666667,4,2,1,80,0,1
90598,400,4,2,1,80,1,1
90598,-66.6666666666667,4,2,1,80,0,1
90998,-200,4,2,1,80,0,1
91398,401.33779264214,4,2,1,80,1,1
91398,-66.6666666666667,4,2,1,80,0,1
92595,-200,4,2,1,80,0,1
93003,400,4,2,1,80,1,1
93003,-66.6666666666667,4,2,1,80,0,1
95403,394.736842105263,4,2,1,80,1,1
95403,-66.6666666666667,4,2,1,80,0,1
96192,402.684563758389,4,2,1,80,1,1
96192,-66.6666666666667,4,2,1,80,0,1
96997,400,4,2,1,80,1,1
96997,-66.6666666666667,4,2,1,80,0,1
97397,-200,4,2,1,80,0,1
97797,399.334442595674,4,2,1,80,1,1
97797,-66.6666666666667,4,2,1,80,0,1
98995,-200,4,2,1,80,0,1
99394,400,4,2,1,80,1,1
99394,-66.6666666666667,4,2,1,80,0,1
101394,401.808136614766,4,2,1,80,1,1
101394,-66.6666666666667,4,2,1,80,0,1
102599,400,4,2,1,80,1,1
102599,-66.6666666666667,4,2,1,80,0,1
103799,-200,4,2,1,80,0,1
104199,-66.6666666666667,4,2,1,80,0,1
105399,390.879478827362,4,2,1,80,1,1
105399,-200,4,2,1,80,0,1
105789,401.33779264214,4,2,1,80,1,1
105789,-66.6666666666667,4,2,1,80,0,1
108197,397.350993377483,4,2,1,80,1,1
108197,-66.6666666666667,4,2,1,80,0,1
108991,401.740877134248,4,2,1,80,1,1
108991,-66.6666666666667,4,2,1,80,0,1
110196,397.350993377483,4,2,1,80,1,1
110196,-200,4,2,1,80,0,1
110593,400.667779632721,4,2,1,80,1,1
110593,-66.6666666666667,4,2,1,80,0,1
111795,-200,4,2,1,80,0,1
112195,398.671096345515,4,2,1,80,1,1
112195,-66.6666666666667,4,2,1,80,0,1
113789,401.33779264214,4,2,1,80,1,1
113789,-66.6666666666667,4,2,1,80,0,1
114993,-200,4,2,1,80,0,0
115394,402.684563758389,4,2,3,80,1,1
115394,-71.4285714285714,4,2,3,80,0,1
117004,397.022332506204,4,2,3,80,1,1
117004,-71.4285714285714,4,2,3,80,0,1
118592,400.667779632721,4,2,3,80,1,1
118592,-71.4285714285714,4,2,3,80,0,1
118595,-111.111111111111,4,2,3,80,0,1
120194,400,4,2,3,80,1,1
120194,-111.111111111111,4,2,3,80,0,1
120994,-111.111111111111,4,2,3,80,0,1
121194,-133.333333333333,4,2,3,80,0,1
121594,-166.666666666666,4,2,3,80,0,1
121794,401.33779264214,4,2,3,80,1,1
121794,-111.111111111111,4,2,3,80,0,1
123198,-99.9999999999999,4,2,3,80,0,1
123399,399.334442595674,4,2,3,80,1,1
123498,-99.9999999999999,4,2,3,80,0,1
124996,400.667779632721,4,2,3,80,1,1
124996,-83.3333333333333,4,2,3,80,0,1
126598,396.039603960396,4,2,3,80,1,1
126598,-83.3333333333333,4,2,3,80,0,1
127390,402.684563758389,4,2,3,80,1,1
127390,-83.3333333333333,4,2,3,80,0,1
128195,400.467211747038,4,2,3,80,1,1
128195,-83.3333333333333,4,2,3,80,0,1
129796,400,4,2,3,80,1,1
129796,-71.4285714285714,4,2,3,80,0,1
131396,-62.5,4,2,3,80,0,1
132996,402.684563758389,4,2,3,80,1,1
132996,-47.6190476190476,4,2,3,80,0,1
133298,-66.6666666666667,4,2,3,80,0,1
134103,-75.187969924812,4,2,3,80,0,1
134204,387.096774193548,4,2,3,80,1,1
134204,-75.187969924812,4,2,3,80,0,1
134397,-76.9230769230769,4,2,3,80,0,1
134591,402.144772117962,4,2,3,80,1,1
134591,-76.9230769230769,4,2,3,80,0,1
136199,396.039603960396,4,2,3,80,1,1
136298,-76.9230769230769,4,2,3,80,0,1
136496,-76.9230769230769,4,2,3,80,0,1
136595,-111.111111111111,4,2,3,80,0,1
136892,-166.666666666667,4,2,3,80,0,1
137090,-166.666666666667,4,2,3,80,0,1
137189,-250.000000000001,4,2,3,80,0,1
137387,408.163265306122,4,2,3,80,1,1
137387,-76.9230769230769,4,2,3,80,0,1
137795,399.334442595674,4,2,3,80,1,1
137795,-76.9230769230769,4,2,3,80,0,1
139392,-76.9230769230769,4,2,3,80,0,1
139592,392.156862745098,4,2,3,80,1,1
139592,-76.9230769230769,4,2,3,80,0,1
139984,398.671096345515,4,2,3,80,1,1
139984,-76.9230769230769,4,2,3,80,0,1
140382,409.556313993174,4,2,3,80,1,1
140382,-76.9230769230769,4,2,3,80,0,1
140996,399.334442595674,4,2,1,70,1,0
140996,-76.9230769230769,4,2,1,70,0,0
141095,-76.9230769230769,4,2,1,50,0,0
142343,-76.9230769230769,4,2,1,5,0,0
142393,-76.9230769230769,4,2,2,50,0,0
142593,410.958904109589,4,2,2,50,1,0
143414,390.879478827362,4,2,2,50,1,0
143804,405.405405405405,4,2,2,50,1,0
144209,401.33779264214,4,2,2,50,1,0
145011,400,4,2,2,50,1,0
145811,400,4,2,2,50,1,0
147411,394.088669950739,4,2,2,50,1,0
148199,402.684563758389,4,2,2,50,1,0
149004,399.467376830892,4,2,2,50,1,0
150601,413.080895008606,4,2,2,50,1,0
151427,387.096774193548,4,2,2,50,1,0
152201,400.667779632721,4,2,2,50,1,0
152401,-100,4,2,2,70,0,0
153202,-100,4,2,1,60,0,0
153803,401.33779264214,4,2,2,60,1,0
153803,-250,4,2,2,60,0,0
153903,-250,4,2,2,60,0,0
154204,-238.095238095238,4,2,2,60,0,0
154304,-238.095238095238,4,2,2,60,0,0
154405,-238.095238095238,4,2,2,60,0,0
154505,-238.095238095238,4,2,2,60,0,0
154605,400,4,2,2,60,1,0
154605,-227.272727272727,4,2,2,60,0,0
154705,-227.272727272727,4,2,2,60,0,0
154805,-227.272727272727,4,2,2,60,0,0
154905,-227.272727272727,4,2,2,60,0,0
155005,-217.391304347826,4,2,2,60,0,0
155105,-217.391304347826,4,2,2,60,0,0
155205,-217.391304347826,4,2,2,60,0,0
155305,-217.391304347826,4,2,2,60,0,0
155405,400,4,2,2,60,1,0
155405,-208.333333333333,4,2,2,60,0,0
155505,-208.333333333333,4,2,2,60,0,0
155605,-208.333333333333,4,2,2,60,0,0
155705,-208.333333333333,4,2,2,60,0,0
155805,-200,4,2,2,60,0,0
155905,-200,4,2,2,60,0,0
156205,-192.307692307692,4,2,2,60,0,0
156305,-192.307692307692,4,2,2,60,0,0
156605,-185.185185185185,4,2,2,60,0,0
156705,-185.185185185185,4,2,2,60,0,0
157005,-178.571428571429,4,2,2,60,0,0
157105,-178.571428571429,4,2,2,60,0,0
157305,-178.571428571429,4,2,2,60,0,0
157405,-172.413793103448,4,2,2,60,0,0
157505,-172.413793103448,4,2,2,60,0,0
157605,-172.413793103448,4,2,2,60,0,0
157705,-172.413793103448,4,2,2,60,0,0
157805,398.671096345515,4,2,2,60,1,0
157805,-166.666666666667,4,2,2,60,0,0
157904,-166.666666666667,4,2,2,60,0,0
158104,-166.666666666667,4,2,2,60,0,0
158203,-161.290322580645,4,2,2,60,0,0
158303,-161.290322580645,4,2,2,60,0,0
158403,-161.290322580645,4,2,2,60,0,0
158502,-161.290322580645,4,2,2,60,0,0
158602,400,4,2,2,60,1,0
158602,-156.25,4,2,2,60,0,0
158702,-156.25,4,2,2,60,0,0
158802,-156.25,4,2,2,60,0,0
158902,-156.25,4,2,2,60,0,0
159002,-151.515151515152,4,2,2,60,0,0
159202,-151.515151515152,4,2,2,60,0,0
159402,-147.058823529412,4,2,2,60,0,0
159502,-147.058823529412,4,2,2,60,0,0
159602,-147.058823529412,4,2,2,60,0,0
159702,-147.058823529412,4,2,2,60,0,0
159802,-142.857142857143,4,2,2,60,0,0
159902,-142.857142857143,4,2,2,60,0,0
160202,-135.135135135135,4,2,2,60,0,0
160302,-135.135135135135,4,2,2,60,0,0
160602,-128.205128205128,4,2,2,60,0,0
160702,-128.205128205128,4,2,2,60,0,0
160802,-128.205128205128,4,2,2,60,0,0
160902,-128.205128205128,4,2,2,60,0,0
161002,-121.951219512195,4,2,2,60,0,0
161102,-121.951219512195,4,2,2,60,0,0
161202,-121.951219512195,4,2,2,60,0,0
161302,-121.951219512195,4,2,2,60,0,0
161402,-116.279069767442,4,2,2,60,0,0
161502,-116.279069767442,4,2,2,60,0,0
161602,-116.279069767442,4,2,2,60,0,0
161702,-116.279069767442,4,2,2,60,0,0
161802,396.694214876033,4,2,2,60,1,0
161802,-111.111111111111,4,2,2,60,0,0
161901,-111.111111111111,4,2,2,60,0,0
162000,-111.111111111111,4,2,2,60,0,0
162099,-111.111111111111,4,2,2,60,0,0
162198,-105.263157894737,4,2,2,60,0,0
162297,-105.263157894737,4,2,2,60,0,0
162595,-100,4,2,2,60,0,0
162694,-100,4,2,2,60,0,0
162992,-90.9090909090909,4,2,2,60,0,0
163091,-90.9090909090909,4,2,2,60,0,0
163190,-90.9090909090909,4,2,2,60,0,0
163289,-90.9090909090909,4,2,2,60,0,0
163388,409.556313993174,4,2,1,70,1,0
163388,-90.9090909090909,4,2,1,70,0,0
165026,400,4,2,1,50,1,0
165026,-90.9090909090909,4,2,1,50,0,0
165226,-90.9090909090909,4,2,1,5,0,0
165292,-90.9090909090909,4,2,1,50,0,0
165492,-90.9090909090909,4,2,1,5,0,0
165556,-90.9090909090909,4,2,1,50,0,0
165759,-90.9090909090909,4,2,1,5,0,0
165826,375,4,2,1,50,1,0
166013,-100,4,2,1,5,0,0
166076,-100,4,2,1,50,0,0
166326,-100,4,2,1,5,0,0
166388,406.779661016949,4,2,1,50,1,0
166522,-100,4,2,1,5,0,0
166591,408.163265306122,4,2,1,65,1,0
166591,-117.647058823529,4,2,1,65,0,0
167203,396.039603960396,4,2,1,65,1,0
167797,408.163265306122,4,2,1,65,1,0
167797,-200,4,2,1,65,0,0
168103,-200,4,2,1,65,0,0
168205,400,4,2,1,80,1,1
168205,-62.5,4,2,1,80,0,1
169405,-200,4,2,1,80,0,1
169805,-62.5,4,2,1,80,0,1
170605,398.671096345515,4,2,1,80,1,1
170605,-62.5,4,2,1,80,0,1
171003,-200,4,2,1,80,0,1
171402,398.671096345515,4,2,1,80,1,1
171402,-62.5,4,2,1,80,0,1
174591,400.801603206413,4,2,1,80,1,1
174591,-62.5,4,2,1,80,0,1
175793,-200,4,2,1,80,0,1
176194,400,4,2,1,80,1,1
176194,-62.5,4,2,1,80,0,1
177394,-200,4,2,1,80,0,1
177794,-62.5,4,2,1,80,0,1
180194,403.361344537815,4,2,1,80,1,1
180194,-62.5,4,2,1,80,0,1
181000,400,4,2,1,80,1,1
181000,-62.5,4,2,1,80,0,1
182100,-62.5,4,2,1,80,0,1
182200,-200,4,2,1,80,0,1
182600,-62.5,4,2,1,80,0,1
183800,-200,4,2,1,80,0,1
184200,-62.5,4,2,1,80,0,1
186600,396.694214876033,4,2,1,80,1,1
186600,-62.5,4,2,1,80,0,1
187393,400,4,2,1,80,1,1
187393,-62.5,4,2,1,80,0,1
188493,-62.5,4,2,1,80,0,1
188593,-200,4,2,1,80,0,1
188993,401.33779264214,4,2,1,80,1,1
188993,-62.5,4,2,1,80,0,1
190197,-200,4,2,1,80,0,1
190598,398.340248962656,4,2,1,80,1,1
190598,-62.5,4,2,1,80,0,1
191395,-62.5,4,2,1,80,0,1
192191,404.040404040404,4,2,1,80,1,1
192191,-62.5,4,2,1,80,0,1
192999,398.671096345515,4,2,1,80,1,1
192999,-62.5,4,2,1,80,0,1
193796,401.33779264214,4,2,1,85,1,1
193796,-58.8235294117647,4,2,1,85,0,1
194995,-142.857142857143,4,2,1,85,0,1
195401,398.009950248756,4,2,1,85,1,1
195401,-58.8235294117647,4,2,1,85,0,1
196595,-142.857142857143,4,2,1,85,0,1
196993,401.002506265664,4,2,1,85,1,1
196993,-58.8235294117647,4,2,1,85,0,1
198597,402.414486921529,4,2,1,85,1,1
198597,-58.8235294117647,4,2,1,85,0,1
199401,397.350993377483,4,2,1,85,1,1
199401,-58.8235294117647,4,2,1,85,0,1
200195,400.266844563042,4,2,1,85,1,1
200195,-58.8235294117647,4,2,1,85,0,1
201395,-142.857142857143,4,2,1,85,0,1
201796,-58.8235294117647,4,2,1,85,0,1
202996,-142.857142857143,4,2,1,85,0,1
203397,402.010050251256,4,2,1,85,1,1
203397,-58.8235294117647,4,2,1,85,0,1
205005,397.350993377483,4,2,1,85,1,1
205005,-58.8235294117647,4,2,1,85,0,1
205402,-58.8235294117647,4,2,1,85,0,1
205700,-58.8235294117647,4,2,1,85,0,1
205799,-58.8235294117647,4,2,1,85,0,1
206594,410.958904109589,4,2,1,85,1,1
206594,-58.8235294117647,4,2,1,85,0,1
207415,394.736842105263,4,2,1,85,1,1
207415,-58.8235294117647,4,2,1,85,0,1
208204,397.350993377483,4,2,1,85,1,1
208204,-58.8235294117647,4,2,1,85,0,1
209793,402.144772117962,4,2,1,85,1,1
209793,-58.8235294117647,4,2,1,85,0,1
211401,394.736842105263,4,2,1,85,1,1
211401,-58.8235294117647,4,2,1,85,0,1
212585,413.793103448276,4,2,1,85,1,1
212585,-58.8235294117647,4,2,1,85,0,1
212998,399.467376830892,4,2,1,85,1,1
212998,-58.8235294117647,4,2,1,85,0,1
216193,401.33779264214,4,2,1,85,1,1
216193,-58.8235294117647,4,2,1,85,0,1
216795,-57.1428571428571,4,2,1,85,0,1
217397,-55.5555555555556,4,2,1,85,0,1
217798,397.350993377483,4,2,1,85,1,1
217798,-55.5555555555556,4,2,1,85,0,1
218990,404.040404040404,4,2,1,85,1,1
218990,-55.5555555555556,4,2,1,85,0,1
219394,389.61038961039,4,2,1,70,1,1
219394,-55.5555555555556,4,2,1,70,0,1
219491,-55.5555555555556,4,2,2,50,0,1
219978,413.793103448276,4,2,2,50,1,1
220184,387.096774193548,4,2,2,50,1,1
220571,444.444444444444,4,2,2,50,1,1
220793,400,4,2,1,70,1,1
220793,-55.5555555555556,4,2,1,70,0,0
220893,-55.5555555555556,4,2,1,20,0,0

[Colours]
Combo1 : 182,170,148
Combo2 : 124,133,171
Combo3 : 239,171,109
Combo4 : 169,152,175

[HitObjects]
387,100,185,102,0,B|387:44|351:11|330:-3|283:-6|225:24|216:130|264:209|319:250,1,412.500012588501,4|0,0:2|0:2,0:0:0:0:
335,257,1803,2,0,B|403:263|492:236|556:152|534:90|497:61|471:57|425:55|387:100,1,412.500012588501,2|2,0:2|0:2,0:0:0:0:
380,111,3385,1,2,0:2:0:0:
132,190,6605,102,0,B|79:147|79:147|23:163|23:163|0:193|0:193|5:241|5:241|39:292|39:292|96:312|96:312|161:372,1,412.500012588501,4|0,0:2|0:2,0:0:0:0:
175,363,8203,2,0,B|258:253|258:253|267:190|267:190|253:143|253:143|221:125|221:125|162:131|162:131|131:192,1,412.500012588501,2|0,0:2|0:2,0:0:0:0:
135,204,9802,1,6,0:2:0:0:
256,192,11402,12,2,12590,1:2:0:0:
417,141,12997,6,0,B|387:141|368:172|368:172|345:210|301:208,1,119.999996337891,6|0,1:2|0:2,0:0:0:0:
232,147,13297,1,0,1:2:0:0:
219,134,13397,2,0,P|184:131|117:187,1,119.999996337891,10|0,0:2|3:2,0:0:0:0:
121,334,13797,2,0,P|154:321|178:289,1,59.9999981689454,2|0,3:2|0:2,0:0:0:0:
267,291,13997,2,0,P|265:320|252:347,1,59.9999981689454,0|0,1:2|0:2,0:0:0:0:
359,268,14197,102,0,P|346:232|321:205,1,75,10|0,0:2|0:2,0:0:0:0:
304,197,14597,6,0,P|234:207|154:215,1,119.999996337891,2|0,1:2|3:2,0:0:0:0:
92,260,14897,1,0,1:2:0:0:
81,270,14997,2,0,P|49:270|43:191,1,119.999996337891,10|0,0:2|3:2,0:0:0:0:
136,94,15397,2,0,P|156:71|144:15,1,59.9999981689454,2|0,3:2|2:2,0:0:0:0:
349,58,15597,2,0,P|321:44|310:-11,1,59.9999981689454,0|0,1:2|0:2,0:0:0:0:
229,0,15797,102,0,L|242:95,1,75,10|0,0:2|2:2,0:0:0:0:
243,96,16197,6,0,B|275:102|290:132|290:132|302:171|340:180,1,119.999996337891,2|0,1:2|3:2,0:0:0:0:
417,134,16497,1,0,1:2:0:0:
431,123,16597,2,0,P|479:123|499:190,1,119.999996337891,10|0,0:2|3:2,0:0:0:0:
425,312,16997,2,0,L|414:405,1,59.9999981689454,2|0,0:2|3:2,0:0:0:0:
333,234,17197,2,0,L|322:141,1,59.9999981689454,0|0,1:2|0:2,0:0:0:0:
274,331,17397,1,10,0:2:0:0:
172,352,17597,1,0,3:2:0:0:
62,366,17797,102,0,P|68:291|77:209,1,119.999996337891,2|0,1:2|3:2,0:0:0:0:
145,176,18097,1,0,1:2:0:0:
158,162,18197,2,0,B|190:155|212:177|212:177|235:209|277:206,1,119.999996337891,10|0,0:2|3:2,0:0:0:0:
405,200,18597,2,0,P|426:179|431:134,1,59.9999981689454,2|0,0:2|3:2,0:0:0:0:
305,77,18797,2,0,P|284:98|279:143,1,59.9999981689454,0|0,1:2|0:2,0:0:0:0:
355,139,18997,5,10,0:2:0:0:
491,47,19197,1,8,0:2:0:0:
477,45,19297,1,8,0:2:0:0:
465,43,19397,102,0,P|436:77|436:157,1,119.999996337891,6|0,1:2|3:2,0:0:0:0:
503,227,19697,1,0,1:2:0:0:
512,240,19797,2,0,P|469:226|412:273,1,119.999996337891,10|0,0:2|3:2,0:0:0:0:
304,375,20197,2,0,P|286:364|263:311,1,59.9999981689454,2|0,0:2|2:2,0:0:0:0:
182,293,20397,2,0,P|173:321|179:351,1,59.9999981689454,0|0,3:2|0:2,0:0:0:0:
104,250,20597,6,0,P|115:231|176:203,1,75,10|0,0:2|0:2,0:0:0:0:
186,206,20997,102,0,P|255:212|323:216,1,119.999996337891,2|0,1:2|3:2,0:0:0:0:
398,260,21297,1,0,1:2:0:0:
413,268,21397,2,0,P|459:261|478:189,1,119.999996337891,10|0,0:2|3:2,0:0:0:0:
463,59,21797,2,0,L|456:-17,1,59.9999981689454,2|0,0:2|3:2,0:0:0:0:
341,75,21997,2,0,L|388:114,1,59.9999981689454,0|0,1:2|0:2,0:0:0:0:
380,207,22197,6,0,L|301:215,1,75,10|0,0:2|2:2,0:0:0:0:
280,220,22597,102,0,B|248:223|231:255|231:255|218:288|174:295,1,119.999996337891,2|0,1:2|3:2,0:0:0:0:
87,267,22897,1,0,1:2:0:0:
73,258,22997,2,0,P|32:285|52:356,1,119.999996337891,10|0,0:2|3:2,0:0:0:0:
183,351,23397,2,0,L|190:279,1,59.9999981689454,2|0,0:2|2:2,0:0:0:0:
305,214,23597,2,0,L|312:286,1,59.9999981689454,0|0,1:2|0:2,0:0:0:0:
222,137,23797,1,10,0:2:0:0:
113,121,23997,1,0,3:2:0:0:
10,100,24197,6,0,L|16:175,1,59.9999981689454,2|0,1:2|0:2,0:0:0:0:
39,251,24394,1,8,0:2:0:0:
58,255,24493,1,8,0:2:0:0:
74,259,24592,2,0,B|110:265|135:239|135:239|161:212|196:218,1,119.999996337891,8|0,0:2|1:2,0:0:0:0:
310,273,24987,2,0,P|329:263|354:215,1,59.9999981689454,8|8,0:2|1:2,0:0:0:0:
431,259,25185,2,0,P|437:238|421:187,1,59.9999981689454,0|0,3:2|3:2,0:0:0:0:
507,171,25383,1,8,0:2:0:0:
504,153,25482,1,8,3:3:0:0:
502,135,25580,2,0,L|432:119,1,59.9999981689454,4|4,3:3|3:3,0:0:0:0:
339,52,25778,101,6,1:2:0:0:
337,71,25878,1,6,0:3:0:0:
335,90,25979,1,10,0:3:0:0:
334,109,26080,1,6,1:3:0:0:
274,163,26181,6,0,P|247:177|194:90,1,129.999994049073,10|0,0:2|3:2,0:0:0:0:
125,70,26483,2,0,P|157:100|108:171,1,129.999994049073,8|0,0:2|3:2,0:0:0:0:
107,215,26786,2,0,P|144:215|174:256,1,64.9999970245363,0|0,1:2|0:2,0:0:0:0:
230,315,26988,2,0,L|447:335,1,194.999991073609,14|0,0:2|0:2,0:0:0:0:
507,380,27391,101,2,1:2:0:0:
505,361,27491,1,6,0:3:0:0:
503,342,27591,1,10,0:3:0:0:
502,323,27691,1,6,0:3:0:0:
448,263,27791,6,0,P|417:257|354:336,1,129.999994049073,10|0,0:2|3:2,0:0:0:0:
303,372,28091,2,0,P|333:326|282:278,1,129.999994049073,8|0,0:2|3:2,0:0:0:0:
271,234,28391,2,0,P|305:236|330:205,1,64.9999970245363,0|0,3:2|1:2,0:0:0:0:
393,84,28591,2,0,B|356:66|356:66|248:110|248:110|200:94,1,194.999991073609,12|0,0:2|0:2,0:0:0:0:
144,24,28991,101,2,1:2:0:0:
124,22,29091,1,6,0:3:0:0:
104,20,29191,1,10,0:3:0:0:
84,19,29292,1,6,0:3:0:0:
9,58,29392,6,0,B|0:94|29:118|29:118|62:140|58:179,1,129.999994049073,10|0,0:2|3:2,0:0:0:0:
123,98,29693,2,0,B|131:134|102:158|102:158|69:180|73:219,1,129.999994049073,8|0,0:2|3:2,0:0:0:0:
35,226,29994,2,0,P|54:245|60:289,1,64.9999970245363,0|0,1:2|0:2,0:0:0:0:
14,372,30195,2,0,L|86:362,1,64.9999970245363,10|0,0:2|0:2,0:0:0:0:
144,295,30395,2,0,L|216:305,1,64.9999970245363,0|0,1:2|0:2,0:0:0:0:
289,340,30596,102,0,B|301:398|353:392|374:365|383:336|369:274|310:258,1,194.999991073609,4|0,1:2|1:2,0:0:0:0:
326,270,30996,1,10,0:2:0:0:
511,221,31196,2,0,B|512:280|460:286|433:264|418:238|418:174|472:145,1,194.999991073609,0|0,3:2|0:2,0:0:0:0:
459,161,31596,1,2,3:2:0:0:
291,119,31796,2,0,P|377:104|454:90,1,129.999994049073,10|8,0:2|0:2,0:0:0:0:
485,28,32185,5,6,1:2:0:0:
488,47,32286,1,6,0:3:0:0:
491,66,32387,1,10,0:3:0:0:
494,85,32488,1,6,0:3:0:0:
459,161,32589,102,0,P|421:174|349:104,1,129.999994049073,10|0,0:2|3:2,0:0:0:0:
281,76,32893,2,0,P|310:101|288:188,1,129.999994049073,8|0,0:2|3:2,0:0:0:0:
269,226,33197,2,0,P|300:217|349:231,1,64.9999970245363,0|0,1:2|0:2,0:0:0:0:
437,290,33399,2,0,P|427:190|417:79,1,194.999991073609,14|0,0:2|0:2,0:0:0:0:
333,22,33793,5,2,1:2:0:0:
313,24,33893,1,6,0:3:0:0:
293,26,33993,1,10,0:3:0:0:
273,28,34093,1,6,0:3:0:0:
208,79,34193,102,0,P|162:78|121:6,1,129.999994049073,10|0,0:2|3:2,0:0:0:0:
106,114,34493,2,0,P|91:77|143:5,1,129.999994049073,8|0,0:2|3:2,0:0:0:0:
47,39,34793,2,0,P|85:22|125:28,1,64.9999970245363,0|0,3:2|1:2,0:0:0:0:
208,79,34993,2,0,B|221:119|221:119|149:208|149:208|161:259,1,194.999991073609,14|0,0:2|0:2,0:0:0:0:
215,345,35393,5,2,1:2:0:0:
234,342,35493,1,6,0:3:0:0:
253,339,35594,1,10,0:3:0:0:
272,336,35694,1,6,0:3:0:0:
345,376,35795,102,0,P|374:373|401:285,1,129.999994049073,10|0,0:2|3:2,0:0:0:0:
303,244,36096,2,0,P|361:245|368:318,1,129.999994049073,8|0,0:2|3:2,0:0:0:0:
342,334,36398,2,0,P|366:312|359:280,1,64.9999970245363,0|0,1:2|0:2,0:0:0:0:
322,160,36599,2,0,L|223:168,1,64.9999970245363,10|0,0:2|0:2,0:0:0:0:
217,239,36800,2,0,L|141:174,1,64.9999970245363,0|0,3:2|0:2,0:0:0:0:
78,218,37001,6,0,L|63:87,2,129.999994049073,6|0|10,1:2|3:2|0:2,0:0:0:0:
10,317,37597,2,0,L|1:377,2,43.3333313496908,0|0|0,3:2|3:2|3:2,0:0:0:0:
13,296,37795,2,0,L|88:301,1,64.9999970245363,2|0,1:2|0:2,0:0:0:0:
152,234,37994,2,0,L|227:239,1,64.9999970245363,0|0,1:2|0:2,0:0:0:0:
298,187,38193,1,12,0:2:0:0:
298,187,38590,37,6,1:2:0:0:
293,62,38792,1,0,0:2:0:0:
278,59,38893,1,0,3:2:0:0:
263,56,38994,2,0,P|241:74|223:103,1,50,8|0,0:2|0:2,0:0:0:0:
122,139,39196,1,2,1:2:0:0:
122,139,39297,2,0,P|137:107|104:24,1,100,0|0,0:0|3:2,0:0:0:0:
107,34,39600,2,0,L|3:43,2,100,2|8|2,3:2|0:2|3:2,0:0:0:0:
107,34,40198,101,2,1:2:0:0:
46,153,40398,1,0,3:2:0:0:
42,167,40498,1,0,3:2:0:0:
37,181,40598,2,0,P|69:194|104:190,1,50,8|0,0:2|0:2,0:0:0:0:
104,294,40798,1,2,1:2:0:0:
104,294,40898,2,0,P|156:286|195:240,1,100,8|0,0:2|0:2,0:0:0:0:
203,230,41198,102,0,B|213:201|197:182|197:182|179:157|198:115,2,100,2|10|0,3:2|0:2|0:2,0:0:0:0:
203,230,41798,1,2,1:2:0:0:
277,126,41998,1,0,3:2:0:0:
291,127,42098,1,0,0:2:0:0:
305,130,42198,2,0,P|315:165|321:191,1,50,8|0,0:2|0:2,0:0:0:0:
403,242,42398,1,2,1:2:0:0:
403,242,42498,2,0,P|406:200|416:116,1,100,8|0,0:2|0:2,0:0:0:0:
414,115,42798,2,0,P|446:109|533:97,2,100,2|10|2,3:2|0:2|3:2,0:0:0:0:
414,115,43398,5,2,1:2:0:0:
487,222,43598,1,0,1:2:0:0:
489,236,43698,1,0,0:2:0:0:
492,250,43798,2,0,L|504:321,1,50,8|0,0:2|0:2,0:0:0:0:
399,237,43998,1,2,1:2:0:0:
399,237,44098,2,0,P|391:297|383:352,1,100,8|0,0:2|0:2,0:0:0:0:
380,360,44398,2,0,B|352:364|335:344|335:344|320:317|285:320,2,100,2|10|0,1:2|0:2|3:2,0:0:0:0:
380,360,44998,5,2,1:2:0:0:
312,244,45198,1,0,0:2:0:0:
297,239,45298,1,0,3:2:0:0:
282,242,45398,2,0,P|254:252|232:275,1,50,8|0,0:2|0:2,0:0:0:0:
131,309,45598,1,2,1:2:0:0:
131,309,45698,2,0,P|157:270|128:202,1,100,8|0,0:2|0:2,0:0:0:0:
127,204,45998,2,0,P|75:216|20:233,2,100,2|8|2,3:2|0:2|3:2,0:0:0:0:
127,204,46598,85,2,1:2:0:0:
56,100,46798,1,0,1:2:0:0:
59,85,46898,1,0,0:2:0:0:
61,70,46998,2,0,P|98:69|123:85,1,50,8|0,0:2|3:2,0:0:0:0:
192,17,47198,1,2,1:2:0:0:
192,17,47298,2,0,P|224:45|234:118,1,100,8|0,0:2|0:2,0:0:0:0:
223,121,47598,2,0,P|216:175|212:226,2,100,2|10|0,1:2|0:2|3:2,0:0:0:0:
223,121,48198,5,2,1:2:0:0:
237,120,48298,1,0,2:2:0:0:
252,120,48398,1,0,2:2:0:0:
332,5,48598,2,0,B|360:7|373:31|373:31|392:66|429:68,1,100,8|2,0:2|3:2,0:0:0:0:
504,48,48898,1,8,2:2:0:0:
504,48,48998,2,0,P|497:15|487:-21,1,50,0|0,2:2|0:2,0:0:0:0:
492,136,49198,2,0,P|459:111|378:66,1,100,2|8,3:2|0:2,0:0:0:0:
329,121,49498,1,0,3:2:0:0:
314,123,49598,1,2,3:2:0:0:
299,125,49698,1,2,3:2:0:0:
284,126,49798,6,0,P|220:115|104:100,1,150,2|0,1:2|3:2,0:0:0:0:
116,105,50198,1,8,0:2:0:0:
207,200,50398,2,0,P|173:206|89:230,1,100,2|0,1:2|0:0,0:0:0:0:
222,290,50798,1,2,1:2:0:0:
209,298,50898,1,2,3:2:0:0:
198,308,50998,1,10,0:2:0:0:
140,72,51398,85,2,1:2:0:0:
154,76,51498,1,0,3:2:0:0:
168,80,51598,1,2,3:2:0:0:
182,84,51698,1,0,1:2:0:0:
196,88,51798,1,10,0:2:0:0:
301,39,51998,1,2,1:2:0:0:
301,39,52098,2,0,P|324:54|376:117,1,100,2|2,1:2|0:2,0:0:0:0:
383,54,52398,2,0,P|384:86|377:122,1,50,2|0,3:2|3:2,0:0:0:0:
376,196,52598,1,10,0:2:0:0:
376,196,52998,5,2,1:2:0:0:
362,200,53097,1,0,3:2:0:0:
348,204,53196,1,2,3:2:0:0:
334,208,53295,1,0,1:2:0:0:
320,211,53394,1,10,0:2:0:0:
274,300,53593,1,2,1:2:0:0:
260,304,53692,1,2,0:2:0:0:
192,255,53890,1,2,0:2:0:0:
178,259,53990,1,2,3:2:0:0:
153,329,54188,1,10,0:2:0:0:
153,329,54585,5,2,1:2:0:0:
162,340,54685,1,0,3:2:0:0:
173,350,54786,1,2,3:2:0:0:
186,357,54887,1,0,1:2:0:0:
200,362,54987,1,10,0:2:0:0:
313,269,55189,1,2,1:2:0:0:
313,269,55289,2,0,P|312:231|261:189,1,100,2|2,0:2|0:2,0:0:0:0:
331,185,55591,2,0,P|302:177|269:189,1,50,2|0,3:2|3:2,0:0:0:0:
196,238,55793,1,10,0:2:0:0:
196,238,56195,85,2,1:2:0:0:
187,249,56294,1,0,3:2:0:0:
176,259,56394,1,2,3:2:0:0:
163,266,56493,1,0,1:2:0:0:
149,271,56593,1,10,0:2:0:0:
71,203,56792,1,2,3:2:0:0:
57,196,56891,1,2,1:2:0:0:
71,110,57090,1,10,3:2:0:0:
66,95,57190,1,0,1:2:0:0:
102,24,57389,1,10,0:2:0:0:
102,24,57799,5,2,1:2:0:0:
87,26,57898,1,2,3:2:0:0:
72,28,57998,1,2,3:2:0:0:
57,30,58097,1,2,1:2:0:0:
42,32,58197,1,10,0:2:0:0:
4,146,58396,1,2,1:2:0:0:
4,146,58495,2,0,P|40:151|70:211,1,100,2|2,0:2|3:2,0:0:0:0:
98,153,58794,2,0,P|90:189|71:222,1,50,2|0,1:2|0:2,0:0:0:0:
60,294,58993,1,10,0:2:0:0:
60,294,59391,5,2,1:2:0:0:
75,296,59491,1,2,3:2:0:0:
90,298,59591,1,2,3:2:0:0:
105,300,59691,1,2,1:2:0:0:
120,302,59792,1,10,0:2:0:0:
209,247,59992,1,2,1:2:0:0:
224,249,60092,1,2,0:2:0:0:
256,328,60293,1,2,3:2:0:0:
271,330,60393,1,2,1:2:0:0:
336,287,60594,1,10,0:2:0:0:
336,287,60995,85,2,1:2:0:0:
339,301,61095,1,2,2:2:0:0:
342,315,61195,1,2,3:2:0:0:
345,329,61295,1,0,3:2:0:0:
348,343,61396,1,10,0:2:0:0:
453,294,61596,1,2,1:2:0:0:
453,294,61696,2,0,P|431:257|457:197,1,100,2|0,2:2|0:2,0:0:0:0:
500,231,61997,2,0,P|482:208|456:200,1,50,2|0,1:2|0:2,0:0:0:0:
365,172,62198,1,10,0:2:0:0:
365,172,62599,5,2,1:2:0:0:
368,158,62700,1,0,0:2:0:0:
371,144,62801,1,10,2:2:0:0:
374,130,62902,1,8,2:2:0:0:
377,116,63003,1,10,2:2:0:0:
293,23,63205,1,2,1:2:0:0:
296,37,63306,1,0,3:2:0:0:
298,51,63407,2,0,L|231:64,1,50,10|0,0:2|0:2,0:0:0:0:
193,0,63607,2,0,L|154:56,1,50,2|2,1:2|1:2,0:0:0:0:
82,38,63807,5,8,0:3:0:0:
85,52,63907,1,8,0:3:0:0:
89,66,64007,1,8,0:3:0:0:
92,80,64107,1,4,0:3:0:0:
95,94,64207,86,0,B|144:99|160:137|160:137|172:180|224:190,1,150,4|0,1:2|0:2,0:0:0:0:
220,193,64607,2,0,P|270:184|340:178,1,100,8|2,0:2|1:2,0:0:0:0:
343,190,64907,1,0,0:2:0:0:
343,190,65007,1,2,0:2:0:0:
459,242,65207,1,0,1:2:0:0:
461,227,65307,1,2,0:2:0:0:
463,212,65407,1,8,0:2:0:0:
394,302,65607,1,2,0:2:0:0:
234,384,65807,6,0,P|252:345|198:254,1,150,2|0,1:2|1:2,0:0:0:0:
180,264,66207,2,0,P|128:272|53:282,1,100,10|0,0:2|1:2,0:0:0:0:
31,182,66607,1,2,0:2:0:0:
29,167,66707,1,0,0:0:0:0:
27,152,66807,1,0,1:2:0:0:
25,137,66907,1,0,0:0:0:0:
24,122,67007,2,0,B|54:120|70:104|70:104|91:83|134:93,1,100,8|2,0:2|0:2,0:0:0:0:
268,67,67407,6,0,B|273:43|246:25|246:25|232:23|195:32|177:75|197:119,1,150,2|0,1:2|0:2,0:0:0:0:
203,118,67805,2,0,P|211:174|216:224,1,100,8|2,0:2|1:2,0:0:0:0:
218,346,68204,1,2,0:2:0:0:
121,372,68403,1,0,1:2:0:0:
69,269,68603,1,8,0:2:0:0:
148,283,68799,1,2,0:2:0:0:
100,169,68995,86,0,P|54:179|32:83,1,150,2|0,1:2|1:2,0:0:0:0:
37,81,69395,2,0,P|94:72|157:65,1,100,10|0,0:2|1:2,0:0:0:0:
219,157,69795,1,2,0:2:0:0:
306,105,69995,1,0,1:2:0:0:
252,19,70195,1,8,0:2:0:0:
163,72,70397,1,2,3:2:0:0:
159,86,70499,1,0,3:2:0:0:
156,100,70600,6,0,P|229:102|348:105,1,150,6|0,1:2|0:2,0:0:0:0:
327,90,71001,2,0,P|364:101|386:167,1,100,8|2,0:2|1:2,0:0:0:0:
379,177,71302,1,0,0:2:0:0:
379,177,71402,1,2,0:2:0:0:
286,243,71603,1,0,1:2:0:0:
300,240,71703,1,2,0:2:0:0:
314,237,71804,1,8,0:2:0:0:
360,315,72004,1,2,0:2:0:0:
233,182,72205,6,0,P|203:228|255:319,1,150,2|0,1:2|1:2,0:0:0:0:
260,327,72604,2,0,P|327:319|381:311,1,100,10|0,0:2|1:2,0:0:0:0:
431,221,73003,2,0,B|439:162|439:162|460:135|460:135|469:61,2,150,2|0|2,0:2|0:0|0:2,0:0:0:0:
359,314,73801,86,0,B|316:312|295:342|295:342|270:382|223:377,1,150,6|0,1:2|0:0,0:0:0:0:
197,370,74201,2,0,P|190:315|181:243,1,100,10|2,0:2|1:2,0:0:0:0:
152,148,74601,1,2,0:2:0:0:
99,244,74801,1,0,1:2:0:0:
24,195,75001,1,8,0:2:0:0:
72,135,75201,1,2,3:2:0:0:
10,282,75401,5,2,1:2:0:0:
108,253,75601,1,0,1:2:0:0:
211,224,75801,1,14,0:2:0:0:
211,224,75899,1,0,0:0:0:0:
211,224,75998,2,0,L|205:157,1,50,8|4,0:3|0:3,0:0:0:0:
149,77,76195,6,0,P|194:96|247:58,1,100,0|0,1:2|0:0,0:0:0:0:
254,47,76491,1,8,0:3:0:0:
254,47,76590,2,0,P|298:27|346:48,1,100,8|4,0:3|0:3,0:0:0:0:
499,97,76996,86,0,B|500:139|465:148|445:141|445:141|425:130|418:118|410:89|415:39|464:15,1,220.000006713867,6|8,1:2|0:2,0:0:0:0:
255,177,77599,2,0,B|255:219|290:227|309:219|309:219|329:208|336:195|343:166|336:116|286:94,1,220.000006713867,2|0,1:2|1:2,0:0:0:0:
480,293,78202,1,10,0:2:0:0:
411,188,78403,1,0,3:2:0:0:
362,303,78604,5,0,1:2:0:0:
492,157,78804,1,2,0:2:0:0:
487,141,78904,1,0,1:2:0:0:
484,124,79004,2,0,B|445:110|408:145|408:145|370:190|321:175,1,165.000005035401,8|0,0:2|0:0,0:0:0:0:
312,169,79404,2,0,P|231:163|173:160,1,110.000003356934,2|0,0:2|1:2,0:0:0:0:
120,47,79804,2,0,P|201:41|259:38,1,110.000003356934,10|0,0:2|3:2,0:0:0:0:
111,155,80204,5,2,1:2:0:0:
29,87,80404,1,0,0:2:0:0:
11,184,80604,1,8,0:2:0:0:
11,184,80804,1,2,1:2:0:0:
126,244,81004,1,0,0:2:0:0:
195,187,81204,1,0,1:2:0:0:
210,268,81404,1,10,0:2:0:0:
210,268,81604,1,0,0:2:0:0:
111,155,81804,85,0,1:2:0:0:
144,323,82002,1,2,0:2:0:0:
146,339,82102,1,0,1:2:0:0:
147,355,82201,1,8,0:2:0:0:
0,329,82400,2,0,B|45:335|72:288|72:288|94:241|160:244,1,165.000005035401,0|0,1:2|3:0,0:0:0:0:
156,249,82797,2,0,P|216:254|268:259,1,110.000003356934,0|10,1:2|0:2,0:0:0:0:
415,296,83194,1,0,1:2:0:0:
413,312,83294,1,0,1:2:0:0:
412,328,83393,6,0,B|409:370|369:369|360:364|360:364|345:361|325:335|314:267|364:238|397:230,1,220.000006713867,6|8,1:2|0:2,0:0:0:0:
479,171,83999,1,2,1:2:0:0:
340,113,84201,2,0,B|311:111|292:129|292:129|266:158|228:146,2,110.000003356934,0|2|8,0:0|1:2|0:2,0:0:0:0:
340,113,84803,1,2,0:2:0:0:
423,0,85002,5,0,1:2:0:0:
479,171,85198,1,2,1:2:0:0:
313,253,85394,1,8,0:2:0:0:
340,113,85590,1,2,1:2:0:0:
180,144,85786,1,8,0:2:0:0:
201,222,85989,1,2,1:2:0:0:
86,190,86192,1,8,0:2:0:0:
77,166,86395,38,0,L|40:160,3,36.6666677856446,8|8|8|2,0:3|0:3|0:3|1:2,0:0:0:0:
36,137,89593,5,2,0:2:0:0:
36,137,89792,22,0,P|106:127|233:110,1,150.000005722046,6|0,1:2|0:2,0:0:0:0:
273,40,90094,1,0,1:2:0:0:
305,22,90195,2,0,P|333:27|346:147,1,150.000005722046,10|0,0:2|3:2,0:0:0:0:
255,208,90598,2,0,P|219:241|226:299,1,75.0000028610231,2|0,2:2|0:2,0:0:0:0:
370,361,90798,2,0,P|406:328|399:270,1,75.0000028610231,0|0,1:2|0:2,0:0:0:0:
350,228,90998,70,0,L|304:305,1,75,10|0,0:2|3:2,0:0:0:0:
295,315,91398,70,0,B|252:313|231:343|231:343|206:383|159:378,1,150.000005722046,2|0,1:2|0:2,0:0:0:0:
56,340,91699,1,0,1:2:0:0:
35,308,91799,2,0,P|39:256|49:137,1,150.000005722046,10|0,0:2|3:2,0:0:0:0:
61,0,92200,2,0,P|96:18|118:67,1,75.0000028610231,2|0,2:2|0:2,0:0:0:0:
211,104,92401,2,0,P|222:63|211:22,1,75.0000028610231,0|0,1:2|0:2,0:0:0:0:
307,139,92602,38,0,P|287:174|242:198,1,75,10|0,0:2|0:0,0:0:0:0:
230,197,93003,54,0,P|171:182|105:246,1,150.000005722046,6|0,1:2|0:2,0:0:0:0:
111,267,93303,1,0,1:2:0:0:
111,267,93403,1,10,0:2:0:0:
307,139,93603,2,0,P|275:86|183:85,1,150.000005722046,0|2,3:2|2:2,0:0:0:0:
173,104,93903,1,0,0:2:0:0:
173,104,94003,1,0,1:2:0:0:
410,163,94203,2,0,P|425:104|360:38,1,150.000005722046,10|0,0:2|3:2,0:0:0:0:
347,325,94603,102,0,B|305:332|279:291|279:291|250:248|202:262,1,150.000005722046,2|0,1:2|3:2,0:0:0:0:
125,348,94903,1,0,3:2:0:0:
90,363,95003,2,0,P|46:346|23:233,1,150.000005722046,10|0,0:2|2:2,0:0:0:0:
37,118,95403,2,0,L|35:25,1,75.0000028610231,2|0,1:2|3:2,0:0:0:0:
118,165,95600,2,0,L|171:113,1,75.0000028610231,0|0,1:2|0:2,0:0:0:0:
147,260,95797,2,0,L|242:259,1,75.0000028610231,10|0,0:2|0:2,0:0:0:0:
63,375,95995,5,0,2:2:0:0:
49,373,96093,1,8,0:2:0:0:
38,369,96192,2,0,P|50:278|63:191,1,150.000005722046,6|0,1:2|0:2,0:0:0:0:
26,110,96494,1,0,1:2:0:0:
16,73,96594,2,0,P|32:28|135:34,1,150.000005722046,10|0,0:2|3:2,0:0:0:0:
201,181,96997,2,0,P|225:171|264:111,1,75.0000028610231,2|0,2:2|0:2,0:0:0:0:
365,105,97197,2,0,P|369:141|356:176,1,75.0000028610231,0|0,1:2|0:2,0:0:0:0:
470,69,97397,54,0,P|460:43|408:2,1,75,10|0,0:2|1:2,0:0:0:0:
396,4,97797,70,0,B|350:-4|327:26|327:26|302:69|242:58,1,150.000005722046,2|0,1:2|0:2,0:0:0:0:
156,39,98096,1,0,1:2:0:0:
123,20,98196,2,0,P|61:31|76:133,1,150.000005722046,10|0,0:2|3:2,0:0:0:0:
75,257,98595,2,0,P|96:285|77:349,1,75.0000028610231,2|0,2:2|0:2,0:0:0:0:
320,316,98795,2,0,P|286:330|268:393,1,75.0000028610231,0|0,1:2|0:2,0:0:0:0:
176,367,98995,38,0,L|198:257,1,75.0000028610231,10|0,0:2|3:2,0:0:0:0:
198,259,99394,38,0,P|259:250|429:226,1,225.000008583069,6|0,1:2|1:2,0:0:0:0:
455,233,99794,2,0,P|498:268|452:365,1,150.000005722046,10|0,0:2|3:2,0:0:0:0:
448,363,100094,1,8,0:2:0:0:
448,363,100194,1,2,2:2:0:0:
330,275,100394,2,0,P|319:223|346:186,1,75.0000028610231,0|0,1:2|2:2,0:0:0:0:
403,185,100594,2,0,P|421:217|455:233,1,75.0000028610231,10|0,0:2|2:2,0:0:0:0:
512,112,100794,2,0,P|460:123|423:95,1,75.0000028610231,0|0,2:2|0:2,0:0:0:0:
366,67,100994,6,0,B|324:62|301:96|301:96|272:149|217:137,1,150.000005722046,2|0,1:2|1:2,0:0:0:0:
133,100,101294,1,0,0:0:0:0:
107,67,101394,2,0,P|150:1|222:18,1,150.000005722046,14|0,0:2|1:2,0:0:0:0:
202,201,101795,5,10,0:2:0:0:
235,218,101896,1,8,0:2:0:0:
272,214,101996,1,8,0:2:0:0:
302,192,102097,1,8,0:2:0:0:
244,139,102197,85,8,0:2:0:0:
251,190,102298,1,8,0:2:0:0:
258,241,102398,1,8,0:2:0:0:
265,292,102498,1,0,1:2:0:0:
270,340,102599,6,0,P|211:345|116:353,1,150.000005722046,6|0,1:2|2:2,0:0:0:0:
32,279,102899,1,0,1:2:0:0:
5,252,102999,2,0,P|6:221|116:196,1,150.000005722046,10|0,0:2|3:2,0:0:0:0:
221,259,103399,2,0,P|248:249|285:191,1,75.0000028610231,2|0,2:2|0:2,0:0:0:0:
378,176,103599,2,0,P|382:212|368:247,1,75.0000028610231,0|0,1:2|3:2,0:0:0:0:
475,149,103799,54,0,P|465:122|407:85,1,75.0000028610231,10|0,0:2|3:2,0:0:0:0:
394,94,104199,70,0,B|355:95|330:61|330:61|311:20|266:19,1,150.000005722046,2|0,1:2|3:2,0:0:0:0:
156,28,104499,1,0,1:2:0:0:
126,50,104599,2,0,P|130:135|133:206,1,150.000005722046,10|0,0:2|3:2,0:0:0:0:
245,354,104999,2,0,P|281:321|275:263,1,75.0000028610231,2|0,2:2|0:0,0:0:0:0:
132,199,105199,2,0,P|95:231|101:289,1,75.0000028610231,0|0,1:2|3:2,0:0:0:0:
150,331,105399,38,0,L|197:254,1,75,10|0,0:2|0:0,0:0:0:0:
208,239,105789,38,0,B|248:238|273:281|273:281|297:322|355:317,1,150.000005722046,6|0,1:2|0:0,0:0:0:0:
369,319,106090,1,0,1:2:0:0:
369,319,106190,1,10,0:2:0:0:
312,67,106391,2,0,B|340:94|328:142|328:142|316:188|360:226,1,150.000005722046,0|2,3:2|2:2,0:0:0:0:
374,236,106692,1,0,0:2:0:0:
374,236,106792,1,0,1:2:0:0:
512,27,106993,2,0,B|513:67|470:92|470:92|429:116|434:173,1,150.000005722046,10|0,0:2|0:0,0:0:0:0:
511,340,107394,6,0,P|444:329|335:313,1,150.000005722046,2|0,1:2|3:2,0:0:0:0:
251,351,107695,1,0,1:2:0:0:
223,377,107795,2,0,P|157:372|127:286,1,150.000005722046,10|0,0:2|0:2,0:0:0:0:
202,173,108197,2,0,P|230:134|215:80,1,75.0000028610231,2|0,2:2|0:2,0:0:0:0:
71,43,108395,2,0,P|43:82|58:136,1,75.0000028610231,0|0,1:2|0:2,0:0:0:0:
137,106,108594,1,10,0:2:0:0:
378,9,108793,1,8,0:2:0:0:
391,8,108892,1,8,0:2:0:0:
402,7,108991,6,0,P|412:93|418:173,1,150.000005722046,6|0,1:2|0:2,0:0:0:0:
340,240,109292,1,0,1:2:0:0:
320,271,109392,2,0,P|339:336|424:333,1,150.000005722046,10|0,0:2|3:2,0:0:0:0:
417,156,109794,2,0,P|378:162|342:203,1,75.0000028610231,2|0,2:2|0:2,0:0:0:0:
242,211,109995,2,0,P|243:168|265:132,1,75.0000028610231,0|0,1:2|0:2,0:0:0:0:
140,216,110196,38,0,P|148:255|184:291,1,75,10|0,0:2|0:0,0:0:0:0:
196,299,110593,54,0,P|217:223|175:147,1,150.000005722046,6|0,1:2|0:0,0:0:0:0:
88,105,110893,1,0,1:2:0:0:
54,122,110993,2,0,P|45:192|35:285,1,150.000005722046,10|0,0:2|3:2,0:0:0:0:
154,358,111394,2,0,P|181:334|196:279,1,75.0000028610231,2|0,2:2|0:2,0:0:0:0:
297,312,111594,2,0,P|299:275|270:226,1,75.0000028610231,0|0,1:2|0:2,0:0:0:0:
377,181,111795,54,0,P|353:153|302:138,1,75,10|0,0:2|0:2,0:0:0:0:
281,138,112195,38,0,B|238:138|221:178|221:178|198:218|149:217,1,150.000005722046,6|0,1:2|2:2,0:0:0:0:
129,212,112494,1,0,1:2:0:0:
129,212,112593,1,10,0:2:0:0:
340,81,112793,2,0,B|310:111|326:152|326:152|338:196|302:230,1,150.000005722046,0|6,2:2|0:2,0:0:0:0:
284,240,113092,1,0,3:2:0:0:
284,240,113191,1,0,1:2:0:0:
343,0,113391,2,0,B|343:42|383:59|383:59|423:82|422:131,1,150.000005722046,10|0,0:2|1:2,0:0:0:0:
439,267,113789,5,12,1:2:0:0:
438,281,113889,1,8,3:3:0:0:
437,295,113989,1,8,3:3:0:0:
436,309,114090,1,8,3:3:0:0:
435,323,114190,1,8,3:3:0:0:
434,337,114290,1,8,3:3:0:0:
433,351,114391,1,12,0:2:0:0:
432,365,114491,1,8,0:2:0:0:
431,379,114591,6,0,P|376:364|334:379,1,75.0000028610231,8|8,0:2|0:2,0:0:0:0:
280,253,114792,2,0,P|230:281|212:320,1,75.0000028610231,8|8,0:2|0:2,0:0:0:0:
81,266,114993,38,0,P|66:320|77:356,1,75,6|0,1:2|0:2,0:0:0:0:
86,355,115394,6,0,B|108:253|108:253|114:247|114:247|107:143,1,209.999993591309,6|0,1:2|1:2,0:0:0:0:
84,133,115796,2,0,B|59:114|59:114|71:63,1,69.9999978637696,8|0,0:2|0:2,0:0:0:0:
125,7,115998,1,2,1:2:0:0:
141,0,116098,2,0,B|202:21|202:21|203:25|203:25|291:57,1,139.999995727539,8|0,0:2|0:2,0:0:0:0:
400,77,116400,1,2,1:2:0:0:
392,65,116501,1,0,0:2:0:0:
383,53,116602,2,0,B|326:49|326:49|282:154,1,139.999995727539,8|2,0:2|1:2,0:0:0:0:
294,230,116904,5,2,3:2:0:0:
289,246,117004,2,0,B|341:262|384:214|384:214|378:210|378:210|417:160|475:173,1,209.999993591309,6|2,1:2|1:2,0:0:0:0:
500,187,117401,2,0,L|486:276,1,69.9999978637696,8|0,0:2|0:2,0:0:0:0:
374,384,117599,2,0,L|362:298,1,69.9999978637696,2|8,1:2|3:2,0:0:0:0:
306,149,117798,2,0,B|274:109|225:103|225:103|225:100|225:100|174:97|133:116|133:116|130:113|130:113|90:136|69:185|69:185|66:184|66:184|45:222|46:259|46:259|43:264|43:264|46:289|52:304,1,419.999987182618,2|0,3:2|0:0,0:0:0:0:
143,384,118592,101,6,3:2:0:0:
149,360,118692,1,0,3:2:0:0:
156,336,118792,1,0,3:2:0:0:
186,306,118892,2,0,L|266:295,2,44.999998626709,2|8|0,3:2|3:2|3:2,0:0:0:0:
252,206,119193,2,0,L|300:243,2,44.999998626709,2|8|0,3:2|3:2|3:2,0:0:0:0:
392,275,119493,5,2,3:2:0:0:
395,241,119593,1,0,3:2:0:0:
398,208,119693,1,0,3:2:0:0:
425,176,119794,1,10,3:2:0:0:
422,152,119894,1,0,3:2:0:0:
419,130,119994,1,0,3:2:0:0:
389,103,120094,6,0,L|316:87,2,44.999998626709,2|4|0,3:2|3:2|3:2,0:0:0:0:
455,36,120394,2,0,L|520:20,2,44.999998626709,2|0|8,3:2|3:2|3:2,0:0:0:0:
322,8,120694,1,2,1:2:0:0:
309,12,120794,1,0,0:0:0:0:
296,15,120894,1,8,0:2:0:0:
273,36,120994,6,0,P|256:60|256:93,1,44.999998626709,2|0,1:2|0:2,0:0:0:0:
176,83,121194,2,0,P|180:111|204:135,1,37.5000014305115,2|0,1:2|0:2,0:0:0:0:
125,171,121394,1,10,0:2:0:0:
125,171,121494,1,2,3:2:0:0:
125,171,121594,2,0,P|144:184|170:184,1,29.9999990844727,2|0,1:2|0:0,0:0:0:0:
254,212,121794,102,0,B|320:202|320:202|322:204|322:204|430:187,1,134.999995880127,6|0,1:2|1:2,0:0:0:0:
413,207,122195,2,0,B|441:225|441:225|422:295,1,89.9999972534181,8|2,0:2|1:2,0:0:0:0:
379,363,122496,1,10,0:2:0:0:
376,375,122596,2,0,B|344:357|344:357|223:377,1,134.999995880127,2|0,0:2|0:2,0:0:0:0:
122,325,122998,1,10,0:2:0:0:
133,332,123098,1,2,3:2:0:0:
143,340,123198,6,0,B|193:302|193:302|160:205,1,150,2|0,1:2|3:2,0:0:0:0:
61,139,123598,1,2,1:2:0:0:
60,153,123698,1,2,0:2:0:0:
59,167,123798,2,0,B|55:195|55:195|56:197|56:197|51:233,1,50,10|0,0:2|0:2,0:0:0:0:
190,75,123998,1,2,1:2:0:0:
191,89,124097,1,10,0:2:0:0:
192,103,124197,2,0,B|196:134|196:134|198:137|198:137|200:169,1,50,2|0,1:2|3:2,0:0:0:0:
74,43,124397,101,2,1:2:0:0:
164,219,124597,1,10,0:2:0:0:
61,139,124796,1,2,1:2:0:0:
205,30,124996,5,6,1:2:0:0:
249,18,125096,1,0,3:2:0:0:
285,27,125196,1,2,3:2:0:0:
303,42,125296,1,0,1:2:0:0:
317,57,125396,2,0,L|313:119,2,59.9999981689454,10|2|0,0:2|3:2|1:2,0:0:0:0:
452,29,125697,2,0,B|445:1|413:30|410:63|450:87|450:87|454:83|454:83|501:107|485:157,1,179.999994506836,10|2,0:2|1:2,0:0:0:0:
423,222,126097,1,0,3:2:0:0:
412,234,126198,2,0,B|345:226|345:226|344:227|344:227|293:221,1,119.999996337891,10|0,0:2|3:2,0:0:0:0:
182,163,126498,101,0,1:2:0:0:
169,153,126598,2,0,B|136:170|136:170|132:272,1,119.999996337891,14|8,0:2|0:3,0:0:0:0:
191,360,126895,1,10,0:0:0:0:
227,383,126994,1,4,0:3:0:0:
260,384,127093,1,4,0:3:0:0:
272,370,127192,1,10,0:2:0:0:
289,362,127291,1,0,3:2:0:0:
302,365,127390,6,0,B|324:357|338:323|338:323|367:365|412:361,1,119.999996337891,14|0,0:2|1:2,0:0:0:0:
484,363,127692,1,0,3:2:0:0:
496,348,127792,2,0,L|488:268,1,59.9999981689454,10|0,0:2|1:2,0:0:0:0:
401,270,127994,2,0,L|406:210,1,59.9999981689454,8|4,0:3|0:3,0:0:0:0:
304,192,128195,86,0,L|297:126,7,39.9999987792969,6|0|0|0|0|0|14|0,1:2|0:2|0:2|0:2|0:2|0:0|0:2|0:2,0:0:0:0:
405,114,128795,2,0,L|416:56,7,39.9999987792969,0|10|0|0|0|0|0|0,1:0|1:2|0:2|0:0|0:0|0:0|1:2|3:2,0:0:0:0:
290,57,129396,2,0,L|281:-2,4,39.9999987792969,10|0|0|0|0,0:2|0:2|0:2|0:2|0:2,0:0:0:0:
152,20,129796,6,0,B|143:44|143:44|137:74,7,46.6666652425131,6|0|0|0|0|0|8|0,1:2|3:2|3:2|3:2|3:2|3:2|0:2|0:2,0:0:0:0:
38,120,130396,2,0,B|54:139|54:139|77:159,7,46.6666652425131,0|10|0|0|0|0|0|0,0:2|0:2|3:2|3:2|3:2|3:2|1:2|0:2,0:0:0:0:
67,268,130996,2,0,B|92:263|92:263|121:253,4,46.6666652425131,8|0|0|0|0,0:2|0:2|0:2|0:2|0:0,0:0:0:0:
193,157,131396,6,0,L|204:96,7,53.3333333333333,6|0|0|0|0|0|8|0,1:2|3:2|3:2|3:2|3:2|3:2|0:2|0:2,0:0:0:0:
303,261,131996,2,0,L|314:200,7,53.3333333333333,0|10|0|0|0|0|0|0,0:2|0:2|3:2|3:2|3:2|3:2|3:2|1:2,0:0:0:0:
413,365,132596,2,0,L|424:304,4,53.3333333333333,10|0|0|0|0,0:2|3:2|3:2|3:2|3:2,0:0:0:0:
465,188,132996,6,0,B|476:243|407:242|390:203|394:139|394:139|367:142|332:108,1,209.999993591309,6|0,1:2|0:2,0:0:0:0:
336,17,133298,2,0,P|384:42|391:89,1,75.0000028610231,2|10,3:2|0:2,0:0:0:0:
299,191,133499,1,0,0:2:0:0:
299,191,133600,2,0,P|268:140|287:94,1,75.0000028610231,6|0,1:2|0:2,0:0:0:0:
485,39,133801,6,0,P|474:111|461:216,1,150.000005722046,2|0,1:2|0:2,0:0:0:0:
375,293,134103,1,2,3:2:0:0:
375,293,134204,2,0,P|368:351|367:368,1,66.4999972602845,8|0,0:2|0:2,0:0:0:0:
269,127,134397,2,0,P|262:185|261:202,1,64.9999970245363,0|10,1:0|0:2,0:0:0:0:
134,56,134591,6,0,B|82:85|82:85|125:235,1,194.999991073609,6|0,1:2|1:2,0:0:0:0:
112,240,134993,2,0,B|163:230|189:224|189:224|210:231|218:270|202:283,1,129.999994049073,8|2,0:2|1:2,0:0:0:0:
92,384,135395,5,2,3:2:0:0:
39,378,135495,1,0,3:2:0:0:
12,360,135596,1,2,1:2:0:0:
3,344,135696,1,0,3:2:0:0:
1,333,135797,1,10,0:2:0:0:
3,325,135897,2,0,L|70:318,2,64.9999970245363,2|0|0,1:2|0:0|0:2,0:0:0:0:
24,169,136199,101,2,1:2:0:0:
29,186,136298,2,0,B|92:195|92:195|92:197|92:197|172:208,1,129.999994049073,2|2,3:2|1:2,0:0:0:0:
182,103,136595,2,0,B|210:141|210:141|209:142|209:142|246:190,1,89.9999972534181,10|2,0:2|1:2,0:0:0:0:
323,130,136892,2,0,B|318:163|318:163|317:163|317:163|311:205,1,59.9999981689454,2|2,3:2|1:2,0:0:0:0:
387,227,137189,2,0,B|368:240|368:240|368:240|368:240|345:257,1,40,2|10,3:2|0:2,0:0:0:0:
402,309,137591,1,2,1:2:0:0:
505,125,137795,6,0,B|495:106|457:107|441:133|441:133|437:132|437:132|402:162|349:139,1,129.999994049073,14|0,0:2|1:2,0:0:0:0:
226,48,138194,2,0,B|236:29|274:30|290:56|290:56|294:55|294:55|329:85|382:62,1,129.999994049073,10|0,0:2|0:2,0:0:0:0:
364,61,138493,1,8,1:3:0:0:
363,61,138593,2,0,B|378:30|378:30|363:-26,1,64.9999970245363,4|8,3:3|3:3,0:0:0:0:
391,148,138793,2,0,B|421:135|421:135|452:86,1,64.9999970245363,4|8,3:3|3:3,0:0:0:0:
349,229,138993,1,4,3:3:0:0:
349,229,139092,1,8,0:2:0:0:
349,229,139192,2,0,B|379:242|379:242|436:229,1,64.9999970245363,0|6,1:2|1:2,0:0:0:0:
323,327,139392,102,0,B|270:296|270:296|201:305,1,129.999994049073,0|2,0:0|1:2,0:0:0:0:
100,320,139690,1,0,3:2:0:0:
100,320,139788,1,2,1:2:0:0:
100,320,139886,2,0,L|90:391,2,64.9999970245363,0|2|2,3:2|1:2|3:2,0:0:0:0:
109,210,140183,5,8,0:2:0:0:
85,206,140283,1,0,3:2:0:0:
62,203,140382,1,2,3:2:0:0:
39,199,140484,1,2,1:2:0:0:
15,195,140586,102,0,P|44:138|71:122,1,64.9999970245363,8|8,1:3|3:3,0:0:0:0:
142,58,140791,2,0,P|203:38|246:58,1,64.9999970245363,4|4,1:3|3:3,0:0:0:0:
324,57,140996,69,4,1:2:0:0:
78,133,153803,6,0,L|74:102,3,20,6|0|0|0,1:2|0:2|0:2|0:0,0:0:0:0:
155,155,154204,2,0,L|174:130,3,20.9999993591309,0|0|2|0,1:2|0:0|0:2|0:0,0:0:0:0:
186,231,154605,2,0,L|217:227,3,22.0000006713867,2|0|2|0,1:2|0:0|0:2|0:0,0:0:0:0:
163,309,155005,2,0,L|187:328,3,22.9999992279053,0|0|2|0,1:2|0:0|0:2|0:0,0:0:0:0:
83,339,155405,70,0,L|86:370,3,24.0000005859375,2|0|2|0,1:2|0:0|0:2|0:0,0:0:0:0:
3,270,155805,2,0,L|-1:301,3,25,2|0|0|0,1:2|0:0|0:0|0:0,0:0:0:0:
95,216,156205,2,0,L|98:247,3,25.9999998413086,2|0|0|0,1:2|0:0|0:0|0:0,0:0:0:0:
15,147,156605,2,0,L|11:178,3,27.0000006591797,2|0|2|0,1:2|0:0|0:2|0:0,0:0:0:0:
82,63,157005,6,0,L|85:94,3,28.0000003417969,2|0|2|0,1:2|0:0|0:2|0:0,0:0:0:0:
171,52,157405,2,0,L|174:83,3,29.0000008850098,0|0|2|0,1:2|0:0|0:2|0:0,0:0:0:0:
244,164,157805,2,0,L|248:132,3,29.9999990844727,2|0|2|0,1:2|0:0|0:2|0:0,0:0:0:0:
332,176,158203,2,0,L|336:144,3,30.9999987701417,0|0|2|0,1:2|0:0|0:2|0:0,0:0:0:0:
408,94,158602,6,0,L|404:62,3,32,2|0|2|0,1:2|0:0|0:2|0:0,0:0:0:0:
493,164,159002,2,0,L|497:130,3,32.999999899292,2|0|2|0,1:2|0:0|0:2|0:0,0:0:0:0:
397,235,159402,2,0,L|392:201,3,34.0000002075195,0|0|2|0,1:2|0:0|0:2|0:0,0:0:0:0:
496,311,159802,2,0,L|500:275,3,34.9999989318848,0|0|2|0,1:2|0:0|0:2|0:2,0:0:0:0:
406,376,160202,86,0,L|401:338,3,37.0000009033203,2|0|0|0,1:2|0:0|0:0|0:0,0:0:0:0:
317,351,160602,2,0,L|311:311,3,39.0000013092042,0|0|2|2,1:2|0:0|0:2|0:2,0:0:0:0:
107,310,161002,2,0,L|112:265,3,41.0000006256104,0|0|2|2,1:2|0:2|0:2|0:2,0:0:0:0:
201,271,161402,2,0,L|207:224,3,43.0000006561279,0|0|2|2,1:2|0:2|0:2|0:2,0:0:0:0:
421,229,161802,38,0,L|415:184,3,44.999998626709,0|0|2|2,1:2|0:2|0:2|0:2,0:0:0:0:
326,192,162198,2,0,L|319:145,3,47.4999987316132,0|0|2|2,1:2|0:2|0:2|0:2,0:0:0:0:
78,151,162595,2,0,L|84:98,3,50,0|0|2|2,1:2|0:2|0:2|0:2,0:0:0:0:
180,109,162992,2,0,L|187:53,3,55.0000016784668,0|0|2|0,1:2|0:2|0:2|0:2,0:0:0:0:
255,263,163388,5,4,1:2:0:0:
256,192,165026,12,0,166489,0:0:0:0:
363,184,166591,6,0,L|368:211,7,28.3333338737488,0|8|8|8|8|8|0|0,1:2|0:3|0:3|0:3|0:3|0:3|1:2|0:0,0:0:0:0:
276,167,167203,2,0,L|250:196,7,33.3333333333333,0|4|4|4|4|4|0|0,1:2|0:3|0:3|0:3|0:3|0:3|1:2|0:2,0:0:0:0:
231,96,167797,102,0,P|168:101|137:102,1,75,8|0,0:2|0:0,0:0:0:0:
125,87,168205,86,0,B|110:49|78:42|50:53|31:89|26:117|36:146,1,160,6|0,1:2|0:2,0:0:0:0:
85,258,168505,1,0,1:2:0:0:
122,300,168605,2,0,B|164:288|193:331|193:331|222:376|280:366,1,160,10|0,0:2|3:2,0:0:0:0:
450,246,169005,2,0,P|452:203|413:159,1,80,2|0,2:2|0:2,0:0:0:0:
253,216,169205,2,0,P|250:258|289:302,1,80,0|0,1:2|0:2,0:0:0:0:
375,335,169405,2,0,L|352:243,1,75,10|0,0:2|3:2,0:0:0:0:
346,227,169805,102,0,P|276:219|165:207,1,160,2|0,1:2|0:2,0:0:0:0:
71,238,170105,1,0,1:2:0:0:
20,261,170205,2,0,P|-20:222|21:116,1,160,10|0,0:2|3:2,0:0:0:0:
132,10,170605,2,0,P|160:27|189:92,1,80,2|0,2:2|0:2,0:0:0:0:
294,119,170804,2,0,P|305:79|298:38,1,80,0|0,1:2|0:2,0:0:0:0:
397,175,171003,2,0,P|379:203|323:231,1,75,10|0,0:2|0:0,0:0:0:0:
300,235,171402,86,0,B|263:212|226:242|226:242|186:287|125:253,1,160,6|0,1:2|0:2,0:0:0:0:
397,175,171800,2,0,B|387:132|339:127|339:127|279:131|260:63,1,160,10|0,0:2|3:2,0:0:0:0:
508,201,172199,2,0,B|531:163|501:127,1,80,2|0,2:2|0:2,0:0:0:0:
483,86,172398,2,0,P|449:81|433:209,1,160,0|10,1:2|0:2,0:0:0:0:
473,278,172797,2,0,P|488:305|457:361,1,80,0|0,2:2|0:2,0:0:0:0:
444,367,172996,54,0,P|375:374|261:388,1,160,2|0,1:2|2:2,0:0:0:0:
200,318,173295,1,0,1:2:0:0:
165,274,173395,2,0,P|159:257|185:198,1,80,10|0,0:2|0:0,0:0:0:0:
339,240,173594,2,0,P|344:256|318:315,1,80,0|8,3:2|0:2,0:0:0:0:
265,125,173794,2,0,P|292:104|358:109,1,80,2|0,2:2|3:2,0:0:0:0:
397,299,173993,2,0,P|370:320|304:315,1,80,0|0,1:2|0:2,0:0:0:0:
333,208,174192,1,10,0:2:0:0:
496,70,174392,1,8,2:2:0:0:
497,57,174491,1,8,2:2:0:0:
497,44,174591,86,0,B|460:26|423:59|423:59|391:97|344:87,1,160,6|0,1:2|0:2,0:0:0:0:
251,27,174891,1,0,1:2:0:0:
199,0,174991,2,0,P|147:7|99:100,1,160,10|0,0:2|3:2,0:0:0:0:
74,276,175392,2,0,P|99:246|84:176,1,80,2|0,2:2|0:2,0:0:0:0:
342,230,175593,2,0,P|306:212|292:142,1,80,0|0,1:2|0:2,0:0:0:0:
191,157,175793,2,0,L|204:248,1,75,10|0,0:2|3:2,0:0:0:0:
207,264,176194,6,0,B|247:271|266:309|266:309|281:358|329:369,1,160,2|0,1:2|0:2,0:0:0:0:
440,384,176494,1,0,1:2:0:0:
488,355,176594,2,0,P|497:295|512:179,1,160,10|0,0:2|3:2,0:0:0:0:
512,51,176994,2,0,P|471:22|432:34,1,80,2|0,2:2|0:2,0:0:0:0:
391,161,177194,2,0,P|350:190|311:178,1,80,0|0,1:2|0:2,0:0:0:0:
265,76,177394,2,0,P|224:49|188:60,1,75,10|0,0:2|3:2,0:0:0:0:
156,65,177794,6,0,B|170:18|137:-27|64:-13|40:77|53:129|92:155,1,240,6|0,1:2|1:2,0:0:0:0:
99,157,178194,2,0,B|144:152|169:198|169:198|197:245|242:235,1,160,10|0,0:2|1:2,0:0:0:0:
261,224,178494,1,8,0:2:0:0:
261,224,178594,1,0,0:0:0:0:
343,90,178794,2,0,P|342:65|309:17,1,80,0|0,1:2|0:2,0:0:0:0:
428,81,178994,2,0,P|423:120|399:151,1,80,10|0,0:2|0:0,0:0:0:0:
396,236,179194,2,0,P|420:235|468:202,1,80,0|0,1:2|1:0,0:0:0:0:
502,75,179394,70,0,P|416:82|320:92,1,160,2|0,1:2|1:2,0:0:0:0:
250,39,179694,1,0,0:0:0:0:
196,23,179794,2,0,P|132:56|36:103,1,160,14|0,0:2|1:2,0:0:0:0:
0,257,180194,1,10,0:2:0:0:
2,270,180294,1,8,0:2:0:0:
5,284,180395,1,8,0:2:0:0:
7,298,180496,1,8,0:2:0:0:
9,311,180597,1,8,0:2:0:0:
12,325,180698,1,8,0:2:0:0:
14,339,180799,2,0,P|40:316|88:314,1,80,8|0,0:2|1:2,0:0:0:0:
202,374,181000,6,0,P|268:378|303:269,1,160,6|0,1:2|3:2,0:0:0:0:
290,192,181300,1,0,1:2:0:0:
250,152,181400,2,0,B|208:147|187:189|187:189|167:237|123:235,1,160,10|0,0:2|3:2,0:0:0:0:
21,174,181700,1,8,0:2:0:0:
38,120,181800,2,0,P|73:122|112:160,1,80,2|0,2:2|0:2,0:0:0:0:
222,82,182000,2,0,P|245:108|246:162,1,80,0|0,1:2|2:2,0:0:0:0:
378,185,182200,2,0,P|375:220|345:255,1,75,10|0,0:2|2:2,0:0:0:0:
323,270,182600,6,0,P|299:230|346:109,1,160,2|0,1:2|3:2,0:0:0:0:
439,67,182900,1,0,1:2:0:0:
491,87,183000,2,0,P|519:135|484:240,1,160,10|0,0:2|3:2,0:0:0:0:
413,331,183300,1,8,0:2:0:0:
362,331,183400,2,0,P|326:299|332:244,1,80,2|0,2:2|0:2,0:0:0:0:
246,116,183600,2,0,P|201:135|190:189,1,80,0|0,1:2|3:2,0:0:0:0:
106,341,183800,2,0,P|70:309|65:267,1,75,10|0,0:2|0:0,0:0:0:0:
70,247,184200,6,0,P|124:242|244:232,1,160,6|0,1:2|0:0,0:0:0:0:
264,252,184500,1,0,1:2:0:0:
264,252,184600,1,10,0:2:0:0:
224,41,184800,2,0,P|265:75|357:153,1,160,0|2,3:2|2:2,0:0:0:0:
357,181,185100,1,0,0:2:0:0:
357,181,185200,1,0,1:2:0:0:
478,4,185400,2,0,P|483:57|493:178,1,160,10|0,0:2|0:0,0:0:0:0:
493,354,185800,54,0,B|456:357|432:315|432:315|408:259|344:266,1,160,2|0,1:2|3:2,0:0:0:0:
255,320,186100,1,0,1:2:0:0:
216,360,186200,2,0,P|139:360|112:264,1,160,10|0,0:2|0:2,0:0:0:0:
123,92,186600,2,0,P|83:60|28:82,1,80,2|0,2:2|0:2,0:0:0:0:
104,293,186798,2,0,P|143:290|170:262,1,80,0|0,1:2|0:2,0:0:0:0:
44,194,186996,1,10,0:2:0:0:
292,69,187195,1,8,0:2:0:0:
288,55,187294,1,8,0:2:0:0:
285,38,187393,6,0,P|239:27|236:135,1,160,6|0,1:2|0:2,0:0:0:0:
292,210,187693,1,0,1:2:0:0:
337,178,187793,2,0,P|372:165|399:270,1,160,10|0,0:2|3:2,0:0:0:0:
329,356,188093,1,8,0:2:0:0:
284,383,188193,2,0,P|261:352|281:284,1,80,2|0,2:2|0:2,0:0:0:0:
21,319,188393,2,0,P|57:303|76:236,1,80,0|0,1:2|0:2,0:0:0:0:
147,380,188593,2,0,L|165:305,1,75,10|0,0:2|3:0,0:0:0:0:
173,272,188993,22,0,B|252:263|252:263|255:265|255:265|385:252,1,160,6|0,1:2|0:0,0:0:0:0:
443,287,189294,1,0,1:2:0:0:
496,269,189394,2,0,P|526:231|469:117,1,160,10|0,0:2|3:2,0:0:0:0:
401,55,189695,1,8,0:2:0:0:
351,29,189795,2,0,P|315:37|276:79,1,80,2|0,2:2|0:2,0:0:0:0:
203,2,189996,2,0,P|183:33|186:90,1,80,0|0,1:2|0:2,0:0:0:0:
71,80,190197,2,0,P|79:115|115:151,1,75,10|0,0:2|0:2,0:0:0:0:
140,161,190598,6,0,B|175:158|201:205|201:205|222:261|269:261,1,160,6|0,1:2|3:2,0:0:0:0:
295,263,190896,1,0,1:2:0:0:
295,263,190996,1,10,0:2:0:0:
103,144,191195,2,0,B|125:117|177:131|177:131|231:156|264:123,1,160,0|0,1:2|0:0,0:0:0:0:
284,106,191494,1,0,3:2:0:0:
284,106,191593,1,0,1:2:0:0:
64,158,191793,2,0,B|61:123|107:96|107:96|164:75|164:28,1,160,10|0,0:2|1:2,0:0:0:0:
165,3,192091,1,0,0:0:0:0:
165,3,192191,86,0,B|131:-7|118:23|162:48|197:35|197:35|199:32|199:32|232:7|272:15,1,160,4|8,1:2|0:2,0:0:0:0:
371,38,192494,1,8,0:2:0:0:
414,69,192595,2,0,L|421:180,1,80,8|0,0:2|0:2,0:0:0:0:
507,257,192797,2,0,L|514:146,1,80,8|0,1:3|0:2,0:0:0:0:
341,124,192999,86,0,P|299:135|269:203,1,80,8|0,0:2|0:2,0:0:0:0:
146,109,193198,2,0,P|123:145|152:214,1,80,4|0,1:3|0:2,0:0:0:0:
20,220,193397,1,8,0:2:0:0:
10,228,193497,1,0,3:2:0:0:
0,239,193597,2,0,P|10:279|79:309,1,80,0|0,3:2|3:2,0:0:0:0:
142,378,193796,38,0,B|194:377|209:330|209:330|231:277|309:284,1,170.000003242493,6|10,1:2|0:3,0:0:0:0:
384,307,194097,1,6,1:3:0:0:
431,333,194197,2,0,P|470:313|458:220,1,85.0000016212464,10|0,0:2|0:2,0:0:0:0:
456,154,194398,1,0,1:2:0:0:
452,137,194498,1,8,0:2:0:0:
446,120,194598,6,0,P|400:127|368:175,1,85.0000016212464,2|0,0:2|3:2,0:0:0:0:
217,11,194799,2,0,P|242:49|228:105,1,85.0000016212464,0|0,1:2|0:2,0:0:0:0:
367,0,195000,2,0,B|344:48|344:48|346:50|346:50|317:109,1,104.999996795654,14|0,0:2|0:2,0:0:0:0:
309,128,195401,54,0,P|255:172|160:118,1,170.000003242493,10|10,1:3|0:3,0:0:0:0:
22,113,195699,1,6,0:3:0:0:
73,128,195799,2,0,P|95:150|81:223,1,85.0000016212464,10|0,0:2|0:2,0:0:0:0:
53,322,195998,1,0,1:2:0:0:
49,338,196097,1,8,0:2:0:0:
49,354,196197,6,0,B|88:338|88:338|116:270,1,85.0000016212464,2|0,0:2|2:2,0:0:0:0:
249,236,196396,2,0,B|255:278|255:278|234:318,1,85.0000016212464,0|0,3:2|1:2,0:0:0:0:
340,153,196595,2,0,B|324:99|324:99|250:71,1,104.999996795654,12|0,0:2|0:2,0:0:0:0:
242,65,196993,6,0,B|198:62|180:106|180:106|167:165|97:165,1,170.000003242493,10|10,1:3|0:3,0:0:0:0:
26,94,197293,1,6,0:3:0:0:
31,47,197394,2,0,P|62:34|109:70,1,85.0000016212464,10|0,0:2|2:2,0:0:0:0:
179,204,197594,5,0,1:2:0:0:
178,220,197694,1,8,0:2:0:0:
177,236,197795,1,0,0:0:0:0:
176,252,197895,1,0,1:2:0:0:
133,321,197995,6,0,P|99:313|85:235,1,85.0000016212464,2|0,1:2|3:2,0:0:0:0:
262,231,198196,2,0,P|272:263|211:315,1,85.0000016212464,10|0,0:2|0:2,0:0:0:0:
119,163,198396,2,0,P|141:137|216:164,1,85.0000016212464,2|0,1:2|0:2,0:0:0:0:
251,322,198597,54,0,P|314:338|379:240,1,170.000003242493,4|0,1:2|0:2,0:0:0:0:
340,153,198898,1,0,1:2:0:0:
288,160,198999,2,0,P|257:194|275:247,1,85.0000016212464,10|0,0:2|0:2,0:0:0:0:
396,264,199200,1,2,1:2:0:0:
412,261,199301,1,8,0:2:0:0:
428,257,199401,6,0,P|435:201|398:169,1,85.0000016212464,0|0,1:0|0:2,0:0:0:0:
396,79,199599,2,0,P|361:34|312:37,1,85.0000016212464,2|0,1:2|0:2,0:0:0:0:
232,7,199798,1,10,0:2:0:0:
215,9,199897,1,0,0:0:0:0:
198,11,199997,1,8,0:2:0:0:
181,13,200096,1,8,0:2:0:0:
96,73,200195,6,0,B|148:77|163:129|163:129|177:183|234:185,1,170.000003242493,6|10,1:2|0:3,0:0:0:0:
317,126,200495,1,6,0:3:0:0:
367,118,200595,2,0,P|397:126|426:188,1,85.0000016212464,10|0,0:2|0:2,0:0:0:0:
359,320,200795,1,0,3:2:0:0:
361,336,200895,1,8,0:2:0:0:
361,352,200995,6,0,B|400:349|400:349|402:351|402:351|470:348,1,85.0000016212464,2|0,0:2|3:2,0:0:0:0:
355,190,201195,2,0,B|326:225|326:225|324:225|324:225|297:254,1,85.0000016212464,0|0,1:2|0:2,0:0:0:0:
188,217,201395,2,0,B|185:169|185:169|186:167|186:167|183:104,1,104.999996795654,12|0,0:2|0:2,0:0:0:0:
172,66,201796,6,0,B|171:27|139:-5|78:28|57:62|79:113,1,170.000003242493,10|10,1:3|0:3,0:0:0:0:
139,194,202096,1,6,0:3:0:0:
188,217,202196,2,0,P|206:258|171:308,1,85.0000016212464,10|0,0:2|0:2,0:0:0:0:
86,365,202396,1,0,3:2:0:0:
69,369,202496,1,8,0:2:0:0:
52,371,202596,54,0,B|48:324|48:324|50:322|50:322|48:280,1,85.0000016212464,2|0,2:2|0:2,0:0:0:0:
191,133,202796,2,0,B|187:180|187:180|189:182|189:182|187:224,1,85.0000016212464,0|0,1:2|0:2,0:0:0:0:
323,345,202996,2,0,B|319:297|319:297|321:295|321:295|315:230,1,104.999996795654,14|0,0:2|3:2,0:0:0:0:
287,204,203397,6,0,B|339:194|348:147|348:147|368:98|435:97,1,170.000003242493,10|10,1:3|0:3,0:0:0:0:
512,150,203698,1,6,0:3:0:0:
496,198,203799,2,0,P|460:209|420:162,1,85.0000016212464,10|0,0:2|0:2,0:0:0:0:
331,86,204000,5,0,1:2:0:0:
314,85,204100,1,10,0:2:0:0:
298,84,204201,1,0,0:0:0:0:
282,82,204301,1,0,3:2:0:0:
222,24,204402,6,0,P|189:23|148:95,1,85.0000016212464,0|0,1:2|3:2,0:0:0:0:
186,228,204603,2,0,P|202:199|161:128,1,85.0000016212464,10|0,0:2|0:2,0:0:0:0:
26,97,204804,2,0,P|41:125|124:125,1,85.0000016212464,2|0,3:2|0:2,0:0:0:0:
237,14,205005,6,0,P|304:7|348:118,1,170.000003242493,6|0,1:2|3:2,0:0:0:0:
298,200,205303,1,0,3:2:0:0:
245,187,205402,2,0,P|231:169|254:105,1,85.0000016212464,10|0,0:2|3:2,0:0:0:0:
369,87,205601,1,0,0:0:0:0:
385,90,205700,1,0,3:0:0:0:
401,92,205799,54,0,P|428:114|431:178,1,85.0000016212464,10|8,3:2|3:2,0:0:0:0:
484,242,205998,2,0,P|487:276|444:324,1,85.0000016212464,10|8,3:2|3:2,0:0:0:0:
384,376,206197,1,10,3:2:0:0:
367,373,206296,1,8,3:2:0:0:
350,370,206395,1,10,3:2:0:0:
333,367,206495,1,8,3:2:0:0:
278,303,206594,6,0,B|226:295|200:342|200:342|174:391|118:381,1,170.000003242493,6|0,1:2|3:2,0:0:0:0:
33,342,206902,1,0,1:2:0:0:
0,296,207004,2,0,P|-6:273|44:226,1,85.0000016212464,10|0,0:2|0:2,0:0:0:0:
164,196,207210,1,0,3:2:0:0:
180,193,207313,1,8,0:2:0:0:
196,190,207415,6,0,B|224:153|224:153|211:93,1,85.0000016212464,2|0,2:2|0:2,0:0:0:0:
31,57,207612,2,0,B|3:94|3:94|16:154,1,85.0000016212464,0|0,1:2|3:2,0:0:0:0:
117,110,207809,1,14,0:2:0:0:
123,93,207908,1,0,0:0:0:0:
129,77,208007,1,0,0:0:0:0:
135,61,208105,1,0,0:2:0:0:
214,17,208204,6,0,P|252:21|306:143,1,170.000003242493,6|0,1:2|3:2,0:0:0:0:
234,223,208502,1,0,1:2:0:0:
193,186,208601,2,0,P|186:152|244:112,1,85.0000016212464,10|0,0:2|0:2,0:0:0:0:
331,38,208800,1,0,3:2:0:0:
347,37,208899,1,8,0:2:0:0:
363,35,208998,6,0,P|401:61|408:122,1,85.0000016212464,2|0,2:2|0:2,0:0:0:0:
324,207,209197,2,0,P|315:252|353:300,1,85.0000016212464,0|0,1:2|2:2,0:0:0:0:
485,362,209396,1,14,0:2:0:0:
487,337,209495,1,0,0:0:0:0:
489,316,209594,1,0,0:0:0:0:
492,292,209694,1,0,0:2:0:0:
473,212,209793,54,0,B|427:201|398:241|398:241|373:289|320:284,1,170.000003242493,6|0,1:2|3:2,0:0:0:0:
293,272,210094,1,0,1:2:0:0:
293,272,210195,1,10,0:2:0:0:
285,62,210396,2,0,B|244:86|253:135|253:135|268:187|228:221,1,170.000003242493,0|2,3:2|3:2,0:0:0:0:
200,231,210697,1,0,3:2:0:0:
200,231,210798,1,0,1:2:0:0:
45,88,210999,2,0,B|34:133|74:162|74:162|122:187|117:240,1,170.000003242493,10|0,0:2|1:2,0:0:0:0:
117,367,211401,6,0,P|52:380|50:271,1,170.000003242493,6|0,1:2|2:2,0:0:0:0:
117,229,211697,1,0,1:2:0:0:
159,193,211795,2,0,P|171:162|139:111,1,85.0000016212464,10|0,0:2|0:2,0:0:0:0:
27,132,211993,2,0,P|15:163|47:214,1,85.0000016212464,0|8,1:2|0:2,0:0:0:0:
107,42,212190,5,2,1:2:0:0:
123,39,212289,1,0,0:2:0:0:
139,36,212387,1,0,1:2:0:0:
155,34,212486,1,0,0:2:0:0:
233,0,212585,2,0,B|272:16|272:16|285:59,1,85.0000016212464,14|0,0:2|0:0,0:0:0:0:
369,38,212791,2,0,B|385:78|385:78|363:117,1,85.0000016212464,8|8,0:2|0:2,0:0:0:0:
441,157,212998,6,0,P|432:222|415:344,1,170.000003242493,6|0,1:2|3:2,0:0:0:0:
315,384,213297,1,0,1:2:0:0:
263,372,213397,2,0,P|236:357|230:286,1,85.0000016212464,10|0,0:2|0:2,0:0:0:0:
266,196,213597,1,0,3:2:0:0:
269,179,213697,1,8,0:2:0:0:
272,162,213796,6,0,P|235:147|216:78,1,85.0000016212464,2|0,2:2|0:2,0:0:0:0:
21,238,213996,2,0,P|44:205|23:136,1,85.0000016212464,0|0,1:2|0:2,0:0:0:0:
110,74,214196,1,14,0:2:0:0:
115,90,214296,1,0,0:0:0:0:
120,106,214396,1,0,0:0:0:0:
125,122,214496,1,0,0:2:0:0:
181,190,214595,54,0,P|254:179|395:157,1,170.000003242493,6|0,1:2|0:2,0:0:0:0:
421,66,214895,1,0,1:2:0:0:
473,57,214995,2,0,P|509:84|492:150,1,85.0000016212464,10|0,0:2|0:2,0:0:0:0:
432,254,215195,1,0,3:2:0:0:
431,270,215294,1,8,0:2:0:0:
431,286,215394,6,0,B|468:274|468:274|470:275|470:275|536:257,1,85.0000016212464,2|0,2:2|3:2,0:0:0:0:
307,237,215594,2,0,B|326:205|326:205|328:204|328:204|349:164,1,85.0000016212464,0|0,1:2|3:2,0:0:0:0:
169,213,215794,1,14,0:2:0:0:
173,236,215894,1,0,0:0:0:0:
179,257,215994,1,0,0:0:0:0:
184,281,216093,1,0,0:2:0:0:
145,361,216193,6,0,P|77:366|54:243,1,170.000003242493,6|0,1:2|3:2,0:0:0:0:
60,240,216494,1,0,1:2:0:0:
60,240,216594,1,10,0:2:0:0:
249,230,216795,2,0,P|197:185|267:79,1,175.00000166893,0|2,1:2|0:2,0:0:0:0:
278,75,217096,1,0,3:2:0:0:
278,75,217196,1,0,1:2:0:0:
410,209,217397,2,0,P|404:141|531:115,1,179.999994506836,10|0,0:2|1:2,0:0:0:0:
450,294,217798,5,14,0:2:0:0:
445,311,217897,1,8,0:2:0:0:
440,328,217996,1,8,0:2:0:0:
436,345,218096,1,8,0:2:0:0:
431,362,218195,2,0,P|385:343|361:295,1,89.9999972534181,10|8,0:2|0:2,0:0:0:0:
296,95,218394,5,10,0:2:0:0:
319,88,218493,1,8,0:2:0:0:
343,82,218592,1,8,0:2:0:0:
366,75,218692,1,8,0:2:0:0:
390,70,218791,2,0,P|403:107|384:162,1,89.9999972534181,10|8,0:2|0:2,0:0:0:0:
254,363,218990,5,10,0:2:0:0:
229,339,219091,1,8,0:2:0:0:
202,313,219192,1,8,0:2:0:0:
177,289,219293,1,8,0:2:0:0:
154,262,219394,2,0,P|191:218|274:202,1,89.9999972534181,4|0,1:2|0:0,0:0:0:0:
256,192,219588,12,14,220793,1:2:0:0:
