osu file format v14

[General]
AudioFilename: audio.mp3
AudioLeadIn: 0
PreviewTime: 151000
Countdown: 0
SampleSet: Soft
StackLeniency: 0.7
Mode: 0
LetterboxInBreaks: 0
WidescreenStoryboard: 1

[Editor]
DistanceSpacing: 1.5
BeatDivisor: 8
GridSize: 32
TimelineZoom: 1.4

[Metadata]
Title:NONSENSE
TitleUnicode:NONSENSE
Artist:hitorie
ArtistUnicode:ヒトリエ
Creator:Kine
Version:INSANE
Source:
Tags:jrock japanese j-rock wowaka nonsense Rock WONDER and WONDER
BeatmapID:4118620
BeatmapSetID:1963004

[Difficulty]
HPDrainRate:5
CircleSize:4
OverallDifficulty:8
ApproachRate:9
SliderMultiplier:2
SliderTickRate:1

[Events]
//Background and Video events
0,0,"c1bae66933fc8895a9ffce524b281d8624683da9_s2_n1.jpg",0,0
//Break Periods
//Storyboard Layer 0 (Background)
//Storyboard Layer 1 (Fail)
//Storyboard Layer 2 (Pass)
//Storyboard Layer 3 (Foreground)
//Storyboard Layer 4 (Overlay)
//Storyboard Sound Samples

[TimingPoints]
286,405.405405405405,4,2,1,60,1,0
7684,-100,4,2,1,5,0,0
7785,-100,4,2,1,60,0,0
7887,-100,4,2,1,5,0,0
7988,-100,4,2,1,60,0,0
8394,-100,4,2,1,60,0,0
9002,-100,4,2,1,60,0,0
10623,-100,4,2,1,60,0,0
10927,-100,4,2,1,5,0,0
11029,-100,4,2,1,60,0,0
11130,-100,4,2,1,5,0,0
11231,-100,4,2,1,60,0,0
11637,-100,4,2,1,60,0,0
13258,-100,4,2,1,60,0,0
14880,-100,4,2,1,60,0,0
17414,-100,4,2,1,5,0,0
17515,-100,4,2,1,60,0,0
17617,-100,4,2,1,5,0,0
17718,-100,4,2,1,60,0,0
19745,-83.3333333333333,4,2,1,60,0,0
26231,-83.3333333333333,4,2,1,60,0,0
27853,-83.3333333333333,4,2,1,60,0,0
28563,-83.3333333333333,4,2,1,60,0,0
32718,-100,4,2,1,60,0,0
33326,-100,4,2,1,60,0,0
33630,-100,4,2,1,5,0,0
33731,-100,4,2,1,60,0,0
33934,-100,4,2,1,60,0,0
34340,-100,4,2,1,60,0,0
34948,-100,4,2,1,60,0,0
36873,-100,4,2,1,5,0,0
36975,-100,4,2,1,60,0,0
37583,-100,4,2,1,60,0,0
40117,-100,4,2,1,5,0,0
40218,-100,4,2,1,60,0,0
43360,-100,4,2,1,5,0,0
43461,-100,4,2,1,60,0,0
45691,-83.3333333333333,4,2,1,60,0,0
58664,-100,4,2,1,60,0,0
59677,-100,4,2,1,60,0,0
59981,-100,4,2,1,5,0,0
60083,-100,4,2,1,60,0,0
60387,-100,4,2,1,5,0,0
60488,-100,4,2,1,60,0,0
61806,-100,4,2,1,5,0,0
61907,-100,4,2,1,60,0,0
62211,-100,4,2,1,5,0,0
62313,-100,4,2,1,60,0,0
62921,-100,4,2,1,60,0,0
63326,-100,4,2,1,60,0,0
63630,-100,4,2,1,5,0,0
63731,-100,4,2,1,60,0,0
63934,-100,4,2,1,60,0,0
64340,-100,4,2,1,60,0,0
64644,-100,4,2,1,5,0,0
64745,-100,4,2,1,60,0,0
65049,-100,4,2,1,5,0,0
65150,-100,4,2,1,60,0,0
65454,-100,4,2,1,5,0,0
65556,-100,4,2,1,60,0,0
65657,-100,4,2,1,5,0,0
65758,-100,4,2,1,60,0,0
66569,-100,4,2,1,60,0,0
66873,-100,4,2,1,5,0,0
66975,-100,4,2,1,60,0,0
67177,-100,4,2,1,60,0,0
68292,-100,4,2,1,5,0,0
68394,-100,4,2,1,60,0,0
68698,-100,4,2,1,5,0,0
68799,-100,4,2,1,60,0,0
68900,-100,4,2,1,5,0,0
69002,-100,4,2,1,60,0,0
69204,-100,4,2,1,60,0,0
69306,-100,4,2,1,5,0,0
69407,-100,4,2,1,60,0,0
70117,-100,4,2,1,60,0,0
70218,-100,4,2,1,60,0,0
70319,-100,4,2,1,5,0,0
70421,-100,4,2,1,65,0,0
70522,-100,4,2,1,5,0,0
70623,-100,4,2,1,70,0,0
70725,-100,4,2,1,5,0,0
70826,-100,4,2,1,75,0,0
70927,-100,4,2,1,5,0,0
71029,-100,4,2,1,80,0,0
71130,-100,4,2,1,5,0,0
71231,-100,4,2,1,85,0,0
71333,-100,4,2,1,5,0,0
71434,-100,4,2,1,60,0,0
74069,-100,4,2,1,60,0,0
74475,-100,4,2,1,60,0,0
74779,-100,4,2,1,5,0,0
74880,-100,4,2,1,60,0,0
76502,-100,4,2,1,60,0,0
76603,-100,4,2,1,5,0,0
76704,-100,4,2,1,60,0,0
76806,-100,4,2,1,5,0,0
76907,-100,4,2,1,60,0,0
77008,-100,4,2,1,5,0,0
77110,-100,4,2,1,60,0,0
77211,-100,4,2,1,5,0,0
77313,-100,4,2,1,60,0,0
78123,-83.3333333333333,4,2,2,80,0,1
78225,-83.3333333333333,4,2,1,80,0,1
82076,-83.3333333333333,4,2,1,80,0,1
82380,-83.3333333333333,4,2,1,80,0,1
91096,-100,4,2,1,80,0,0
92718,405.405405405405,4,2,1,60,1,0
93326,-100,4,2,1,60,0,0
93630,-100,4,2,1,5,0,0
93731,-100,4,2,1,60,0,0
93833,-100,4,2,1,5,0,0
93934,-100,4,2,1,60,0,0
94340,-100,4,2,1,60,0,0
96873,-100,4,2,1,5,0,0
96975,-100,4,2,1,60,0,0
97076,-100,4,2,1,5,0,0
97177,-100,4,2,1,60,0,0
97583,-100,4,2,1,60,0,0
100117,-100,4,2,1,5,0,0
100218,-100,4,2,1,60,0,0
100319,-100,4,2,1,5,0,0
100421,-100,4,2,1,60,0,0
100826,-100,4,2,1,60,0,0
101130,-100,4,2,1,60,0,0
103056,-100,4,2,1,60,0,0
103360,-100,4,2,1,5,0,0
103461,-100,4,2,1,60,0,0
103563,-100,4,2,1,5,0,0
103664,-100,4,2,1,60,0,0
106096,-100,4,2,1,60,0,0
106806,-100,4,2,1,5,0,0
106907,-100,4,2,1,60,0,0
107414,-100,4,2,1,5,0,0
107515,-100,4,2,1,60,0,0
110049,-100,4,2,1,5,0,0
110150,-100,4,2,1,60,0,0
110657,-100,4,2,1,5,0,0
110758,-100,4,2,1,60,0,0
113900,-100,4,2,1,5,0,0
114002,-100,4,2,1,60,0,0
116535,-100,4,2,1,5,0,0
116637,-100,4,2,1,60,0,0
117144,-100,4,2,1,5,0,0
117245,-100,4,2,1,60,0,0
118461,-100,4,2,1,5,0,0
118663,-83.3333333333333,4,2,1,60,0,0
125150,-83.3333333333333,4,2,1,60,0,0
126772,-83.3333333333333,4,2,1,60,0,0
127482,-83.3333333333333,4,2,1,60,0,0
131636,-100,4,2,1,60,0,0
132650,-100,4,2,1,60,0,0
132954,-100,4,2,1,5,0,0
133056,-100,4,2,1,60,0,0
133360,-100,4,2,1,5,0,0
133461,-100,4,2,1,60,0,0
134779,-100,4,2,1,5,0,0
134880,-100,4,2,1,60,0,0
135894,-100,4,2,1,60,0,0
136299,-100,4,2,1,60,0,0
136603,-100,4,2,1,5,0,0
136704,-100,4,2,1,60,0,0
136907,-100,4,2,1,60,0,0
137313,-100,4,2,1,60,0,0
137617,-100,4,2,1,5,0,0
137718,-100,4,2,1,60,0,0
138022,-100,4,2,1,5,0,0
138123,-100,4,2,1,60,0,0
139542,-100,4,2,1,60,0,0
139846,-100,4,2,1,5,0,0
139948,-100,4,2,1,60,0,0
140150,-100,4,2,1,60,0,0
141265,-100,4,2,1,5,0,0
141367,-100,4,2,1,60,0,0
141671,-100,4,2,1,5,0,0
141772,-100,4,2,1,60,0,0
141873,-100,4,2,1,5,0,0
141975,-100,4,2,1,60,0,0
142279,-100,4,2,1,5,0,0
142380,-100,4,2,1,60,0,0
143090,-100,4,2,1,5,0,0
143191,-100,4,2,1,60,0,0
143292,-100,4,2,1,5,0,0
143394,-100,4,2,1,60,0,0
143495,-100,4,2,1,5,0,0
143597,-100,4,2,1,60,0,0
143698,-100,4,2,1,5,0,0
143800,-100,4,2,1,60,0,0
143900,-100,4,2,1,5,0,0
144002,-100,4,2,1,60,0,0
144103,-100,4,2,1,5,0,0
144205,-100,4,2,1,60,0,0
144306,-100,4,2,1,5,0,0
144408,-100,4,2,1,60,0,0
147042,-100,4,2,1,60,0,0
147448,-100,4,2,1,60,0,0
147752,-100,4,2,1,5,0,0
147853,-100,4,2,1,60,0,0
148258,-100,4,2,1,65,0,0
148664,-100,4,2,1,70,0,0
149069,-100,4,2,1,75,0,0
149475,-100,4,2,1,80,0,0
149880,-100,4,2,1,85,0,0
150285,-100,4,2,1,90,0,0
151096,-83.3333333333333,4,2,2,80,0,1
151198,-83.3333333333333,4,2,1,80,0,1
155049,-83.3333333333333,4,2,1,80,0,1
164069,-83.3333333333333,4,2,1,70,0,0
170353,-100,4,2,1,70,0,0
170556,-100,4,2,1,70,0,0
179069,-100,4,2,1,70,0,0
209475,-100,4,2,1,70,0,0
215961,-83.3333333333333,4,2,2,80,0,1
216063,-83.3333333333333,4,2,1,80,0,1
219914,-83.3333333333333,4,2,1,80,0,1
220218,-83.3333333333333,4,2,1,80,0,1
228934,-83.3333333333333,4,2,2,80,0,1
229036,-83.3333333333333,4,2,1,80,0,1
241907,-100,4,2,1,80,0,0

[Colours]
Combo1 : 253,179,87
Combo2 : 255,106,106
Combo3 : 199,199,141
Combo4 : 255,196,106
Combo5 : 196,196,196
Combo6 : 247,72,103
Combo7 : 225,217,189

[HitObjects]
12,100,6771,6,0,L|-1:51,2,50,6|8|8,1:0|0:0|0:0,0:0:0:0:
103,133,7075,2,0,L|90:182,2,50,0|2|8,1:0|1:0|0:0,0:0:0:0:
13,266,7379,2,0,P|96:221|205:239,1,200,8|0,0:0|1:0,0:0:0:0:
281,298,7987,1,10,0:0:0:0:
281,298,8089,1,0,1:0:0:0:
480,25,8393,6,0,P|433:29|404:75,1,100,6|0,1:0|0:0,0:0:0:0:
363,161,8697,1,0,1:0:0:0:
363,161,8798,2,0,P|339:152|291:145,2,50,10|0|0,0:0|0:0|0:0,0:0:0:0:
488,142,9102,2,0,P|495:190|467:234,1,100,0|0,1:0|1:0,0:0:0:0:
348,262,9406,2,0,P|324:253|276:246,1,50,0|8,1:0|0:0,0:0:0:0:
202,219,9609,5,10,0:0:0:0:
175,241,9710,1,0,1:0:0:0:
166,275,9812,1,0,1:0:0:0:
175,308,9913,1,0,1:0:0:0:
198,333,10014,6,0,P|224:333|257:345,2,50,6|8|8,1:0|0:0|0:0,0:0:0:0:
82,272,10318,2,0,P|58:278|33:278,2,50,0|2|8,1:0|1:0|0:0,0:0:0:0:
164,142,10622,2,0,P|252:140|288:233,1,200,4|0,1:0|1:0,0:0:0:0:
198,333,11230,1,10,0:0:0:0:
198,333,11332,1,0,1:0:0:0:
22,211,11636,6,0,P|37:164|46:111,1,100,6|0,1:0|0:0,3:0:0:0:
49,0,11940,1,0,1:0:0:0:
49,0,12041,2,0,L|-13:12,2,50,10|0|0,0:0|0:0|0:0,0:0:0:0:
146,56,12345,2,0,B|205:70|172:92|233:109,1,100,0|8,1:0|0:0,0:0:0:0:
239,0,12649,2,0,P|260:14|289:25,1,50,0|8,1:0|0:0,0:0:0:0:
331,113,12852,5,10,0:0:0:0:
359,93,12953,1,8,0:0:0:0:
392,83,13055,1,8,0:0:0:0:
426,78,13156,1,8,0:0:0:0:
460,81,13257,6,0,L|449:132,2,50,6|8|8,1:0|0:0|0:0,0:0:0:0:
343,202,13562,2,0,L|353:250,2,50,0|2|8,1:0|1:0|0:0,3:0:0:0:
477,378,13866,2,0,P|382:352|277:339,1,200,4|0,1:0|0:0,0:0:0:0:
189,353,14474,1,10,0:0:0:0:
189,353,14575,1,0,1:0:0:0:
270,133,14879,6,0,P|295:171|290:234,1,100,6|0,1:0|0:0,0:0:0:0:
189,353,15183,1,0,1:0:0:0:
189,353,15284,2,0,P|165:344|138:340,2,50,10|0|0,0:0|0:0|0:0,0:0:0:0:
67,267,15589,2,0,P|43:275|16:280,1,50,0|0,1:0|0:0,0:0:0:0:
129,169,15791,1,8,0:0:0:0:
129,169,15893,2,0,P|151:182|162:214,1,50,0|8,1:0|0:0,0:0:0:0:
241,262,16095,5,2,1:0:0:0:
273,249,16197,1,0,1:0:0:0:
305,236,16298,1,0,1:0:0:0:
337,224,16399,1,0,1:0:0:0:
370,212,16501,6,0,L|376:157,2,50,6|8|8,1:0|0:0|0:0,0:0:0:0:
441,71,16805,2,0,L|446:120,2,50,0|2|8,1:0|1:0|0:0,0:0:0:0:
512,162,17109,2,0,L|301:128,1,200,4|0,1:0|1:0,0:0:0:0:
224,189,17717,1,10,0:0:0:0:
224,189,17818,1,0,1:0:0:0:
194,0,18122,6,0,P|146:2|118:54,1,100,6|0,1:0|0:0,0:0:0:0:
0,143,18426,1,0,1:0:0:0:
0,143,18528,2,0,P|50:153|111:172,1,100,10|0,0:0|1:0,0:0:0:0:
160,234,18832,5,8,0:0:0:0:
202,324,19034,1,8,0:0:0:0:
112,366,19237,1,8,0:0:0:0:
67,273,19339,1,10,0:0:0:0:
106,276,19440,1,8,0:0:0:0:
145,281,19541,2,0,L|166:214,1,50,0|0,1:0|1:0,0:0:0:0:
140,88,19745,6,0,P|163:106|204:114,1,59.9999981689454,4|0,1:0|0:0,0:0:0:0:
276,228,19947,1,2,0:0:0:0:
276,228,20048,1,2,1:0:0:0:
276,228,20149,6,0,P|272:194|275:161,1,59.9999981689454,10|0,0:0|0:0,0:0:0:0:
328,86,20352,1,2,0:0:0:0:
357,0,20453,2,0,P|406:27|416:84,1,119.999996337891,2|2,1:0|0:0,0:0:0:0:
491,232,20757,1,2,1:0:0:0:
358,213,20960,2,0,P|367:184|373:151,2,59.9999981689454,10|0|2,0:0|1:0|0:0,0:0:0:0:
349,336,21366,6,0,P|292:320|226:308,1,119.999996337891,0|2,1:0|0:0,0:0:0:0:
153,232,21670,1,2,1:0:0:0:
153,232,21771,2,0,P|133:254|127:287,2,59.9999981689454,10|0|2,0:0|0:0|0:0,0:0:0:0:
173,131,22075,2,0,P|227:143|249:206,1,119.999996337891,2|2,1:0|0:0,0:0:0:0:
249,220,22379,1,2,1:0:0:0:
343,83,22582,1,10,0:0:0:0:
378,114,22683,1,2,1:0:0:0:
426,109,22784,2,0,P|445:82|446:42,1,59.9999981689454,2|0,0:0|0:0,0:0:0:0:
267,0,22987,6,0,P|214:19|147:34,1,119.999996337891,0|2,1:0|0:0,0:0:0:0:
36,57,23291,1,2,1:0:0:0:
36,57,23393,2,0,P|32:27|20:0,2,59.9999981689454,10|2|2,0:0|0:0|0:0,0:0:0:0:
0,185,23697,2,0,P|55:195|123:216,1,119.999996337891,2|2,1:0|0:0,0:0:0:0:
133,220,24001,2,0,P|140:190|147:161,1,59.9999981689454,2|0,1:0|0:0,0:0:0:0:
252,260,24203,2,0,P|259:288|266:318,2,59.9999981689454,10|2|2,0:0|1:0|0:0,0:0:0:0:
353,176,24507,1,8,0:0:0:0:
353,176,24609,6,0,P|322:131|253:125,1,119.999996337891,0|2,1:0|0:0,0:0:0:0:
366,285,24913,1,2,1:0:0:0:
366,285,25014,2,0,P|396:275|430:269,2,59.9999981689454,10|2|2,0:0|0:0|0:0,0:0:0:0:
304,359,25318,2,0,P|243:367|182:387,1,119.999996337891,2|2,1:0|0:0,0:0:0:0:
169,384,25622,1,2,1:0:0:0:
23,350,25825,1,2,1:0:0:0:
0,329,25926,1,0,1:0:0:0:
3,299,26028,2,0,P|11:269|35:249,1,59.9999981689454,4|0,0:0|0:0,0:0:0:0:
133,180,26230,6,0,P|93:139|11:140,2,119.999996337891,4|2|10,1:0|1:0|0:0,0:0:0:0:
218,326,26839,1,2,0:0:0:0:
218,326,26941,2,0,L|238:167,1,119.999996337891,2|2,1:0|0:0,0:0:0:0:
245,97,27244,2,0,P|281:102|303:132,1,59.9999981689454,2|0,1:0|0:0,0:0:0:0:
393,99,27447,2,0,P|398:136|375:165,2,59.9999981689454,10|0|0,0:0|1:0|0:0,0:0:0:0:
456,271,27751,1,8,0:0:0:0:
456,271,27852,6,0,P|396:274|325:290,1,119.999996337891,0|2,1:0|0:0,0:0:0:0:
259,351,28156,1,0,1:0:0:0:
259,351,28257,2,0,P|256:325|235:300,1,59.9999981689454,10|0,0:0|0:0,0:0:0:0:
98,384,28562,6,0,L|184:361,1,59.9999981689454,2|0,1:0|0:0,0:0:0:0:
185,241,28764,1,2,0:0:0:0:
185,241,28866,2,0,L|126:256,1,59.9999981689454,2|0,1:0|0:0,0:0:0:0:
16,299,29068,1,10,0:0:0:0:
0,271,29170,1,0,1:0:0:0:
4,241,29271,2,0,P|15:208|40:192,1,59.9999981689454,0|8,0:0|0:0,0:0:0:0:
123,163,29474,1,0,1:0:0:0:
222,12,29676,6,0,L|134:-7,1,59.9999981689454,2|0,0:0|1:0,0:0:0:0:
77,101,29879,2,0,L|224:132,1,119.999996337891,10|2,0:0|3:0,3:0:0:0:
311,88,30183,2,0,P|332:120|320:168,1,59.9999981689454,2|0,1:0|3:0,3:0:0:0:
217,178,30386,1,2,3:0:0:0:
217,178,30487,2,0,P|195:145|207:97,1,59.9999981689454,2|0,1:0|3:0,3:0:0:0:
316,0,30690,2,0,L|386:26,2,59.9999981689454,10|0|2,0:0|1:0|0:0,0:0:0:0:
493,0,30994,1,8,0:0:0:0:
493,0,31095,6,0,P|474:56|462:120,1,119.999996337891,2|2,1:0|0:0,0:0:0:0:
367,186,31399,1,2,1:0:0:0:
367,186,31501,2,0,P|331:175|279:168,2,59.9999981689454,8|2|2,0:0|0:0|0:0,0:0:0:0:
470,238,31805,5,10,0:0:0:0:
377,384,32007,1,10,0:0:0:0:
283,241,32210,1,10,0:0:0:0:
283,241,32312,1,4,0:0:0:0:
12,100,32718,6,0,P|1:81|-1:51,2,50,6|8|8,1:0|0:0|0:0,0:0:0:0:
139,134,33021,2,0,P|137:160|126:183,2,50,0|2|8,1:0|1:0|0:0,0:0:0:0:
0,279,33325,2,0,P|83:234|192:252,1,200,12|4,0:0|1:0,0:0:0:0:
280,301,33933,1,10,0:0:0:0:
280,301,34035,1,0,1:0:0:0:
387,0,34339,6,0,P|391:47|407:103,1,100,6|0,1:0|0:0,0:0:0:0:
309,166,34643,1,0,1:0:0:0:
309,166,34744,2,0,P|285:157|237:150,2,50,10|0|0,0:0|0:0|0:0,0:0:0:0:
509,155,35048,2,0,P|492:204|484:258,1,100,0|0,1:0|1:0,0:0:0:0:
295,255,35352,2,0,P|271:246|223:239,1,50,0|8,1:0|0:0,0:0:0:0:
121,189,35555,5,10,0:0:0:0:
124,218,35656,1,0,1:0:0:0:
126,248,35758,1,0,1:0:0:0:
128,277,35859,1,0,1:0:0:0:
132,306,35960,6,0,L|139:370,2,50,6|8|8,1:0|0:0|0:0,0:0:0:0:
49,219,36264,2,0,P|25:225|0:225,2,50,0|2|8,1:0|1:0|0:0,0:0:0:0:
117,89,36568,2,0,B|241:96|157:168|303:168,1,200,4|0,1:0|1:0,0:0:0:0:
395,230,37176,1,10,0:0:0:0:
395,230,37278,1,0,1:0:0:0:
95,261,37582,6,0,P|63:217|71:161,1,100,6|0,1:0|0:0,3:0:0:0:
48,57,37886,1,0,1:0:0:0:
48,57,37987,2,0,P|21:62|0:82,2,50,10|0|0,0:0|0:0|0:0,0:0:0:0:
150,194,38291,2,0,P|194:177|252:173,1,100,8|8,0:0|0:0,0:0:0:0:
257,54,38595,2,0,P|278:68|307:79,1,50,0|8,1:0|0:0,0:0:0:0:
398,169,38798,5,10,0:0:0:0:
402,139,38899,1,8,0:0:0:0:
407,109,39001,1,8,0:0:0:0:
412,79,39102,1,8,0:0:0:0:
416,49,39203,6,0,L|408:-2,2,50,6|8|8,1:0|0:0|0:0,0:0:0:0:
323,157,39508,2,0,L|333:205,2,50,0|2|8,1:0|1:0|0:0,3:0:0:0:
448,312,39812,2,0,B|324:310|402:245|259:241,1,200,4|0,1:0|1:0,0:0:0:0:
189,353,40420,1,10,0:0:0:0:
189,353,40521,1,0,1:0:0:0:
245,150,40825,6,0,P|270:188|265:251,1,100,6|0,1:0|0:0,0:0:0:0:
315,361,41129,1,0,1:0:0:0:
315,361,41230,2,0,P|339:352|366:348,2,50,10|0|0,0:0|0:0|0:0,0:0:0:0:
181,265,41535,2,0,P|157:273|130:278,1,50,0|0,1:0|0:0,0:0:0:0:
126,140,41737,1,8,0:0:0:0:
126,140,41839,2,0,P|148:153|159:185,1,50,0|8,1:0|0:0,0:0:0:0:
52,336,42041,5,2,1:0:0:0:
34,311,42143,1,0,1:0:0:0:
29,281,42244,1,0,1:0:0:0:
34,251,42345,1,0,1:0:0:0:
49,225,42447,6,0,L|-6:219,2,50,6|8|8,1:0|0:0|0:0,0:0:0:0:
89,65,42751,2,0,L|138:60,2,50,0|2|8,1:0|1:0|0:0,0:0:0:0:
269,278,43055,2,0,B|258:206|258:206|233:175|233:175|229:83,1,200,4|0,1:0|1:0,0:0:0:0:
288,0,43663,1,10,0:0:0:0:
288,0,43764,1,0,1:0:0:0:
512,100,44068,6,0,P|464:102|412:122,1,100,6|0,1:0|0:0,0:0:0:0:
285,194,44372,1,0,1:0:0:0:
285,194,44474,2,0,P|335:204|396:223,1,100,10|0,0:0|1:0,0:0:0:0:
455,286,44778,5,8,0:0:0:0:
360,374,44980,1,8,0:0:0:0:
267,281,45183,1,8,0:0:0:0:
179,316,45285,1,10,0:0:0:0:
182,277,45386,1,8,0:0:0:0:
187,238,45487,2,0,L|120:217,1,50,0|0,1:0|1:0,0:0:0:0:
82,125,45691,6,0,P|104:105|113:67,1,59.9999981689454,4|0,1:0|0:0,0:0:0:0:
200,0,45893,1,2,0:0:0:0:
200,0,45994,1,2,1:0:0:0:
200,0,46095,2,0,L|217:61,1,59.9999981689454,10|0,0:0|0:0,0:0:0:0:
273,237,46298,1,2,0:0:0:0:
243,158,46399,6,0,P|302:147|365:140,1,119.999996337891,2|2,1:0|0:0,0:0:0:0:
439,135,46703,1,2,1:0:0:0:
402,264,46907,1,10,0:0:0:0:
398,285,47008,1,0,1:0:0:0:
394,305,47110,2,0,L|379:371,1,59.9999981689454,2|8,0:0|0:0,0:0:0:0:
278,384,47312,6,0,P|236:340|179:343,1,119.999996337891,0|2,1:0|0:0,0:0:0:0:
117,242,47616,1,2,1:0:0:0:
117,242,47717,2,0,P|91:258|77:288,2,59.9999981689454,10|0|2,0:0|0:0|0:0,0:0:0:0:
178,124,48021,2,0,P|236:146|297:152,1,119.999996337891,2|2,1:0|0:0,0:0:0:0:
313,152,48325,1,2,1:0:0:0:
108,40,48528,1,10,0:0:0:0:
74,53,48629,1,2,1:0:0:0:
58,85,48730,2,0,P|57:116|76:149,1,59.9999981689454,2|8,0:0|0:0,0:0:0:0:
350,219,48933,6,0,P|356:162|370:98,1,119.999996337891,0|2,1:0|0:0,0:0:0:0:
296,0,49237,1,2,1:0:0:0:
296,0,49339,2,0,P|268:13|236:17,2,59.9999981689454,10|2|2,0:0|0:0|0:0,0:0:0:0:
409,8,49643,2,0,P|476:16|488:62,1,119.999996337891,2|2,1:0|0:0,0:0:0:0:
483,94,49947,2,0,P|473:122|464:158,1,59.9999981689454,2|0,1:0|0:0,0:0:0:0:
350,219,50149,2,0,P|342:190|332:161,2,59.9999981689454,10|2|2,0:0|1:0|0:0,0:0:0:0:
512,336,50453,1,8,0:0:0:0:
512,336,50555,6,0,P|455:322|386:313,1,119.999996337891,0|2,1:0|0:0,0:0:0:0:
261,252,50859,1,2,1:0:0:0:
261,252,50960,2,0,P|255:221|245:188,2,59.9999981689454,10|2|2,0:0|0:0|0:0,0:0:0:0:
284,357,51264,2,0,P|222:361|178:320,1,119.999996337891,2|2,1:0|0:0,0:0:0:0:
148,250,51568,1,2,1:0:0:0:
177,127,51771,1,2,1:0:0:0:
210,114,51872,1,0,1:0:0:0:
235,139,51974,2,0,P|251:165|244:196,1,59.9999981689454,4|0,0:0|0:0,0:0:0:0:
42,238,52176,6,0,L|167:210,2,119.999996337891,4|2|10,1:0|1:0|0:0,0:0:0:0:
169,41,52784,1,2,0:0:0:0:
169,41,52886,2,0,P|115:50|91:108,1,119.999996337891,2|2,1:0|0:0,0:0:0:0:
222,231,53190,2,0,P|249:226|261:195,1,59.9999981689454,2|0,1:0|0:0,0:0:0:0:
326,76,53393,2,0,L|267:93,2,59.9999981689454,10|0|0,0:0|1:0|0:0,0:0:0:0:
410,0,53697,1,8,0:0:0:0:
410,0,53798,6,0,P|477:21|481:70,1,119.999996337891,0|2,1:0|0:0,0:0:0:0:
512,186,54102,1,0,1:0:0:0:
508,194,54203,2,0,L|450:177,1,59.9999981689454,10|0,0:0|0:0,0:0:0:0:
328,224,54406,1,2,0:0:0:0:
328,224,54508,6,0,P|310:248|309:277,1,59.9999981689454,2|0,1:0|0:0,0:0:0:0:
461,334,54710,1,2,0:0:0:0:
461,334,54812,2,0,P|478:309|479:280,1,59.9999981689454,2|0,1:0|0:0,0:0:0:0:
307,135,55014,1,10,0:0:0:0:
271,142,55116,1,0,1:0:0:0:
236,150,55217,2,0,L|242:91,1,59.9999981689454,0|8,0:0|0:0,0:0:0:0:
210,17,55420,1,0,1:0:0:0:
0,100,55622,6,0,P|28:105|57:137,1,59.9999981689454,2|0,0:0|1:0,0:0:0:0:
109,46,55825,2,0,P|146:83|145:150,1,119.999996337891,10|2,0:0|3:0,3:0:0:0:
21,236,56129,2,0,P|47:225|87:217,1,59.9999981689454,2|0,1:0|3:0,3:0:0:0:
224,234,56332,1,2,3:0:0:0:
232,240,56433,2,0,P|258:251|298:259,1,59.9999981689454,2|0,1:0|3:0,3:0:0:0:
383,192,56636,6,0,P|376:163|353:144,2,59.9999981689454,10|0|2,0:0|1:0|0:0,0:0:0:0:
379,9,56940,1,8,0:0:0:0:
375,0,57041,2,0,P|320:13|238:25,1,119.999996337891,2|2,1:0|0:0,0:0:0:0:
163,152,57345,1,2,1:0:0:0:
154,149,57447,2,0,P|124:141|95:137,2,59.9999981689454,12|2|0,0:0|0:0|0:0,0:0:0:0:
250,89,57751,1,10,0:0:0:0:
244,81,57852,6,0,L|258:19,3,59.9999981689454,0|10|0|10,0:0|0:0|0:0|0:0,0:0:0:0:
353,144,58257,1,2,1:0:0:0:
345,178,58359,1,0,1:0:0:0:
338,213,58460,1,0,1:0:0:0:
330,248,58562,1,0,1:0:0:0:
323,283,58664,6,0,P|280:261|220:269,2,100,4|2|10,0:0|0:0|0:0,0:0:0:0:
171,359,59271,1,2,1:0:0:0:
171,359,59372,1,0,1:0:0:0:
171,359,59474,2,0,P|121:362|77:340,1,100,2|4,1:0|1:0,0:0:0:0:
395,117,60082,6,0,P|379:188|364:272,1,150,6|0,1:0|0:0,0:0:0:0:
361,282,60487,1,2,1:0:0:0:
456,267,60690,2,0,P|465:217|475:169,1,100,10|2,0:0|1:0,0:0:0:0:
421,12,61095,1,2,1:0:0:0:
393,0,61197,1,0,1:0:0:0:
363,1,61298,1,0,1:0:0:0:
337,17,61399,1,0,1:0:0:0:
322,43,61501,2,0,L|224:24,1,100,14|0,0:0|0:0,0:0:0:0:
59,0,61906,6,0,P|70:47|78:98,1,100,4|0,1:0|0:0,0:0:0:0:
173,124,62312,1,10,0:0:0:0:
13,217,62514,1,2,1:0:0:0:
9,186,62616,1,0,1:0:0:0:
3,156,62717,1,2,1:0:0:0:
0,306,62920,2,0,P|46:303|80:345,1,100,6|2,1:0|0:0,0:0:0:0:
166,384,63325,6,0,P|222:349|306:346,1,150,6|0,1:0|0:0,0:0:0:0:
382,372,63730,1,2,1:0:0:0:
314,211,63933,2,0,P|355:236|358:291,1,100,10|2,0:0|1:0,0:0:0:0:
184,309,64339,2,0,B|211:241|211:241|199:186|199:186|227:110,1,200,10|14,0:0|0:0,0:0:0:0:
458,0,65149,6,0,P|412:17|352:26,1,100,4|2,1:0|0:0,0:0:0:0:
398,148,65555,2,0,P|444:131|504:122,1,100,10|2,0:0|1:0,0:0:0:0:
511,120,65859,1,0,1:0:0:0:
511,120,65960,1,2,1:0:0:0:
419,258,66163,6,0,P|373:243|312:236,1,100,4|2,1:0|0:0,0:0:0:0:
414,372,66568,2,0,P|345:350|252:338,1,150,4|0,1:0|0:0,0:0:0:0:
192,337,66974,1,2,1:0:0:0:
159,187,67176,2,0,P|202:199|224:253,1,100,10|2,0:0|0:0,0:0:0:0:
120,375,67582,5,2,1:0:0:0:
90,368,67683,1,0,1:0:0:0:
60,361,67784,1,0,1:0:0:0:
30,355,67886,1,0,1:0:0:0:
0,347,67987,2,0,P|18:299|27:251,1,100,14|0,0:0|0:0,0:0:0:0:
23,82,68393,6,0,B|105:86|65:143|160:147,1,150,4|0,1:0|0:0,0:0:0:0:
167,146,68798,1,10,0:0:0:0:
162,36,69001,1,2,1:0:0:0:
263,83,69203,2,0,L|334:100,1,50,10|0,0:0|0:0,0:0:0:0:
452,69,69406,1,2,1:0:0:0:
452,69,69507,1,0,1:0:0:0:
452,69,69609,1,2,1:0:0:0:
452,69,69812,2,0,P|431:141|415:225,1,150,6|0,1:0|0:0,0:0:0:0:
384,282,70217,5,10,0:0:0:0:
271,166,70420,1,10,0:0:0:0:
172,278,70622,1,10,0:0:0:0:
282,379,70825,1,10,0:0:0:0:
384,282,71028,1,10,0:0:0:0:
277,272,71230,1,10,0:0:0:0:
188,143,71433,1,2,1:0:0:0:
192,118,71534,1,0,1:0:0:0:
196,93,71636,6,0,P|236:71|290:80,2,100,6|0|0,1:0|1:0|1:0,0:0:0:0:
126,204,72244,2,0,L|73:195,2,50,2|0|10,1:0|1:0|0:0,0:0:0:0:
229,284,72649,2,0,L|282:275,2,50,0|0|8,1:0|1:0|0:0,0:0:0:0:
126,364,73055,2,0,L|73:355,2,50,2|0|10,1:0|1:0|0:0,0:0:0:0:
229,284,73460,1,0,1:0:0:0:
344,384,73663,6,0,L|360:276,1,100,10|8,0:0|0:0,0:0:0:0:
437,252,73967,1,8,0:0:0:0:
437,252,74068,2,0,P|428:228|423:192,1,50,2|8,1:0|0:0,0:0:0:0:
332,194,74271,2,0,P|340:170|346:134,1,50,8|8,0:0|0:0,0:0:0:0:
341,47,74474,2,0,B|286:59|286:59|264:92|264:92|200:109,1,150,6|0,1:0|0:0,0:0:0:0:
129,48,74879,6,0,L|141:-6,3,50,4|0|8|8,1:0|1:0|0:0|0:0,0:0:0:0:
48,96,75284,2,0,L|-6:84,3,50,4|0|8|8,0:0|1:0|0:0|0:0,0:0:0:0:
96,177,75690,2,0,L|84:231,3,50,4|0|8|8,0:0|1:0|0:0|0:0,0:0:0:0:
177,129,76095,2,0,L|231:141,3,50,4|0|8|8,0:0|1:0|0:0|0:0,0:0:0:0:
324,87,76501,6,0,P|334:63|341:33,1,50,4|8,1:0|0:0,0:0:0:0:
430,72,76703,2,0,P|420:95|413:126,1,50,4|8,1:0|0:0,0:0:0:0:
504,227,76906,2,0,P|494:203|487:173,1,50,4|8,1:0|0:0,0:0:0:0:
398,212,77110,2,0,P|408:235|415:266,1,50,4|8,1:0|0:0,0:0:0:0:
410,359,77312,5,8,0:0:0:0:
385,334,77413,1,0,1:0:0:0:
351,324,77514,1,0,1:0:0:0:
315,325,77616,1,0,1:0:0:0:
282,338,77717,2,0,P|274:363|263:385,1,50,8|4,0:0|1:0,0:0:0:0:
33,384,78123,6,0,P|27:353|18:322,1,59.9999981689454,6|2,1:0|0:0,0:0:0:0:
136,291,78325,2,0,P|144:320|150:350,1,59.9999981689454,2|2,1:0|0:0,0:0:0:0:
125,181,78528,2,0,P|180:179|219:231,1,119.999996337891,10|0,0:0|0:0,0:0:0:0:
223,255,78832,6,0,L|234:188,1,59.9999981689454,2|0,1:0|0:0,0:0:0:0:
171,80,79034,1,2,0:0:0:0:
202,52,79136,1,2,1:0:0:0:
243,51,79237,1,2,0:0:0:0:
280,69,79339,2,0,B|344:85|303:121|376:140,1,119.999996337891,10|2,0:0|0:0,0:0:0:0:
444,36,79643,6,0,P|415:41|393:66,1,59.9999981689454,2|0,1:0|0:0,0:0:0:0:
453,174,79845,1,2,0:0:0:0:
457,181,79947,2,0,P|486:176|508:151,1,59.9999981689454,2|2,1:0|0:0,0:0:0:0:
385,222,80149,2,0,P|377:279|359:346,1,119.999996337891,10|2,0:0|0:0,0:0:0:0:
353,358,80453,6,0,P|325:347|281:339,1,59.9999981689454,2|0,1:0|0:0,0:0:0:0:
157,271,80656,1,0,0:0:0:0:
160,279,80757,2,0,P|189:272|217:261,1,59.9999981689454,2|0,1:0|0:0,0:0:0:0:
294,127,80960,1,10,0:0:0:0:
294,127,81163,1,0,1:0:0:0:
280,87,81264,1,8,0:0:0:0:
244,64,81366,6,0,L|181:87,1,59.9999981689454,6|2,1:0|0:0,0:0:0:0:
147,183,81568,2,0,L|90:162,1,59.9999981689454,2|2,0:0|1:0,0:0:0:0:
9,0,81771,2,0,P|67:10|87:66,1,119.999996337891,10|2,0:0|0:0,0:0:0:0:
16,216,82075,2,0,P|-1:188|2:155,1,59.9999981689454,2|0,1:0|0:0,0:0:0:0:
244,64,82278,1,2,0:0:0:0:
251,60,82379,2,0,P|268:87|265:121,1,59.9999981689454,2|2,1:0|0:0,0:0:0:0:
160,302,82582,2,0,L|145:171,1,119.999996337891,10|2,0:0|0:0,0:0:0:0:
294,0,82886,6,0,B|361:10|326:55|398:67,1,119.999996337891,2|2,1:0|0:0,0:0:0:0:
471,124,83190,2,0,P|489:101|487:61,1,59.9999981689454,2|2,1:0|0:0,0:0:0:0:
251,142,83393,2,0,P|252:201|269:261,1,119.999996337891,10|2,0:0|0:0,0:0:0:0:
279,279,83697,6,0,P|307:268|342:261,1,59.9999981689454,2|0,1:0|0:0,0:0:0:0:
416,176,83899,1,2,0:0:0:0:
416,186,84001,2,0,P|444:196|479:204,1,59.9999981689454,2|2,1:0|0:0,0:0:0:0:
512,289,84203,1,10,0:0:0:0:
512,289,84406,1,8,0:0:0:0:
500,329,84507,1,8,0:0:0:0:
486,368,84609,6,0,P|454:372|412:386,1,59.9999981689454,6|2,1:0|0:0,0:0:0:0:
298,352,84812,2,0,P|328:349|357:341,1,59.9999981689454,2|2,0:0|1:0,0:0:0:0:
416,176,85015,2,0,P|389:127|329:114,1,119.999996337891,10|2,0:0|0:0,0:0:0:0:
233,166,85319,6,0,P|228:194|219:232,1,59.9999981689454,2|0,1:0|0:0,0:0:0:0:
108,205,85522,1,2,0:0:0:0:
100,204,85623,2,0,P|105:176|114:138,1,59.9999981689454,2|2,1:0|0:0,0:0:0:0:
16,94,85825,2,0,P|57:45|124:43,1,119.999996337891,10|2,0:0|0:0,0:0:0:0:
100,204,86129,6,0,L|35:187,1,59.9999981689454,2|0,1:0|0:0,0:0:0:0:
1,336,86332,1,2,0:0:0:0:
0,344,86433,2,0,L|58:359,1,59.9999981689454,2|2,1:0|0:0,0:0:0:0:
236,342,86636,2,0,B|248:271|272:305|285:231,1,119.999996337891,10|2,0:0|0:0,0:0:0:0:
261,127,86940,6,0,P|230:134|211:163,1,59.9999981689454,2|2,1:0|0:0,0:0:0:0:
322,343,87143,1,0,0:0:0:0:
327,349,87244,2,0,P|355:342|374:320,1,59.9999981689454,2|0,1:0|0:0,0:0:0:0:
464,138,87447,2,0,L|346:168,1,119.999996337891,10|0,0:0|1:0,0:0:0:0:
270,125,87751,1,8,0:0:0:0:
261,127,87852,6,0,P|250:100|245:64,1,59.9999981689454,6|2,1:0|0:0,0:0:0:0:
104,61,88055,2,0,P|115:88|120:124,1,59.9999981689454,2|2,0:0|1:0,0:0:0:0:
0,189,88257,2,0,P|57:197|90:247,1,119.999996337891,10|2,0:0|0:0,0:0:0:0:
205,231,88562,6,0,L|269:211,1,59.9999981689454,2|0,1:0|0:0,0:0:0:0:
264,336,88764,1,2,0:0:0:0:
267,343,88866,2,0,L|209:360,1,59.9999981689454,2|2,1:0|0:0,0:0:0:0:
63,383,89068,2,0,P|75:325|87:265,1,119.999996337891,10|2,0:0|0:0,0:0:0:0:
89,246,89372,2,0,P|60:256|20:262,1,59.9999981689454,2|0,1:0|0:0,0:0:0:0:
2,109,89575,1,2,0:0:0:0:
0,101,89676,2,0,P|28:90|69:85,1,59.9999981689454,2|2,1:0|0:0,0:0:0:0:
182,68,89879,6,0,L|154:188,1,119.999996337891,10|0,0:0|1:0,0:0:0:0:
182,278,90183,1,2,0:0:0:0:
184,285,90284,2,0,P|210:287|243:269,1,59.9999981689454,6|2,1:0|0:0,0:0:0:0:
326,337,90487,2,0,P|344:318|351:281,1,59.9999981689454,10|8,0:0|0:0,0:0:0:0:
385,189,90690,1,10,0:0:0:0:
378,159,90791,1,8,0:0:0:0:
371,129,90893,1,10,0:0:0:0:
365,99,90994,1,8,0:0:0:0:
360,71,91096,1,10,0:0:0:0:
32,0,92717,6,0,P|38:22|45:49,2,50,6|8|8,1:0|0:0|0:0,0:0:0:0:
125,245,93021,2,0,P|131:220|137:196,2,50,0|2|8,1:0|1:0|0:0,0:0:0:0:
198,95,93325,2,0,L|-13:145,1,200,12|4,0:0|1:0,0:0:0:0:
227,178,93933,1,10,0:0:0:0:
227,178,94035,1,0,1:0:0:0:
299,17,94339,6,0,P|346:21|355:67,1,100,6|0,1:0|0:0,0:0:0:0:
438,166,94643,1,0,1:0:0:0:
438,166,94744,2,0,P|412:171|373:182,2,50,10|0|0,0:0|0:0|0:0,0:0:0:0:
261,115,95048,2,0,P|277:162|291:221,1,100,0|8,1:0|0:0,0:0:0:0:
228,317,95352,2,0,P|222:292|213:269,1,50,0|0,1:0|0:0,0:0:0:0:
132,91,95555,5,10,0:0:0:0:
97,84,95656,1,0,1:0:0:0:
65,99,95758,1,0,1:0:0:0:
46,127,95859,1,0,1:0:0:0:
42,161,95960,6,0,L|64:217,2,50,6|0|8,1:0|0:0|0:0,0:0:0:0:
178,272,96264,2,0,L|196:225,2,50,0|0|8,1:0|0:0|0:0,0:0:0:0:
62,365,96568,2,0,P|136:323|255:337,1,200,4|0,1:0|1:0,0:0:0:0:
31,285,97176,1,10,0:0:0:0:
31,285,97278,1,0,1:0:0:0:
474,366,97582,6,0,P|481:317|446:278,1,100,6|0,1:0|0:0,3:0:0:0:
391,194,97886,1,0,1:0:0:0:
391,194,97987,2,0,P|370:208|358:229,2,50,10|0|0,0:0|0:0|0:0,0:0:0:0:
381,348,98291,2,0,P|334:336|281:328,1,100,4|8,1:0|0:0,0:0:0:0:
243,222,98595,2,0,P|219:228|192:231,1,50,0|8,1:0|0:0,0:0:0:0:
85,289,98798,1,10,0:0:0:0:
64,260,98899,1,8,0:0:0:0:
58,225,99001,1,8,0:0:0:0:
69,191,99102,1,8,0:0:0:0:
95,167,99203,6,0,P|104:143|112:111,2,50,6|8|8,1:0|0:0|0:0,0:0:0:0:
204,0,99507,2,0,P|213:23|221:56,2,50,0|2|8,1:0|1:0|0:0,3:0:0:0:
279,111,99812,2,0,L|79:74,1,200,4|0,1:0|1:0,0:0:0:0:
315,27,100420,1,10,0:0:0:0:
315,27,100521,1,0,1:0:0:0:
482,374,100825,6,0,P|488:327|501:267,1,100,6|0,1:0|0:0,0:0:0:0:
470,172,101129,1,0,1:0:0:0:
470,172,101230,2,0,P|448:188|423:200,2,50,10|0|0,0:0|0:0|0:0,0:0:0:0:
356,144,101534,2,0,L|371:81,1,50,4|0,1:0|0:0,0:0:0:0:
240,62,101737,1,8,0:0:0:0:
240,62,101839,2,0,L|228:110,1,50,0|8,1:0|0:0,0:0:0:0:
177,214,102041,5,2,1:0:0:0:
212,211,102143,1,0,1:0:0:0:
242,227,102244,1,0,1:0:0:0:
259,257,102345,1,0,1:0:0:0:
261,292,102447,6,0,P|253:316|229:338,2,50,6|8|8,1:0|0:0|0:0,0:0:0:0:
153,384,102751,2,0,P|129:376|107:352,2,50,0|2|8,1:0|1:0|0:0,0:0:0:0:
0,207,103055,2,0,B|114:220|45:289|176:292,1,200,4|0,1:0|1:0,0:0:0:0:
2,300,103663,1,10,0:0:0:0:
2,300,103764,1,0,1:0:0:0:
192,0,104068,6,0,L|216:104,1,100,6|0,1:0|0:0,0:0:0:0:
219,218,104372,1,0,1:0:0:0:
219,218,104474,2,0,P|256:186|306:180,1,100,10|0,0:0|1:0,0:0:0:0:
325,185,104778,5,8,0:0:0:0:
410,236,104980,1,8,0:0:0:0:
402,335,105183,1,8,0:0:0:0:
315,384,105386,1,8,0:0:0:0:
232,327,105589,1,8,0:0:0:0:
411,112,105893,5,2,0:0:0:0:
411,112,106095,2,0,P|461:114|495:150,1,100,4|2,1:0|0:0,0:0:0:0:
410,236,106501,2,0,L|257:205,1,150,2|0,1:0|0:0,0:0:0:0:
236,199,106906,1,10,0:0:0:0:
298,49,107109,2,0,L|145:80,1,150,2|0,1:0|0:0,0:0:0:0:
128,86,107514,1,2,1:0:0:0:
134,242,107717,2,0,L|35:222,1,100,10|2,0:0|0:0,0:0:0:0:
0,71,108122,5,0,1:0:0:0:
0,71,108325,1,2,1:0:0:0:
225,0,108528,2,0,P|213:47|202:108,1,100,10|2,0:0|0:0,0:0:0:0:
134,242,108933,5,0,1:0:0:0:
259,272,109136,1,2,0:0:0:0:
259,272,109339,2,0,P|255:217|204:192,1,100,10|2,0:0|0:0,0:0:0:0:
2,247,109744,2,0,L|34:348,1,100,2|0,1:0|0:0,0:0:0:0:
145,384,110149,1,10,0:0:0:0:
388,205,110352,6,0,B|312:216|343:264|257:272,1,150,2|0,1:0|0:0,0:0:0:0:
191,189,110757,1,2,1:0:0:0:
418,129,110960,2,0,P|467:163|471:208,1,100,10|2,0:0|0:0,0:0:0:0:
437,355,111366,2,0,L|336:336,3,100,2|2|10|2,1:0|1:0|0:0|0:0,0:0:0:0:
512,294,112176,5,0,1:0:0:0:
308,202,112379,1,2,0:0:0:0:
308,202,112582,2,0,P|321:155|330:101,1,100,10|0,0:0|0:0,0:0:0:0:
459,0,112987,2,0,P|423:33|364:35,1,100,2|0,1:0|1:0,0:0:0:0:
242,14,113393,1,10,0:0:0:0:
210,246,113595,6,0,L|244:89,1,150,2|0,1:0|0:0,0:0:0:0:
329,104,114001,1,2,1:0:0:0:
161,0,114203,2,0,L|139:98,1,100,10|2,0:0|0:0,0:0:0:0:
160,220,114609,2,0,P|117:197|62:200,1,100,2|0,1:0|1:0,0:0:0:0:
0,249,115014,1,10,0:0:0:0:
74,384,115217,6,0,L|101:270,1,100,2|0,0:0|1:0,0:0:0:0:
208,147,115622,1,2,0:0:0:0:
208,147,115825,2,0,B|262:157|240:189|303:196,1,100,10|2,0:0|0:0,0:0:0:0:
397,54,116230,2,0,P|336:65|326:108,1,100,2|0,1:0|0:0,0:0:0:0:
405,155,116636,1,10,0:0:0:0:
504,289,116839,6,0,P|432:268|341:257,1,150,2|0,1:0|0:0,0:0:0:0:
339,255,117244,1,2,1:0:0:0:
410,354,117447,1,10,0:0:0:0:
314,176,117649,6,0,B|366:142|344:64|227:49|201:132|210:212|210:212|271:238|264:305,1,400,6|0,1:0|0:0,0:0:0:0:
183,372,118663,6,0,P|153:374|125:383,1,59.9999981689454,4|0,1:0|0:0,0:0:0:0:
12,332,118866,1,2,0:0:0:0:
12,332,118967,1,2,1:0:0:0:
12,332,119068,2,0,P|9:302|0:274,1,59.9999981689454,10|0,0:0|0:0,0:0:0:0:
0,143,119271,1,2,0:0:0:0:
0,143,119372,2,0,L|114:177,1,119.999996337891,2|2,1:0|0:0,0:0:0:0:
133,182,119676,1,2,1:0:0:0:
244,96,119879,2,0,P|248:66|259:34,2,59.9999981689454,10|0|2,0:0|1:0|0:0,0:0:0:0:
379,192,120284,6,0,B|311:195|338:243|268:249,1,119.999996337891,0|2,1:0|0:0,0:0:0:0:
395,293,120589,1,2,1:0:0:0:
395,293,120690,2,0,P|418:296|452:314,2,59.9999981689454,10|0|2,0:0|0:0|0:0,0:0:0:0:
291,372,120994,2,0,P|235:356|172:346,1,119.999996337891,2|2,1:0|0:0,0:0:0:0:
151,341,121298,1,2,1:0:0:0:
111,144,121501,1,10,0:0:0:0:
152,144,121602,1,2,1:0:0:0:
179,175,121703,2,0,P|182:207|163:236,1,59.9999981689454,2|8,0:0|0:0,0:0:0:0:
31,278,121906,6,0,P|18:222|-4:153,1,119.999996337891,0|2,1:0|0:0,0:0:0:0:
49,58,122210,1,2,1:0:0:0:
49,58,122312,2,0,L|65:-14,1,59.9999981689454,10|2,0:0|0:0,0:0:0:0:
284,28,122616,6,0,L|257:145,1,119.999996337891,2|2,1:0|0:0,0:0:0:0:
152,144,122920,2,0,P|159:114|166:85,1,59.9999981689454,2|0,1:0|0:0,0:0:0:0:
264,227,123122,2,0,P|271:255|278:285,2,59.9999981689454,10|2|2,0:0|1:0|0:0,0:0:0:0:
370,155,123426,1,8,0:0:0:0:
370,155,123528,6,0,P|339:110|270:104,1,119.999996337891,0|2,1:0|0:0,0:0:0:0:
400,277,123832,1,2,1:0:0:0:
400,277,123933,2,0,P|430:267|464:261,2,59.9999981689454,10|2|2,0:0|0:0|0:0,0:0:0:0:
300,338,124237,2,0,P|239:346|178:366,1,119.999996337891,2|10,1:0|0:0,0:0:0:0:
166,370,124541,1,2,1:0:0:0:
23,382,124744,1,2,1:0:0:0:
0,361,124845,1,0,1:0:0:0:
3,331,124947,2,0,P|11:301|35:281,1,59.9999981689454,4|0,0:0|0:0,0:0:0:0:
131,204,125149,6,0,P|91:163|9:164,2,119.999996337891,4|2|10,1:0|1:0|0:0,0:0:0:0:
224,322,125758,1,2,0:0:0:0:
224,322,125860,2,0,L|244:163,1,119.999996337891,2|2,1:0|0:0,0:0:0:0:
248,105,126163,2,0,P|284:110|306:140,1,59.9999981689454,2|0,1:0|0:0,0:0:0:0:
396,107,126366,2,0,P|401:144|378:173,2,59.9999981689454,10|0|0,0:0|1:0|0:0,0:0:0:0:
483,280,126670,1,8,0:0:0:0:
483,280,126771,6,0,P|423:283|352:299,1,119.999996337891,0|2,1:0|0:0,0:0:0:0:
248,373,127075,1,0,1:0:0:0:
248,373,127176,2,0,P|245:347|224:322,1,59.9999981689454,10|0,0:0|0:0,0:0:0:0:
72,384,127481,6,0,L|158:361,1,59.9999981689454,2|0,1:0|0:0,0:0:0:0:
137,266,127683,1,2,0:0:0:0:
137,266,127785,2,0,L|78:281,1,59.9999981689454,2|0,1:0|0:0,0:0:0:0:
9,184,127987,1,10,0:0:0:0:
0,152,128089,1,0,1:0:0:0:
12,124,128190,2,0,P|31:94|59:85,1,59.9999981689454,0|8,0:0|0:0,0:0:0:0:
130,181,128393,1,0,1:0:0:0:
221,12,128595,6,0,L|133:-7,1,59.9999981689454,2|0,0:0|1:0,0:0:0:0:
53,86,128798,2,0,L|200:117,1,119.999996337891,10|2,0:0|0:0,0:0:0:0:
346,134,129102,2,0,P|367:166|355:214,1,59.9999981689454,2|0,1:0|0:0,0:0:0:0:
241,231,129305,1,2,0:0:0:0:
241,231,129406,2,0,P|219:198|231:150,1,59.9999981689454,2|0,1:0|0:0,0:0:0:0:
302,7,129609,2,0,L|372:33,2,59.9999981689454,10|0|2,0:0|1:0|0:0,0:0:0:0:
485,0,129913,1,8,0:0:0:0:
485,0,130014,6,0,P|466:56|454:120,1,119.999996337891,2|2,1:0|0:0,0:0:0:0:
367,186,130318,1,2,1:0:0:0:
367,186,130420,2,0,P|331:175|279:168,2,59.9999981689454,12|0|2,0:0|0:0|0:0,0:0:0:0:
456,239,130724,5,10,0:0:0:0:
379,374,130926,1,10,0:0:0:0:
356,346,131028,1,0,0:0:0:0:
324,331,131129,1,10,0:0:0:0:
289,328,131230,2,0,L|268:394,1,59.9999981689454,2|0,1:0|1:0,0:0:0:0:
180,351,131433,2,0,L|198:293,1,59.9999981689454,0|0,1:0|1:0,0:0:0:0:
271,234,131636,6,0,P|257:186|252:131,2,100,4|2|10,0:0|0:0|0:0,0:0:0:0:
166,104,132244,1,2,1:0:0:0:
166,104,132345,1,0,1:0:0:0:
166,104,132447,2,0,P|179:56|185:1,1,100,2|4,1:0|1:0,0:0:0:0:
21,169,133055,6,0,B|103:163|59:229|169:224,1,150,6|0,1:0|0:0,0:0:0:0:
173,223,133460,1,2,1:0:0:0:
345,85,133663,2,0,P|319:45|266:38,1,100,10|2,0:0|1:0,0:0:0:0:
318,200,134068,1,2,1:0:0:0:
351,190,134170,1,0,1:0:0:0:
384,180,134271,1,0,1:0:0:0:
417,171,134372,1,0,1:0:0:0:
451,162,134474,2,0,L|433:268,1,100,14|0,0:0|0:0,0:0:0:0:
363,384,134879,6,0,P|324:354|274:357,1,100,4|0,1:0|0:0,0:0:0:0:
174,384,135285,1,10,0:0:0:0:
196,260,135487,1,2,1:0:0:0:
230,268,135589,1,0,1:0:0:0:
263,276,135690,1,2,1:0:0:0:
111,307,135893,2,0,P|88:264|105:216,1,100,6|2,1:0|0:0,0:0:0:0:
289,196,136298,6,0,P|321:132|296:62,1,150,6|0,1:0|0:0,0:0:0:0:
287,49,136703,1,2,1:0:0:0:
127,143,136906,2,0,L|230:124,1,100,10|2,0:0|1:0,0:0:0:0:
196,341,137312,2,0,L|-13:302,1,200,14|14,0:0|0:0,0:0:0:0:
327,54,138122,6,0,P|341:101|354:157,1,100,4|2,1:0|0:0,0:0:0:0:
447,126,138528,2,0,P|433:79|420:23,1,100,10|2,0:0|1:0,0:0:0:0:
417,11,138832,1,0,1:0:0:0:
417,11,138933,1,2,1:0:0:0:
510,254,139136,6,0,P|471:223|413:223,1,100,4|2,1:0|0:0,0:0:0:0:
492,360,139541,2,0,P|435:315|352:315,1,150,4|0,1:0|0:0,0:0:0:0:
342,319,139947,1,2,1:0:0:0:
249,242,140149,2,0,L|264:138,1,100,10|2,0:0|0:0,0:0:0:0:
242,24,140555,5,2,1:0:0:0:
208,13,140656,1,0,1:0:0:0:
173,17,140757,1,0,1:0:0:0:
144,37,140859,1,0,1:0:0:0:
129,68,140960,2,0,P|85:87|28:52,1,100,14|0,0:0|0:0,0:0:0:0:
162,292,141366,6,0,L|187:130,1,150,4|0,1:0|0:0,0:0:0:0:
187,125,141771,1,10,0:0:0:0:
286,237,141974,1,2,1:0:0:0:
383,120,142176,2,0,L|370:65,1,50,10|0,0:0|0:0,0:0:0:0:
321,0,142379,1,2,1:0:0:0:
367,205,142784,2,0,B|447:209|412:270|513:277,1,150,6|0,1:0|0:0,0:0:0:0:
512,278,143190,5,10,0:0:0:0:
443,380,143393,1,10,0:0:0:0:
361,285,143595,1,10,0:0:0:0:
261,384,143798,5,10,0:0:0:0:
361,285,144001,1,10,0:0:0:0:
227,253,144203,1,10,0:0:0:0:
451,325,144406,1,2,1:0:0:0:
463,298,144507,1,0,1:0:0:0:
454,269,144609,6,0,P|434:220|379:201,2,100,6|0|0,1:0|1:0|1:0,0:0:0:0:
227,253,145217,2,0,P|234:227|238:187,2,50,2|0|10,1:0|1:0|0:0,0:0:0:0:
312,159,145622,2,0,P|305:133|301:93,2,50,0|0|8,1:0|1:0|0:0,0:0:0:0:
231,59,146028,1,2,1:0:0:0:
238,30,146129,1,0,1:0:0:0:
245,0,146230,5,10,0:0:0:0:
356,19,146433,1,0,1:0:0:0:
216,154,146636,2,0,P|167:142|111:135,1,100,10|8,0:0|0:0,0:0:0:0:
46,104,146940,1,0,0:0:0:0:
46,104,147041,2,0,P|29:120|26:151,1,50,2|8,1:0|0:0,0:0:0:0:
0,220,147244,2,0,P|9:241|37:254,1,50,8|8,0:0|0:0,0:0:0:0:
125,382,147447,2,0,P|135:310|153:218,1,150,6|0,1:0|0:0,0:0:0:0:
216,154,147852,6,0,P|239:145|270:144,3,50,4|0|8|8,1:0|1:0|0:0|0:0,0:0:0:0:
343,251,148257,2,0,P|334:227|333:197,3,50,0|8|8|8,1:0|0:0|0:0|0:0,0:0:0:0:
440,124,148663,2,0,P|416:132|386:134,3,50,0|8|8|8,1:0|0:0|0:0|0:0,0:0:0:0:
313,27,149068,2,0,P|321:50|323:81,3,50,0|8|8|8,1:0|0:0|0:0|0:0,0:0:0:0:
141,192,149474,6,0,L|127:135,1,50,0|8,1:0|0:0,0:0:0:0:
50,216,149676,2,0,L|36:159,1,50,8|8,0:0|0:0,0:0:0:0:
213,284,149879,2,0,L|227:227,1,50,0|8,1:0|0:0,0:0:0:0:
304,308,150081,2,0,L|318:251,1,50,8|8,0:0|0:0,0:0:0:0:
400,216,150284,5,12,0:0:0:0:
396,186,150386,1,8,0:0:0:0:
392,156,150487,1,8,0:0:0:0:
388,126,150589,1,8,0:0:0:0:
385,96,150690,2,0,L|395:47,1,50,8|4,0:0|1:0,0:0:0:0:
0,37,151096,6,0,P|22:57|30:91,1,59.9999981689454,6|2,1:0|0:0,0:0:0:0:
148,99,151298,2,0,P|146:128|125:156,1,59.9999981689454,2|2,1:0|0:0,0:0:0:0:
0,264,151501,2,0,P|48:230|110:237,1,119.999996337891,10|0,0:0|0:0,0:0:0:0:
280,46,151805,6,0,L|270:105,1,59.9999981689454,2|0,1:0|0:0,0:0:0:0:
355,179,152007,1,2,0:0:0:0:
318,179,152109,1,2,1:0:0:0:
293,204,152210,1,2,0:0:0:0:
285,239,152312,2,0,P|291:267|320:292,2,59.9999981689454,10|0|2,0:0|0:0|0:0,0:0:0:0:
413,384,152616,6,0,L|353:369,1,59.9999981689454,2|0,1:0|0:0,0:0:0:0:
222,323,152818,1,2,0:0:0:0:
219,316,152920,2,0,L|160:330,1,59.9999981689454,2|2,1:0|0:0,0:0:0:0:
47,343,153122,2,0,P|46:284|93:240,1,119.999996337891,10|2,0:0|0:0,0:0:0:0:
210,221,153426,6,0,P|198:195|190:161,1,59.9999981689454,2|0,1:0|0:0,0:0:0:0:
84,127,153629,1,0,0:0:0:0:
77,124,153730,2,0,P|89:98|97:64,1,59.9999981689454,2|0,1:0|0:0,0:0:0:0:
235,0,153933,1,10,0:0:0:0:
235,0,154136,1,0,1:0:0:0:
269,9,154237,1,8,0:0:0:0:
303,19,154339,6,0,P|321:42|320:77,1,59.9999981689454,6|2,1:0|0:0,0:0:0:0:
426,113,154541,2,0,P|419:141|392:163,1,59.9999981689454,2|2,0:0|1:0,0:0:0:0:
207,136,154744,2,0,P|260:141|300:191,1,119.999996337891,10|2,0:0|0:0,0:0:0:0:
309,304,155048,2,0,P|335:289|369:280,1,59.9999981689454,2|0,1:0|0:0,0:0:0:0:
456,240,155251,1,2,0:0:0:0:
458,233,155352,2,0,P|484:248|518:257,1,59.9999981689454,2|2,1:0|0:0,0:0:0:0:
296,384,155555,2,0,L|171:356,1,119.999996337891,10|2,0:0|0:0,0:0:0:0:
56,384,155859,6,0,P|72:322|82:260,1,119.999996337891,2|2,1:0|0:0,0:0:0:0:
205,230,156163,2,0,P|199:195|193:168,1,59.9999981689454,2|2,1:0|0:0,0:0:0:0:
99,36,156366,2,0,P|145:72|205:67,1,119.999996337891,10|2,0:0|0:0,0:0:0:0:
332,100,156670,2,0,P|323:73|315:38,1,59.9999981689454,2|0,1:0|0:0,0:0:0:0:
463,4,156872,1,2,0:0:0:0:
470,0,156974,2,0,P|479:27|487:62,1,59.9999981689454,2|2,1:0|0:0,0:0:0:0:
432,184,157176,5,10,0:0:0:0:
432,184,157379,1,8,0:0:0:0:
395,206,157480,1,8,0:0:0:0:
386,241,157582,6,0,P|399:267|415:307,1,59.9999981689454,6|2,1:0|0:0,0:0:0:0:
291,354,157784,2,0,P|278:328|262:288,1,59.9999981689454,2|2,0:0|1:0,0:0:0:0:
227,194,157987,2,0,B|164:214|191:247|125:262,1,119.999996337891,10|2,0:0|0:0,0:0:0:0:
0,202,158291,6,0,L|12:143,1,59.9999981689454,2|0,1:0|0:0,0:0:0:0:
154,138,158494,1,2,0:0:0:0:
147,139,158595,2,0,L|135:80,1,59.9999981689454,2|2,1:0|0:0,0:0:0:0:
83,1,158798,2,0,P|24:0|0:56,1,119.999996337891,10|2,0:0|0:0,0:0:0:0:
208,14,159102,6,0,P|240:9|274:-5,1,59.9999981689454,2|0,1:0|0:0,0:0:0:0:
297,112,159305,1,2,0:0:0:0:
299,119,159406,2,0,P|267:124|233:138,1,59.9999981689454,2|2,1:0|0:0,0:0:0:0:
354,263,159609,2,0,L|378:143,1,119.999996337891,10|2,0:0|0:0,0:0:0:0:
368,15,159913,6,0,P|386:37|415:43,1,59.9999981689454,2|2,1:0|0:0,0:0:0:0:
461,151,160116,1,0,0:0:0:0:
465,157,160217,2,0,P|493:150|512:128,1,59.9999981689454,2|0,1:0|0:0,0:0:0:0:
485,305,160420,2,0,B|421:314|448:353|383:367,1,119.999996337891,10|0,0:0|1:0,0:0:0:0:
290,317,160724,1,8,0:0:0:0:
282,319,160825,6,0,L|266:256,1,59.9999981689454,6|2,1:0|0:0,0:0:0:0:
147,291,161028,2,0,L|161:349,1,59.9999981689454,2|2,0:0|1:0,0:0:0:0:
190,218,161230,2,0,P|147:177|89:189,1,119.999996337891,10|2,0:0|0:0,0:0:0:0:
85,384,161534,2,0,P|59:370|25:366,1,59.9999981689454,2|0,1:0|0:0,0:0:0:0:
59,261,161737,1,2,0:0:0:0:
56,254,161839,2,0,P|30:267|-4:272,1,59.9999981689454,2|2,1:0|0:0,0:0:0:0:
0,153,162041,6,0,L|24:35,1,119.999996337891,10|2,0:0|0:0,0:0:0:0:
140,0,162345,2,0,L|127:64,1,59.9999981689454,2|0,1:0|0:0,0:0:0:0:
235,149,162548,1,2,0:0:0:0:
242,149,162649,2,0,L|253:90,1,59.9999981689454,2|2,1:0|0:0,0:0:0:0:
352,0,162852,6,0,B|418:7|388:47|467:59,1,119.999996337891,14|0,0:0|1:0,0:0:0:0:
504,133,163156,1,2,0:0:0:0:
512,133,163257,2,0,P|505:160|498:196,1,59.9999981689454,6|2,1:0|0:0,0:0:0:0:
394,317,163460,2,0,P|387:290|380:254,1,59.9999981689454,10|8,0:0|0:0,0:0:0:0:
278,104,163663,1,10,0:0:0:0:
254,77,163764,1,8,0:0:0:0:
218,69,163866,1,10,0:0:0:0:
182,70,163967,1,8,0:0:0:0:
158,88,164068,6,0,L|139:175,2,79.9999975585938,6|8|0,1:0|0:0|0:0,0:0:0:0:
50,217,164474,2,0,L|67:295,1,79.9999975585938,8|0,0:0|0:0,0:0:0:0:
147,384,164744,1,0,1:0:0:0:
147,384,164879,2,0,P|174:355|221:353,1,79.9999975585938,8|0,0:0|1:0,0:0:0:0:
317,384,165149,1,0,1:0:0:0:
331,355,165284,1,0,1:0:0:0:
357,336,165420,1,0,1:0:0:0:
388,330,165555,1,0,1:0:0:0:
419,335,165690,6,0,L|434:249,1,79.9999975585938,8|0,0:0|1:0,0:0:0:0:
430,138,165960,1,0,1:0:0:0:
406,116,166095,1,0,1:0:0:0:
374,108,166230,1,0,1:0:0:0:
342,112,166366,1,0,1:0:0:0:
317,132,166501,6,0,L|330:210,1,79.9999975585938,8|0,0:0|1:0,0:0:0:0:
261,302,166771,1,0,1:0:0:0:
212,215,166906,2,0,B|153:230|153:230|135:261|135:261|71:282,1,159.999995117188,4|0,1:0|0:0,0:0:0:0:
0,229,167312,6,0,L|24:92,1,119.999996337891,6|0,1:0|0:0,0:0:0:0:
31,95,167616,1,2,1:0:0:0:
88,23,167717,2,0,P|150:29|173:82,1,119.999996337891,10|0,0:0|0:0,0:0:0:0:
171,97,168021,2,0,L|154:166,1,59.9999981689454,10|0,0:0|0:0,0:0:0:0:
245,182,168224,1,0,0:0:0:0:
245,182,168325,2,0,L|259:123,1,59.9999981689454,2|0,1:0|3:0,0:0:0:0:
282,31,168528,1,10,0:0:0:0:
282,31,168730,1,0,1:0:0:0:
394,95,168933,6,0,L|388:131,2,29.9999990844727,10|0|0,0:0|1:0|1:0,0:0:0:0:
321,161,169136,2,0,L|327:197,2,29.9999990844727,0|0|0,1:0|1:0|1:0,0:0:0:0:
394,227,169339,2,0,L|388:263,2,29.9999990844727,10|0|0,0:0|1:0|1:0,0:0:0:0:
321,293,169541,2,0,L|327:329,2,29.9999990844727,0|0|0,1:0|1:0|1:0,0:0:0:0:
308,150,169744,2,0,L|314:186,2,29.9999990844727,10|0|0,0:0|1:0|1:0,0:0:0:0:
407,221,169947,2,0,L|401:257,2,29.9999990844727,0|0|0,1:0|1:0|1:0,0:0:0:0:
388,384,170149,1,10,0:0:0:0:
244,239,170353,6,0,P|215:238|203:267,1,50,2|2,0:0|0:0,0:0:0:0:
225,345,170555,2,0,P|181:327|113:317,1,100,6|0,1:0|0:0,0:0:0:0:
51,309,170859,1,0,1:0:0:0:
51,309,170960,1,8,0:0:0:0:
0,234,171163,1,2,0:0:0:0:
0,234,171264,6,0,L|15:175,1,50,2|0,1:0|0:0,0:0:0:0:
115,58,171568,2,0,L|127:106,1,50,0|0,1:0|0:0,0:0:0:0:
168,224,171771,1,10,0:0:0:0:
168,224,171872,2,0,P|216:211|274:203,1,100,2|0,1:0|0:0,0:0:0:0:
282,203,172176,6,0,P|310:238|301:293,1,100,0|0,1:0|0:0,0:0:0:0:
227,318,172480,1,0,1:0:0:0:
227,318,172582,1,8,0:0:0:0:
405,384,172784,1,2,0:0:0:0:
405,384,172886,2,0,L|416:310,1,50,0|0,1:0|0:0,0:0:0:0:
491,248,173190,2,0,L|480:174,1,50,2|2,1:0|0:0,0:0:0:0:
512,89,173393,5,10,0:0:0:0:
501,72,173494,1,2,1:0:0:0:
484,60,173595,1,0,0:0:0:0:
465,51,173697,1,10,0:0:0:0:
445,50,173798,6,0,P|402:66|386:120,1,100,2|0,1:0|0:0,0:0:0:0:
367,238,174102,1,0,1:0:0:0:
367,238,174203,2,0,L|299:218,1,50,8|0,0:0|0:0,0:0:0:0:
267,118,174406,1,2,0:0:0:0:
267,118,174507,2,0,L|199:138,1,50,2|0,1:0|0:0,0:0:0:0:
148,232,174812,2,0,L|195:246,1,50,0|0,1:0|0:0,0:0:0:0:
89,139,175014,1,10,0:0:0:0:
89,139,175116,6,0,P|49:168|39:218,1,100,0|0,1:0|0:0,0:0:0:0:
74,288,175420,1,2,1:0:0:0:
176,118,175622,1,0,0:0:0:0:
182,98,175724,1,2,1:0:0:0:
188,79,175825,2,0,L|174:23,1,50,8|0,0:0|0:0,0:0:0:0:
290,0,176028,1,2,0:0:0:0:
290,0,176129,2,0,L|302:48,1,50,0|2,1:0|0:0,0:0:0:0:
278,145,176332,5,0,0:0:0:0:
316,134,176433,1,0,1:0:0:0:
353,146,176534,1,8,0:0:0:0:
379,176,176636,1,0,1:0:0:0:
366,197,176737,1,0,1:0:0:0:
361,221,176839,1,6,1:0:0:0:
365,245,176940,1,0,0:0:0:0:
378,266,177041,5,0,1:0:0:0:
474,348,177244,1,2,1:0:0:0:
357,384,177447,2,0,P|324:352|257:349,1,100,10|0,0:0|0:0,0:0:0:0:
213,266,177751,2,0,P|194:278|182:306,1,50,2|0,1:0|0:0,0:0:0:0:
120,374,177953,1,0,0:0:0:0:
120,374,178055,2,0,P|101:361|89:334,1,50,2|0,1:0|0:0,0:0:0:0:
57,233,178257,6,0,L|111:247,3,50,10|2|2|10,0:0|1:0|0:0|0:0,0:0:0:0:
195,196,178663,1,2,1:0:0:0:
192,171,178764,1,2,0:0:0:0:
189,145,178866,1,2,0:0:0:0:
187,120,178967,1,2,1:0:0:0:
184,95,179068,2,0,L|130:109,2,50,10|2|2,0:0|0:0|0:0,0:0:0:0:
290,8,179372,6,0,P|282:32|275:64,1,50,2|0,1:0|0:0,0:0:0:0:
337,135,179575,1,0,0:0:0:0:
337,135,179676,2,0,P|342:159|350:183,1,50,0|0,1:0|0:0,0:0:0:0:
291,292,179879,1,10,0:0:0:0:
291,292,179980,2,0,P|242:276|187:269,1,100,2|8,1:0|0:0,0:0:0:0:
346,384,180284,6,0,P|369:372|395:369,1,50,2|0,1:0|0:0,0:0:0:0:
512,362,180487,1,0,0:0:0:0:
512,362,180589,1,0,1:0:0:0:
512,362,180690,2,0,L|498:307,1,50,8|0,0:0|0:0,0:0:0:0:
418,236,180994,2,0,L|432:181,1,50,0|0,1:0|0:0,0:0:0:0:
512,92,181298,2,0,L|498:37,1,50,0|0,1:0|0:0,0:0:0:0:
379,0,181501,5,8,0:0:0:0:
356,9,181602,1,0,1:0:0:0:
333,19,181703,1,0,0:0:0:0:
310,29,181805,1,8,0:0:0:0:
287,39,181906,6,0,P|275:86|306:132,1,100,0|2,1:0|0:0,0:0:0:0:
314,227,182210,1,0,1:0:0:0:
314,227,182312,2,0,P|293:218|263:215,1,50,12|0,0:0|0:0,0:0:0:0:
171,160,182514,1,0,1:0:0:0:
171,160,182616,2,0,P|162:181|159:211,1,50,8|0,0:0|1:0,0:0:0:0:
181,332,182920,5,10,0:0:0:0:
147,294,183021,1,8,0:0:0:0:
97,285,183122,1,8,0:0:0:0:
49,302,183224,1,0,1:0:0:0:
27,347,183325,1,0,1:0:0:0:
33,365,183426,1,0,1:0:0:0:
39,384,183528,6,0,L|99:370,1,50,4|2,1:0|0:0,0:0:0:0:
159,245,183730,1,0,0:0:0:0:
159,245,183832,1,0,1:0:0:0:
159,245,183933,2,0,P|151:269|147:293,1,50,10|0,0:0|0:0,0:0:0:0:
271,366,184136,1,0,0:0:0:0:
271,366,184237,6,0,B|296:366|296:366|319:354,1,50,2|0,1:0|0:0,0:0:0:0:
289,239,184440,1,0,0:0:0:0:
289,239,184541,2,0,B|264:239|264:239|240:250,1,50,2|0,1:0|0:0,0:0:0:0:
424,384,184744,5,10,0:0:0:0:
436,362,184845,1,0,1:0:0:0:
439,337,184947,1,2,0:0:0:0:
432,312,185048,1,8,0:0:0:0:
414,293,185149,6,0,P|428:244|436:195,1,100,0|0,1:0|0:0,0:0:0:0:
348,112,185453,1,2,1:0:0:0:
348,112,185555,2,0,P|340:136|337:160,1,50,10|0,0:0|0:0,0:0:0:0:
220,240,185859,2,0,P|227:215|231:191,1,50,0|2,1:0|0:0,0:0:0:0:
153,81,186163,2,0,P|149:105|142:129,1,50,2|0,1:0|0:0,0:0:0:0:
102,241,186366,5,8,0:0:0:0:
81,226,186467,1,2,1:0:0:0:
57,218,186568,1,0,0:0:0:0:
31,217,186670,1,10,0:0:0:0:
8,227,186771,6,0,L|16:278,3,50,2|0|0|2,1:0|0:0|0:0|1:0,0:0:0:0:
84,180,187176,2,0,L|68:81,1,100,10|2,0:0|0:0,0:0:0:0:
139,0,187480,2,0,P|163:4|183:31,1,50,0|0,1:0|0:0,0:0:0:0:
227,111,187784,2,0,P|251:106|271:80,1,50,2|0,1:0|0:0,0:0:0:0:
388,0,187987,5,10,0:0:0:0:
382,24,188089,1,0,1:0:0:0:
377,48,188190,1,2,0:0:0:0:
372,72,188291,1,8,0:0:0:0:
367,96,188393,6,0,P|417:105|462:124,1,100,2|2,1:0|0:0,0:0:0:0:
512,211,188697,1,2,1:0:0:0:
512,211,188798,2,0,L|495:261,1,50,10|0,0:0|0:0,0:0:0:0:
338,256,189102,2,0,P|312:253|278:239,1,50,2|2,1:0|0:0,0:0:0:0:
266,370,189406,2,0,P|291:372|326:387,1,50,2|10,1:0|0:0,0:0:0:0:
435,309,189609,5,0,1:0:0:0:
429,284,189710,1,0,1:0:0:0:
423,259,189812,1,4,1:0:0:0:
418,234,189913,1,0,0:0:0:0:
415,209,190014,6,0,L|451:108,1,100,0|0,1:0|1:0,0:0:0:0:
376,0,190420,2,0,B|324:12|347:43|288:52,1,100,10|0,0:0|3:0,3:0:0:0:
237,127,190724,2,0,P|258:140|276:162,1,50,2|0,1:0|0:0,0:0:0:0:
186,253,190926,1,0,0:0:0:0:
186,253,191028,2,0,P|165:239|147:218,1,50,0|0,1:0|0:0,0:0:0:0:
118,52,191230,5,10,0:0:0:0:
93,58,191332,1,0,1:0:0:0:
69,65,191433,1,0,0:0:0:0:
45,72,191534,1,8,0:0:0:0:
20,79,191636,6,0,P|13:130|0:189,1,100,2|0,1:0|0:0,0:0:0:0:
0,205,191940,1,0,1:0:0:0:
0,205,192041,2,0,P|23:211|50:226,1,50,8|0,0:0|0:0,0:0:0:0:
127,331,192244,1,2,0:0:0:0:
127,331,192345,2,0,P|150:324|177:310,1,50,0|0,1:0|0:0,0:0:0:0:
244,203,192548,1,0,0:0:0:0:
244,203,192649,2,0,P|267:209|294:224,1,50,0|0,1:0|0:0,0:0:0:0:
387,356,192852,5,8,0:0:0:0:
391,331,192953,1,0,1:0:0:0:
396,306,193055,1,0,0:0:0:0:
400,281,193156,1,8,0:0:0:0:
405,256,193257,6,0,P|399:230|397:206,3,50,2|2|2|2,1:0|0:0|0:0|1:0,0:0:0:0:
244,203,193663,2,0,P|249:177|257:154,2,50,10|2|2,0:0|0:0|0:0,0:0:0:0:
370,0,193967,6,0,L|426:18,1,50,0|2,1:0|0:0,0:0:0:0:
375,128,194170,1,2,0:0:0:0:
375,128,194271,2,0,L|327:112,1,50,2|2,1:0|0:0,0:0:0:0:
245,24,194474,1,10,0:0:0:0:
126,89,194676,2,0,L|138:139,1,50,2|10,1:0|0:0,0:0:0:0:
148,176,194879,5,2,1:0:0:0:
109,164,194980,1,2,0:0:0:0:
68,165,195082,1,10,0:0:0:0:
36,189,195183,1,10,0:0:0:0:
18,224,195284,6,0,L|38:275,1,50,10|10,0:0|0:0,0:0:0:0:
90,371,195487,2,0,L|108:324,1,50,10|10,0:0|0:0,0:0:0:0:
162,224,195690,2,0,L|180:270,1,50,10|10,0:0|0:0,0:0:0:0:
271,347,195893,1,10,0:0:0:0:
307,362,195994,1,10,0:0:0:0:
346,365,196095,1,10,0:0:0:0:
385,355,196197,1,10,0:0:0:0:
413,327,196298,1,10,0:0:0:0:
424,288,196399,1,10,0:0:0:0:
420,247,196501,6,0,L|392:144,1,100,4|0,1:0|0:0,0:0:0:0:
476,59,196805,1,0,1:0:0:0:
476,59,196906,2,0,P|442:26|380:32,1,100,10|0,0:0|0:0,0:0:0:0:
298,94,197210,1,8,0:0:0:0:
175,0,197514,2,0,L|165:49,1,50,2|0,1:0|0:0,0:0:0:0:
119,182,197717,2,0,P|153:149|215:155,1,100,8|0,0:0|0:0,0:0:0:0:
327,193,198021,1,0,0:0:0:0:
327,193,198122,6,0,B|305:225|305:225|325:282,1,100,2|0,1:0|0:0,0:0:0:0:
332,301,198426,1,0,1:0:0:0:
332,301,198528,1,8,0:0:0:0:
232,384,198730,1,2,0:0:0:0:
232,384,198832,1,8,0:0:0:0:
232,384,198933,2,0,P|186:371|121:366,1,100,0|0,0:0|1:0,0:0:0:0:
0,269,199339,2,0,B|57:254|57:254|87:269|87:269|148:258,1,150,10|0,0:0|0:0,0:0:0:0:
171,122,199744,6,0,P|121:130|103:184,1,100,0|0,1:0|0:0,0:0:0:0:
255,259,200048,1,0,1:0:0:0:
255,259,200149,2,0,P|262:209|272:157,1,100,10|0,0:0|0:0,0:0:0:0:
341,86,200453,2,0,L|322:32,1,50,8|0,0:0|0:0,0:0:0:0:
451,0,200757,2,0,L|467:47,1,50,2|0,1:0|0:0,0:0:0:0:
512,202,200960,2,0,P|466:184|409:175,1,100,8|0,0:0|0:0,0:0:0:0:
303,363,201366,6,0,P|265:331|280:262,1,100,2|0,1:0|0:0,0:0:0:0:
276,268,201670,1,0,1:0:0:0:
276,268,201771,1,8,0:0:0:0:
476,289,201974,1,2,0:0:0:0:
476,289,202075,2,0,P|463:310|452:345,1,50,8|0,0:0|0:0,0:0:0:0:
322,212,202379,2,0,P|334:190|346:156,1,50,0|0,1:0|0:0,0:0:0:0:
317,92,202582,1,8,0:0:0:0:
173,0,202784,1,10,0:0:0:0:
182,39,202886,1,8,0:0:0:0:
190,77,202987,6,0,B|133:86|162:118|96:131,1,100,4|0,1:0|0:0,0:0:0:0:
88,133,203291,1,0,1:0:0:0:
88,133,203393,2,0,L|67:74,1,50,10|0,0:0|0:0,0:0:0:0:
0,236,203595,1,0,0:0:0:0:
0,236,203697,2,0,L|16:188,1,50,8|0,0:0|0:0,0:0:0:0:
146,228,204001,2,0,L|129:275,1,50,2|0,1:0|0:0,0:0:0:0:
0,384,204203,2,0,P|42:361|100:364,1,100,8|0,0:0|0:0,0:0:0:0:
209,384,204609,6,0,L|224:281,1,100,2|2,1:0|0:0,0:0:0:0:
227,264,204913,1,0,1:0:0:0:
227,264,205014,1,8,0:0:0:0:
235,132,205217,1,2,0:0:0:0:
235,132,205318,2,0,P|307:130|339:198,1,150,8|0,0:0|1:0,0:0:0:0:
347,328,205825,2,0,P|390:298|436:303,1,100,10|0,0:0|0:0,0:0:0:0:
512,230,206129,1,0,1:0:0:0:
512,230,206230,6,0,P|496:183|490:133,1,100,4|0,1:0|0:0,0:0:0:0:
490,117,206534,1,0,1:0:0:0:
490,117,206636,1,10,0:0:0:0:
404,11,206940,1,8,0:0:0:0:
404,11,207041,2,0,L|335:39,1,50
302,145,207244,2,0,L|255:126,1,50,2|0,1:0|0:0,0:0:0:0:
109,0,207447,2,0,P|152:18|161:77,1,100,8|0,0:0|0:0,0:0:0:0:
0,156,207852,6,0,P|76:168|159:191,1,150,2|0,1:0|1:0,0:0:0:0:
228,186,208257,1,8,0:0:0:0:
98,315,208460,1,2,0:0:0:0:
98,315,208562,1,8,0:0:0:0:
98,315,208663,2,0,P|49:301|0:293,1,100,0|0,0:0|1:0,0:0:0:0:
197,384,209068,2,0,P|223:340|215:288,1,100,10|0,0:0|0:0,0:0:0:0:
198,64,209474,6,0,B|235:76|235:76|245:93|245:93|296:106,1,100,6|0,1:0|0:0,0:0:0:0:
391,149,209778,1,0,1:0:0:0:
391,149,209879,2,0,P|414:115|393:61,1,100,8|2,0:0|0:0,0:0:0:0:
137,0,210284,1,2,0:0:0:0:
109,29,210386,1,0,0:0:0:0:
102,68,210487,2,0,L|120:137,1,50,0|0,1:0|0:0,0:0:0:0:
115,218,210690,6,0,P|92:208|63:204,2,50,10|6|0,0:0|1:0|0:0,0:0:0:0:
92,295,210994,2,0,P|69:285|40:281,2,50,10|6|0,0:0|1:0|3:0,0:0:0:0:
69,372,211298,2,0,P|46:362|17:358,2,50,10|6|0,0:0|1:0|0:0,0:0:0:0:
253,374,211602,6,0,P|275:365|300:361,2,50,10|6|0,0:0|1:0|0:0,0:0:0:0:
230,298,211906,2,0,P|252:288|282:284,2,50,10|6|0,0:0|1:0|0:0,0:0:0:0:
207,220,212210,2,0,P|229:211|254:207,2,50,10|6|0,0:0|1:0|0:0,0:0:0:0:
490,22,212717,6,0,B|480:47|480:47|484:57|484:57|472:91,1,66.6666666666667,10|2,0:0|1:0,0:0:0:0:
384,118,212987,2,0,B|393:90|393:90|390:81|390:81|399:55,1,66.6666666666667,10|2,0:0|1:0,0:0:0:0:
101,124,213257,2,0,B|110:149|110:149|107:159|107:159|119:193,1,66.6666666666667,10|2,0:0|1:0,0:0:0:0:
207,220,213527,2,0,B|197:192|197:192|200:183|200:183|191:157,1,66.6666666666667,10|2,0:0|1:0,0:0:0:0:
490,226,213798,2,0,B|480:251|480:251|484:261|484:261|472:295,1,66.6666666666667,10|2,0:0|1:0,0:0:0:0:
384,322,214068,2,0,B|393:294|393:294|390:285|390:285|399:259,1,66.6666666666667,10|2,0:0|1:0,0:0:0:0:
197,132,214339,6,0,L|188:169,2,25,10|8|0,0:0|0:0|1:0,0:0:0:0:
370,126,214541,2,0,L|345:124,2,25,2|0|0,1:0|1:0|1:0,0:0:0:0:
287,182,214744,2,0,L|272:161,2,25,10|8|0,0:0|0:0|1:0,0:0:0:0:
381,26,214947,2,0,L|363:44,2,25,2|0|0,1:0|1:0|1:0,0:0:0:0:
191,156,215149,6,0,L|182:193,2,25,10|8|8,0:0|0:0|0:0,0:0:0:0:
364,150,215353,2,0,L|339:148,2,25,10|8|8,0:0|0:0|0:0,0:0:0:0:
281,206,215555,1,10,0:0:0:0:
13,220,215961,6,0,L|-1:285,1,59.9999981689454,6|2,1:0|0:0,0:0:0:0:
116,306,216163,2,0,L|128:247,1,59.9999981689454,2|2,1:0|0:0,0:0:0:0:
36,111,216366,2,0,B|105:118|69:160|150:170,1,119.999996337891,10|0,0:0|0:0,0:0:0:0:
206,324,216670,6,0,P|226:302|255:297,1,59.9999981689454,2|0,1:0|0:0,0:0:0:0:
371,363,216872,1,2,0:0:0:0:
375,328,216974,1,2,1:0:0:0:
381,293,217075,1,2,0:0:0:0:
386,258,217176,2,0,P|370:202|358:135,1,119.999996337891,10|2,0:0|0:0,0:0:0:0:
316,0,217480,6,0,P|287:13|257:23,1,59.9999981689454,2|0,1:0|0:0,0:0:0:0:
238,137,217683,1,2,0:0:0:0:
236,144,217784,2,0,P|204:144|172:139,1,59.9999981689454,2|2,1:0|0:0,0:0:0:0:
43,0,217987,2,0,P|101:16|110:68,1,119.999996337891,10|2,0:0|0:0,0:0:0:0:
3,105,218291,6,0,P|16:129|27:163,1,59.9999981689454,2|0,1:0|0:0,0:0:0:0:
135,215,218494,1,0,0:0:0:0:
140,220,218595,2,0,P|125:246|116:274,1,59.9999981689454,2|0,1:0|0:0,0:0:0:0:
21,384,218798,1,10,0:0:0:0:
21,384,219001,1,0,1:0:0:0:
47,360,219102,1,8,0:0:0:0:
82,354,219203,6,0,L|143:375,1,59.9999981689454,6|2,1:0|0:0,0:0:0:0:
241,384,219406,2,0,L|297:364,1,59.9999981689454,2|2,0:0|1:0,0:0:0:0:
406,303,219609,2,0,P|394:261|324:242,1,119.999996337891,10|2,0:0|0:0,0:0:0:0:
303,256,219913,2,0,L|286:195,1,59.9999981689454,2|0,1:0|0:0,0:0:0:0:
171,236,220116,1,2,0:0:0:0:
163,239,220217,2,0,L|179:296,1,59.9999981689454,2|2,1:0|0:0,0:0:0:0:
367,148,220420,2,0,P|326:105|263:106,1,119.999996337891,10|2,0:0|0:0,0:0:0:0:
146,142,220724,6,0,P|159:84|168:23,1,119.999996337891,2|2,1:0|0:0,0:0:0:0:
61,26,221028,2,0,P|58:56|52:84,1,59.9999981689454,2|2,1:0|0:0,0:0:0:0:
0,187,221230,2,0,P|60:189|89:238,1,119.999996337891,10|2,0:0|0:0,0:0:0:0:
44,346,221534,6,0,P|71:333|111:333,1,59.9999981689454,2|0,1:0|0:0,0:0:0:0:
181,254,221737,1,2,0:0:0:0:
183,247,221839,2,0,P|212:254|242:280,1,59.9999981689454,2|2,1:0|0:0,0:0:0:0:
318,384,222041,1,10,0:0:0:0:
318,384,222244,1,8,0:0:0:0:
322,348,222345,1,8,0:0:0:0:
327,312,222447,6,0,L|391:329,1,59.9999981689454,6|2,1:0|0:0,0:0:0:0:
387,212,222649,2,0,L|329:196,1,59.9999981689454,2|2,0:0|1:0,0:0:0:0:
493,263,222852,2,0,B|519:202|485:213|518:131,1,119.999996337891,10|2,0:0|0:0,0:0:0:0:
506,38,223156,6,0,P|476:42|449:60,1,59.9999981689454,2|0,1:0|0:0,0:0:0:0:
371,2,223359,1,2,0:0:0:0:
363,0,223460,2,0,P|347:25|343:57,1,59.9999981689454,2|2,1:0|0:0,0:0:0:0:
302,157,223663,2,0,P|247:136|181:128,1,119.999996337891,10|2,0:0|0:0,0:0:0:0:
95,102,223967,6,0,L|107:41,1,59.9999981689454,2|0,1:0|0:0,0:0:0:0:
19,190,224170,1,2,0:0:0:0:
12,193,224271,2,0,L|0:134,1,59.9999981689454,2|2,1:0|0:0,0:0:0:0:
0,301,224474,2,0,B|65:278|53:316|122:294,1,119.999996337891,10|2,0:0|0:0,0:0:0:0:
205,163,224778,6,0,P|182:181|172:216,1,59.9999981689454,2|2,1:0|0:0,0:0:0:0:
286,284,224980,1,0,0:0:0:0:
293,288,225082,2,0,P|315:269|326:235,1,59.9999981689454,2|0,1:0|0:0,0:0:0:0:
242,74,225284,2,0,B|196:66|196:66|170:77|170:77|114:70,1,119.999996337891,14|0,0:0|0:0,0:0:0:0:
370,138,225690,5,14,0:0:0:0:
414,119,225791,1,10,0:0:0:0:
461,129,225893,1,10,0:0:0:0:
494,163,225994,1,10,0:0:0:0:
499,210,226095,5,10,0:0:0:0:
487,223,226197,1,8,0:0:0:0:
479,239,226298,1,10,0:0:0:0:
473,256,226399,6,0,L|495:318,1,59.9999981689454,6|0,1:0|0:0,0:0:0:0:
404,382,226602,1,2,0:0:0:0:
396,384,226703,2,0,L|375:327,1,59.9999981689454,6|2,1:0|0:0,0:0:0:0:
221,185,226906,2,0,P|281:200|295:255,1,119.999996337891,10|2,0:0|0:0,0:0:0:0:
274,360,227210,6,0,P|247:347|213:344,1,59.9999981689454,2|0,1:0|0:0,0:0:0:0:
102,292,227413,1,2,0:0:0:0:
95,286,227514,2,0,P|121:273|156:270,1,59.9999981689454,2|2,1:0|0:0,0:0:0:0:
179,119,227717,2,0,P|232:142|295:149,1,119.999996337891,14|0,0:0|1:0,0:0:0:0:
399,105,228021,1,2,0:0:0:0:
406,101,228122,6,0,L|387:41,1,59.9999981689454,6|2,1:0|0:0,0:0:0:0:
460,199,228325,1,10,0:0:0:0:
419,209,228426,1,8,0:0:0:0:
378,219,228528,1,10,0:0:0:0:
381,242,228629,1,8,0:0:0:0:
384,265,228730,1,10,0:0:0:0:
387,288,228832,1,8,0:0:0:0:
390,311,228933,6,0,P|333:317|272:338,1,119.999996337891,6|2,1:0|1:0,0:0:0:0:
178,381,229237,1,2,0:0:0:0:
170,384,229339,2,0,P|163:353|151:325,1,59.9999981689454,10|0,0:0|0:0,0:0:0:0:
76,218,229541,1,0,0:0:0:0:
76,209,229643,2,0,P|133:231|192:231,1,119.999996337891,2|2,1:0|0:0,0:0:0:0:
281,230,229947,2,0,L|294:156,1,59.9999981689454,2|2,1:0|0:0,0:0:0:0:
319,71,230149,2,0,B|379:76|357:124|427:126,1,119.999996337891,10|2,0:0|0:0,0:0:0:0:
451,132,230453,6,0,P|464:106|462:68,1,59.9999981689454,2|0,1:0|0:0,0:0:0:0:
258,19,230656,1,2,0:0:0:0:
253,27,230757,2,0,P|240:53|242:91,1,59.9999981689454,2|2,1:0|0:0,0:0:0:0:
107,55,230960,2,0,P|127:111|139:174,1,119.999996337891,10|2,0:0|0:0,0:0:0:0:
76,262,231264,6,0,P|105:267|139:283,1,59.9999981689454,2|0,1:0|0:0,0:0:0:0:
193,356,231467,1,0,0:0:0:0:
196,362,231568,2,0,P|223:349|252:344,1,59.9999981689454,2|0,1:0|0:0,0:0:0:0:
390,334,231771,1,10,0:0:0:0:
390,334,231974,1,0,1:0:0:0:
394,304,232075,1,8,0:0:0:0:
398,274,232176,6,0,P|368:265|339:260,1,59.9999981689454,6|2,1:0|0:0,0:0:0:0:
367,133,232379,2,0,P|396:141|426:147,1,59.9999981689454,2|2,0:0|1:0,0:0:0:0:
343,22,232582,2,0,P|292:27|262:88,1,119.999996337891,10|2,0:0|0:0,0:0:0:0:
260,109,232886,6,0,P|253:78|239:49,1,59.9999981689454,2|0,1:0|0:0,0:0:0:0:
148,181,233089,1,2,0:0:0:0:
141,178,233190,2,0,P|147:148|159:121,1,59.9999981689454,2|2,1:0|0:0,0:0:0:0:
15,249,233393,2,0,B|83:253|54:291|132:299,1,119.999996337891,10|2,0:0|0:0,0:0:0:0:
145,301,233697,6,0,L|129:362,1,59.9999981689454,2|0,1:0|0:0,0:0:0:0:
240,224,233899,1,2,0:0:0:0:
247,221,234001,2,0,L|262:279,1,59.9999981689454,2|2,1:0|0:0,0:0:0:0:
310,384,234203,2,0,P|368:364|427:354,1,119.999996337891,10|2,0:0|0:0,0:0:0:0:
447,349,234507,6,0,P|460:321|456:284,1,59.9999981689454,2|0,1:0|0:0,0:0:0:0:
506,203,234710,1,2,0:0:0:0:
512,198,234812,2,0,P|498:170|467:149,1,59.9999981689454,2|2,1:0|0:0,0:0:0:0:
336,261,235014,1,10,0:0:0:0:
336,261,235217,1,8,0:0:0:0:
341,231,235318,1,8,0:0:0:0:
347,201,235420,6,0,P|376:206|413:216,1,59.9999981689454,6|2,1:0|0:0,0:0:0:0:
442,73,235622,2,0,P|412:67|383:60,1,59.9999981689454,2|2,0:0|1:0,0:0:0:0:
315,0,235825,2,0,B|252:17|281:46|207:65,1,119.999996337891,10|2,0:0|0:0,0:0:0:0:
191,74,236129,2,0,P|199:46|198:11,1,59.9999981689454,2|0,1:0|0:0,0:0:0:0:
79,73,236332,1,2,0:0:0:0:
72,71,236433,2,0,P|80:43|79:8,1,59.9999981689454,2|2,1:0|0:0,0:0:0:0:
0,180,236636,2,0,B|44:187|44:187|62:214|62:214|122:228,1,119.999996337891,10|2,0:0|0:0,0:0:0:0:
124,230,236940,6,0,L|110:294,1,59.9999981689454,2|0,1:0|0:0,0:0:0:0:
219,252,237143,1,2,0:0:0:0:
226,253,237244,2,0,L|212:317,1,59.9999981689454,2|2,1:0|0:0,0:0:0:0:
315,384,237447,2,0,P|372:363|438:352,1,119.999996337891,10|2,0:0|0:0,0:0:0:0:
450,348,237751,6,0,P|438:321|433:287,1,59.9999981689454,2|2,1:0|0:0,0:0:0:0:
489,199,237953,1,0,0:0:0:0:
496,200,238055,2,0,P|507:173|513:139,1,59.9999981689454,2|0,1:0|0:0,0:0:0:0:
419,54,238257,2,0,P|367:61|353:122,1,119.999996337891,10|0,0:0|1:0,0:0:0:0:
307,231,238562,5,8,0:0:0:0:
300,235,238663,2,0,P|274:222|237:217,1,59.9999981689454,6|2,1:0|0:0,0:0:0:0:
209,100,238866,2,0,P|182:111|154:136,1,59.9999981689454,2|2,0:0|1:0,0:0:0:0:
24,174,239068,2,0,B|87:186|56:223|134:237,1,119.999996337891,10|2,0:0|0:0,0:0:0:0:
9,323,239372,6,0,L|-2:257,1,59.9999981689454,2|0,1:0|0:0,0:0:0:0:
123,234,239575,1,2,0:0:0:0:
130,231,239676,2,0,L|139:290,1,59.9999981689454,2|2,1:0|0:0,0:0:0:0:
297,311,239879,2,0,P|253:319|234:388,1,119.999996337891,10|2,0:0|0:0,0:0:0:0:
375,384,240183,6,0,P|403:372|438:367,1,59.9999981689454,2|0,1:0|0:0,0:0:0:0:
456,259,240386,1,2,0:0:0:0:
455,251,240487,2,0,P|483:262|518:268,1,59.9999981689454,2|2,1:0|0:0,0:0:0:0:
352,223,240690,2,0,P|354:161|370:101,1,119.999996337891,14|0,0:0|1:0,0:0:0:0:
376,87,240994,1,2,0:0:0:0:
382,78,241095,6,0,L|452:92,1,59.9999981689454,6|2,1:0|0:0,0:0:0:0:
254,0,241298,2,0,L|324:14,1,59.9999981689454,10|8,0:0|0:0,0:0:0:0:
204,188,241501,1,10,0:0:0:0:
200,152,241602,1,8,0:0:0:0:
196,116,241703,1,10,0:0:0:0:
193,79,241805,1,8,0:0:0:0:
200,64,241906,5,6,1:0:0:0:
