osu file format v14

[General]
AudioFilename: audio.mp3
AudioLeadIn: 0
PreviewTime: 151000
Countdown: 0
SampleSet: Soft
StackLeniency: 0.7
Mode: 0
LetterboxInBreaks: 0
WidescreenStoryboard: 1

[Editor]
DistanceSpacing: 1.5
BeatDivisor: 3
GridSize: 32
TimelineZoom: 1.4

[Metadata]
Title:NONSENSE
TitleUnicode:NONSENSE
Artist:hitorie
ArtistUnicode:ヒトリエ
Creator:Kine
Version:HARD
Source:
Tags:jrock japanese j-rock wowaka nonsense Rock WONDER and WONDER
BeatmapID:4118619
BeatmapSetID:1963004

[Difficulty]
HPDrainRate:4.5
CircleSize:3.8
OverallDifficulty:6
ApproachRate:8
SliderMultiplier:1.5
SliderTickRate:1

[Events]
//Background and Video events
0,0,"c1bae66933fc8895a9ffce524b281d8624683da9_s2_n1.jpg",0,0
//Break Periods
//Storyboard Layer 0 (Background)
//Storyboard Layer 1 (Fail)
//Storyboard Layer 2 (Pass)
//Storyboard Layer 3 (Foreground)
//Storyboard Layer 4 (Overlay)
//Storyboard Sound Samples

[TimingPoints]
286,405.405405405405,4,2,1,60,1,0
7380,-100,4,2,1,60,0,0
7684,-100,4,2,1,5,0,0
7785,-100,4,2,1,60,0,0
7887,-100,4,2,1,5,0,0
7988,-100,4,2,1,60,0,0
8394,-100,4,2,1,60,0,0
9002,-100,4,2,1,60,0,0
10623,-100,4,2,1,60,0,0
10927,-100,4,2,1,5,0,0
11029,-100,4,2,1,60,0,0
11130,-100,4,2,1,5,0,0
11231,-100,4,2,1,60,0,0
11637,-100,4,2,1,60,0,0
13258,-100,4,2,1,60,0,0
14880,-100,4,2,1,60,0,0
17414,-100,4,2,1,5,0,0
17515,-100,4,2,1,60,0,0
17617,-100,4,2,1,5,0,0
17718,-100,4,2,1,60,0,0
26231,-100,4,2,1,60,0,0
27853,-100,4,2,1,60,0,0
28563,-100,4,2,1,60,0,0
32718,-100,4,2,1,60,0,0
33326,-100,4,2,1,60,0,0
33630,-100,4,2,1,5,0,0
33731,-100,4,2,1,60,0,0
33934,-100,4,2,1,60,0,0
34340,-100,4,2,1,60,0,0
34948,-100,4,2,1,60,0,0
36873,-100,4,2,1,5,0,0
36975,-100,4,2,1,60,0,0
37583,-100,4,2,1,60,0,0
40117,-100,4,2,1,5,0,0
40218,-100,4,2,1,60,0,0
43360,-100,4,2,1,5,0,0
43461,-111.111111111111,4,2,1,60,0,0
52177,-111.111111111111,4,2,1,60,0,0
53799,-111.111111111111,4,2,1,60,0,0
54509,-111.111111111111,4,2,1,60,0,0
55421,-111.111111111111,4,2,1,60,0,0
58664,-125,4,2,1,60,0,0
59677,-125,4,2,1,60,0,0
59981,-125,4,2,1,5,0,0
60083,-125,4,2,1,60,0,0
60387,-125,4,2,1,5,0,0
60488,-125,4,2,1,60,0,0
61806,-125,4,2,1,5,0,0
61907,-125,4,2,1,60,0,0
62211,-125,4,2,1,5,0,0
62313,-125,4,2,1,60,0,0
62921,-125,4,2,1,60,0,0
63326,-125,4,2,1,60,0,0
63630,-125,4,2,1,5,0,0
63731,-125,4,2,1,60,0,0
63934,-125,4,2,1,60,0,0
64340,-125,4,2,1,60,0,0
64644,-125,4,2,1,5,0,0
64745,-125,4,2,1,60,0,0
65049,-125,4,2,1,5,0,0
65150,-125,4,2,1,60,0,0
65454,-125,4,2,1,5,0,0
65556,-125,4,2,1,60,0,0
65657,-125,4,2,1,5,0,0
65758,-125,4,2,1,60,0,0
66569,-125,4,2,1,60,0,0
66873,-125,4,2,1,5,0,0
66975,-125,4,2,1,60,0,0
67177,-125,4,2,1,60,0,0
68292,-125,4,2,1,5,0,0
68394,-125,4,2,1,60,0,0
68698,-125,4,2,1,5,0,0
68799,-125,4,2,1,60,0,0
68900,-125,4,2,1,5,0,0
69002,-125,4,2,1,60,0,0
69204,-125,4,2,1,60,0,0
69306,-125,4,2,1,5,0,0
69407,-125,4,2,1,60,0,0
70117,-100,4,2,1,60,0,0
70218,-100,4,2,1,60,0,0
70319,-100,4,2,1,5,0,0
70421,-100,4,2,1,65,0,0
70522,-100,4,2,1,5,0,0
70623,-100,4,2,1,70,0,0
70725,-100,4,2,1,5,0,0
70826,-100,4,2,1,75,0,0
70927,-100,4,2,1,5,0,0
71029,-100,4,2,1,80,0,0
71130,-100,4,2,1,5,0,0
71231,-100,4,2,1,85,0,0
71333,-100,4,2,1,5,0,0
71434,-100,4,2,1,60,0,0
74069,-100,4,2,1,60,0,0
74475,-100,4,2,1,60,0,0
74779,-100,4,2,1,5,0,0
74880,-100,4,2,1,60,0,0
76502,-100,4,2,1,60,0,0
76603,-100,4,2,1,5,0,0
76704,-100,4,2,1,60,0,0
76806,-100,4,2,1,5,0,0
76907,-100,4,2,1,60,0,0
77008,-100,4,2,1,5,0,0
77110,-100,4,2,1,60,0,0
77211,-100,4,2,1,5,0,0
77313,-100,4,2,1,60,0,0
78123,-90.9090909090909,4,2,2,80,0,1
78225,-90.9090909090909,4,2,1,80,0,1
82076,-90.9090909090909,4,2,1,80,0,1
82380,-90.9090909090909,4,2,1,80,0,1
91096,-100,4,2,1,80,0,0
92718,405.405405405405,4,2,1,60,1,0
93326,-100,4,2,1,60,0,0
93630,-100,4,2,1,5,0,0
93731,-100,4,2,1,60,0,0
93833,-100,4,2,1,5,0,0
93934,-100,4,2,1,60,0,0
94340,-100,4,2,1,60,0,0
96873,-100,4,2,1,5,0,0
96975,-100,4,2,1,60,0,0
97076,-100,4,2,1,5,0,0
97177,-100,4,2,1,60,0,0
97583,-100,4,2,1,60,0,0
100117,-100,4,2,1,5,0,0
100218,-100,4,2,1,60,0,0
100319,-100,4,2,1,5,0,0
100421,-100,4,2,1,60,0,0
100826,-100,4,2,1,60,0,0
101130,-100,4,2,1,60,0,0
103056,-100,4,2,1,60,0,0
103360,-100,4,2,1,5,0,0
103461,-100,4,2,1,60,0,0
103563,-100,4,2,1,5,0,0
103664,-100,4,2,1,60,0,0
106096,-100,4,2,1,60,0,0
106806,-100,4,2,1,5,0,0
106907,-100,4,2,1,60,0,0
107414,-100,4,2,1,5,0,0
107515,-100,4,2,1,60,0,0
110049,-100,4,2,1,5,0,0
110150,-100,4,2,1,60,0,0
110657,-100,4,2,1,5,0,0
110758,-100,4,2,1,60,0,0
113900,-100,4,2,1,5,0,0
114002,-100,4,2,1,60,0,0
116535,-100,4,2,1,5,0,0
116637,-100,4,2,1,60,0,0
117144,-100,4,2,1,5,0,0
117245,-100,4,2,1,60,0,0
118461,-100,4,2,1,5,0,0
118664,-100,4,2,1,60,0,0
125150,-100,4,2,1,60,0,0
126772,-100,4,2,1,60,0,0
127482,-100,4,2,1,60,0,0
128394,-100,4,2,1,60,0,0
131637,-100,4,2,1,60,0,0
132650,-100,4,2,1,60,0,0
132954,-100,4,2,1,5,0,0
133056,-100,4,2,1,60,0,0
133360,-100,4,2,1,5,0,0
133461,-100,4,2,1,60,0,0
134779,-100,4,2,1,5,0,0
134880,-100,4,2,1,60,0,0
135894,-100,4,2,1,60,0,0
136299,-100,4,2,1,60,0,0
136603,-100,4,2,1,5,0,0
136704,-100,4,2,1,60,0,0
136907,-100,4,2,1,60,0,0
137313,-100,4,2,1,60,0,0
137617,-100,4,2,1,5,0,0
137718,-100,4,2,1,60,0,0
138022,-100,4,2,1,5,0,0
138123,-100,4,2,1,60,0,0
139542,-100,4,2,1,60,0,0
139846,-100,4,2,1,5,0,0
139948,-100,4,2,1,60,0,0
140150,-100,4,2,1,60,0,0
141265,-100,4,2,1,5,0,0
141367,-100,4,2,1,60,0,0
141671,-100,4,2,1,5,0,0
141772,-100,4,2,1,60,0,0
141873,-100,4,2,1,5,0,0
141975,-100,4,2,1,60,0,0
142279,-100,4,2,1,5,0,0
142380,-100,4,2,1,60,0,0
143090,-100,4,2,1,5,0,0
143191,-100,4,2,1,60,0,0
143292,-100,4,2,1,5,0,0
143394,-100,4,2,1,60,0,0
143495,-100,4,2,1,5,0,0
143597,-100,4,2,1,60,0,0
143698,-100,4,2,1,5,0,0
143800,-100,4,2,1,60,0,0
143900,-100,4,2,1,5,0,0
144002,-100,4,2,1,60,0,0
144103,-100,4,2,1,5,0,0
144205,-100,4,2,1,60,0,0
144306,-100,4,2,1,5,0,0
144408,-100,4,2,1,60,0,0
147042,-100,4,2,1,60,0,0
147448,-100,4,2,1,60,0,0
147752,-100,4,2,1,5,0,0
147853,-100,4,2,1,60,0,0
148258,-100,4,2,1,65,0,0
148664,-100,4,2,1,70,0,0
149069,-100,4,2,1,75,0,0
149475,-100,4,2,1,80,0,0
149880,-100,4,2,1,85,0,0
150285,-100,4,2,1,90,0,0
151096,-90.9090909090909,4,2,2,80,0,1
151198,-90.9090909090909,4,2,1,80,0,1
155049,-90.9090909090909,4,2,1,80,0,1
155353,-90.9090909090909,4,2,1,80,0,1
164069,-100,4,2,1,70,0,0
170353,-100,4,2,1,70,0,0
170556,-100,4,2,1,70,0,0
179069,-100,4,2,1,70,0,0
209475,-100,4,2,1,70,0,0
215961,-90.9090909090909,4,2,2,80,0,1
216063,-90.9090909090909,4,2,1,80,0,1
219914,-90.9090909090909,4,2,1,80,0,1
220218,-90.9090909090909,4,2,1,80,0,1
228934,-90.9090909090909,4,2,2,80,0,1
229036,-90.9090909090909,4,2,1,80,0,1
241907,-100,4,2,1,80,0,0

[Colours]
Combo1 : 253,179,87
Combo2 : 255,106,106
Combo3 : 199,199,141
Combo4 : 255,196,106
Combo5 : 196,196,196
Combo6 : 247,72,103
Combo7 : 225,217,189

[HitObjects]
0,45,6772,6,0,P|38:47|75:95,1,75,6|8,1:0|0:0,0:0:0:0:
80,166,7177,1,2,1:0:0:0:
80,166,7380,2,0,L|229:138,1,150,8|0,0:0|1:0,0:0:0:0:
320,108,7988,1,10,0:0:0:0:
320,108,8394,6,0,P|310:146|303:190,1,75,6|0,1:0|0:0,0:0:0:0:
310,278,8799,2,0,P|278:256|222:259,1,75,10|0,0:0|0:0,0:0:0:0:
195,263,9103,2,0,L|185:347,1,75,0|0,1:0|1:0,0:0:0:0:
208,381,9407,1,0,1:0:0:0:
110,370,9610,2,0,L|66:381,3,37.5,10|0|0|0,0:0|1:0|1:0|1:0,0:0:0:0:
28,360,10015,6,0,P|37:323|43:284,1,75,6|8,1:0|0:0,0:0:0:0:
21,190,10421,1,2,1:0:0:0:
21,190,10623,2,0,B|110:174|74:233|181:213,1,150,4|0,1:0|1:0,0:0:0:0:
260,201,11231,1,10,0:0:0:0:
260,201,11637,6,0,L|270:103,1,75,6|0,1:0|0:0,3:0:0:0:
284,30,12042,2,0,P|316:16|364:25,1,75,10|0,0:0|0:0,0:0:0:0:
396,47,12346,2,0,L|469:60,1,75,0|8,1:0|0:0,0:0:0:0:
503,96,12650,1,0,1:0:0:0:
481,191,12853,2,0,L|472:227,3,37.5,10|8|8|8,0:0|0:0|0:0|0:0,0:0:0:0:
458,274,13258,6,0,P|419:279|377:293,1,75,6|8,1:0|0:0,0:0:0:0:
296,331,13664,1,2,1:0:0:0:
296,331,13867,2,0,B|271:248|319:264|295:179,1,150,4|0,1:0|0:0,0:0:0:0:
258,94,14474,1,10,0:0:0:0:
258,94,14880,6,0,P|224:78|177:87,1,75,6|0,1:0|0:0,0:0:0:0:
97,112,15285,2,0,L|119:202,1,75,10|0,0:0|0:0,0:0:0:0:
156,212,15590,2,0,L|138:284,1,75,0|8,1:0|0:0,0:0:0:0:
106,321,15893,1,0,1:0:0:0:
181,382,16096,2,0,L|217:372,3,37.5,2|0|0|0,1:0|1:0|1:0|1:0,0:0:0:0:
265,364,16501,6,0,P|283:332|270:288,1,75,6|8,1:0|0:0,0:0:0:0:
227,210,16907,1,2,1:0:0:0:
227,210,17110,2,0,P|299:202|377:179,1,150,4|0,1:0|1:0,0:0:0:0:
463,142,17718,1,10,0:0:0:0:
463,142,18123,6,0,L|472:53,1,75,6|0,1:0|0:0,0:0:0:0:
393,6,18529,2,0,P|356:7|321:39,1,75,10|0,0:0|1:0,0:0:0:0:
308,74,18833,1,8,0:0:0:0:
222,28,19035,1,8,0:0:0:0:
135,72,19238,1,8,0:0:0:0:
135,72,19340,2,0,L|145:126,3,37.5,10|8|0|0,0:0|0:0|1:0|1:0,0:0:0:0:
155,155,19745,6,0,P|118:162|85:186,1,75,4|2,1:0|0:0,0:0:0:0:
6,237,20150,2,0,L|30:321,1,75,10|2,0:0|0:0,0:0:0:0:
31,357,20454,1,2,1:0:0:0:
155,280,20758,1,2,1:0:0:0:
231,340,20961,2,0,L|223:388,2,37.5,10|0|2,0:0|1:0|0:0,0:0:0:0:
328,328,21367,6,0,P|320:291|316:234,1,75,0|2,1:0|0:0,0:0:0:0:
317,205,21671,1,2,1:0:0:0:
317,205,21772,2,0,P|354:185|389:190,1,75,10|2,0:0|0:0,0:0:0:0:
428,212,22076,1,2,1:0:0:0:
510,91,22380,1,2,1:0:0:0:
424,43,22583,2,0,L|434:3,2,37.5,10|2|2,0:0|1:0|0:0,0:0:0:0:
356,113,22988,6,0,L|276:98,1,75,0|2,1:0|0:0,0:0:0:0:
233,91,23292,1,2,1:0:0:0:
233,91,23394,2,0,P|230:53|206:18,1,75,10|2,0:0|0:0,0:0:0:0:
163,7,23698,1,2,1:0:0:0:
30,69,24002,1,2,1:0:0:0:
89,146,24204,1,10,0:0:0:0:
89,146,24306,1,2,1:0:0:0:
89,146,24407,1,2,0:0:0:0:
19,215,24610,6,0,L|32:296,1,75,0|2,1:0|0:0,0:0:0:0:
17,336,24914,1,2,1:0:0:0:
17,336,25015,2,0,P|51:319|92:320,1,75,10|2,0:0|0:0,0:0:0:0:
133,336,25319,1,2,1:0:0:0:
248,246,25623,2,0,L|253:197,1,37.5,2|8,1:0|0:0,0:0:0:0:
257,160,25826,1,2,1:0:0:0:
257,160,25927,1,0,1:0:0:0:
257,160,26029,1,4,0:0:0:0:
296,71,26231,6,0,P|331:49|371:48,2,75,4|2|10,1:0|1:0|0:0,0:0:0:0:
198,83,26840,1,2,0:0:0:0:
198,83,26941,2,0,L|96:68,1,75,2|2,1:0|0:0,0:0:0:0:
75,78,27245,1,2,1:0:0:0:
62,174,27448,2,0,L|21:166,2,37.5,10|0|0,0:0|1:0|0:0,0:0:0:0:
159,177,27853,6,0,P|150:214|145:263,1,75,0|2,1:0|0:0,0:0:0:0:
143,348,28258,2,0,P|176:326|221:333,1,75,10|2,0:0|0:0,0:0:0:0:
254,348,28563,1,2,1:0:0:0:
359,246,28867,1,2,1:0:0:0:
278,191,29069,2,0,L|235:181,2,37.5,10|0|0,0:0|1:0|0:0,0:0:0:0:
367,151,29475,6,0,L|358:77,1,75,0|2,1:0|0:0,0:0:0:0:
454,64,29880,2,0,L|463:138,1,75,10|2,0:0|3:0,3:0:0:0:
483,183,30184,1,2,1:0:0:0:
385,292,30488,1,2,1:0:0:0:
452,362,30691,2,0,L|494:352,2,37.5,10|0|2,0:0|1:0|0:0,0:0:0:0:
356,380,31096,6,0,P|320:367|274:359,1,75,2|2,1:0|0:0,0:0:0:0:
185,359,31502,2,0,P|165:332|175:282,1,75,8|2,0:0|0:0,0:0:0:0:
192,249,31806,1,10,0:0:0:0:
255,175,32008,1,10,0:0:0:0:
182,109,32211,2,0,L|187:63,1,37.5,10|4,0:0|0:0,0:0:0:0:
367,0,32718,6,0,P|388:31|379:75,1,75,6|8,1:0|0:0,0:0:0:0:
348,157,33123,1,2,1:0:0:0:
348,157,33326,2,0,P|367:231|380:305,1,150,12|4,0:0|1:0,0:0:0:0:
323,383,33934,1,10,0:0:0:0:
323,383,34340,6,0,P|286:371|238:365,1,75,6|0,1:0|0:0,0:0:0:0:
153,377,34745,2,0,P|137:339|148:303,1,75,10|0,0:0|0:0,0:0:0:0:
169,265,35049,2,0,L|254:281,1,75,0|0,1:0|1:0,0:0:0:0:
289,263,35353,1,0,1:0:0:0:
319,170,35556,2,0,L|330:126,3,37.5,10|0|0|0,0:0|1:0|1:0|1:0,0:0:0:0:
334,85,35961,6,0,P|302:65|258:70,1,75,6|8,1:0|0:0,0:0:0:0:
171,93,36367,1,2,1:0:0:0:
171,93,36569,2,0,B|82:111|135:149|38:169,1,150,4|0,1:0|1:0,0:0:0:0:
1,254,37177,1,10,0:0:0:0:
1,254,37583,6,0,L|17:336,1,75,6|0,1:0|0:0,3:0:0:0:
111,308,37988,2,0,L|96:234,1,75,10|0,0:0|0:0,0:0:0:0:
107,186,38292,2,0,P|143:195|180:199,1,75,8|8,0:0|0:0,0:0:0:0:
228,190,38596,1,0,1:0:0:0:
287,112,38799,2,0,L|276:75,3,37.5,10|8|8|8,0:0|0:0|0:0|0:0,0:0:0:0:
276,27,39204,6,0,P|306:7|356:12,1,75,6|8,1:0|0:0,0:0:0:0:
438,32,39610,1,2,1:0:0:0:
438,32,39813,2,0,B|420:84|420:84|435:120|435:120|415:182,1,150,4|0,1:0|1:0,0:0:0:0:
411,270,40420,1,10,0:0:0:0:
411,270,40826,6,0,P|376:252|334:251,1,75,6|0,1:0|0:0,0:0:0:0:
252,292,41231,2,0,L|237:209,1,75,10|0,0:0|0:0,0:0:0:0:
195,194,41535,2,0,L|208:120,1,75,0|8,1:0|0:0,0:0:0:0:
244,87,41839,1,0,1:0:0:0:
171,21,42042,2,0,L|134:11,3,37.5,2|0|0|0,1:0|1:0|1:0|1:0,0:0:0:0:
85,10,42448,6,0,P|56:38|56:81,1,75,6|8,1:0|0:0,0:0:0:0:
65,167,42853,1,2,1:0:0:0:
65,167,43056,2,0,B|151:166|111:222|209:227,1,150,4|0,1:0|1:0,0:0:0:0:
285,267,43664,1,10,0:0:0:0:
285,267,44069,6,0,L|295:194,1,67.4999979400635,6|0,1:0|0:0,0:0:0:0:
322,116,44475,2,0,P|376:115|397:143,1,67.4999979400635,10|0,0:0|1:0,0:0:0:0:
417,149,44779,1,8,0:0:0:0:
378,227,44981,1,8,0:0:0:0:
438,290,45184,1,8,0:0:0:0:
438,290,45285,2,0,L|425:338,3,33.7499989700318,10|8|0|0,0:0|0:0|1:0|1:0,0:0:0:0:
411,363,45691,6,0,P|376:366|343:349,1,67.4999979400635,4|2,1:0|0:0,0:0:0:0:
300,276,46096,2,0,L|220:296,1,67.4999979400635,10|2,0:0|0:0,0:0:0:0:
191,304,46400,1,2,1:0:0:0:
60,289,46704,1,2,1:0:0:0:
120,224,46907,2,0,L|165:214,2,33.7499989700318,10|0|2,0:0|1:0|0:0,0:0:0:0:
47,194,47313,6,0,L|66:103,1,67.4999979400635,0|2,1:0|0:0,0:0:0:0:
63,83,47617,1,2,1:0:0:0:
63,83,47718,2,0,P|100:79|131:106,1,67.4999979400635,10|2,0:0|0:0,0:0:0:0:
152,128,48022,1,2,1:0:0:0:
251,40,48326,1,2,1:0:0:0:
318,96,48529,2,0,L|356:88,2,33.7499989700318,10|2|2,0:0|1:0|0:0,0:0:0:0:
258,146,48934,6,0,P|269:181|272:225,1,67.4999979400635,0|2,1:0|0:0,0:0:0:0:
268,252,49238,1,2,1:0:0:0:
268,252,49340,2,0,L|344:237,1,67.4999979400635,10|2,0:0|0:0,0:0:0:0:
378,243,49644,1,2,1:0:0:0:
500,201,49948,1,2,1:0:0:0:
463,121,50150,1,10,0:0:0:0:
463,121,50252,1,2,1:0:0:0:
463,121,50353,1,2,0:0:0:0:
377,141,50556,6,0,L|388:70,1,67.4999979400635,0|2,1:0|0:0,0:0:0:0:
378,31,50860,1,2,1:0:0:0:
378,31,50961,2,0,P|340:15|305:16,1,67.4999979400635,10|2,0:0|0:0,0:0:0:0:
272,29,51265,1,2,1:0:0:0:
159,98,51569,2,0,L|149:62,1,33.7499989700318,2|8,1:0|0:0,0:0:0:0:
139,22,51772,1,2,1:0:0:0:
139,22,51873,1,0,1:0:0:0:
139,22,51975,1,4,0:0:0:0:
60,72,52177,6,0,L|44:5,2,67.4999979400635,4|2|10,1:0|1:0|0:0,0:0:0:0:
22,152,52786,1,2,0:0:0:0:
22,152,52887,2,0,P|57:156|93:188,1,67.4999979400635,2|2,1:0|0:0,0:0:0:0:
106,211,53191,1,2,1:0:0:0:
133,294,53394,2,0,L|128:333,2,33.7499989700318,10|0|0,0:0|1:0|0:0,0:0:0:0:
220,287,53799,6,0,P|229:254|213:210,1,67.4999979400635,0|2,1:0|0:0,0:0:0:0:
206,180,54103,1,0,1:0:0:0:
206,180,54204,2,0,L|282:164,1,67.4999979400635,10|2,0:0|0:0,0:0:0:0:
316,160,54509,1,2,1:0:0:0:
410,68,54813,1,2,1:0:0:0:
476,135,55015,2,0,L|508:127,2,33.7499989700318,10|0|0,0:0|1:0|0:0,0:0:0:0:
423,206,55421,6,0,L|414:278,1,67.4999979400635,0|2,1:0|0:0,0:0:0:0:
336,274,55826,2,0,L|344:202,1,67.4999979400635,10|2,0:0|3:0,3:0:0:0:
336,163,56130,1,2,1:0:0:0:
234,83,56434,1,2,1:0:0:0:
151,113,56637,2,0,L|107:104,2,33.7499989700318,10|0|2,0:0|1:0|0:0,0:0:0:0:
217,170,57042,6,0,P|194:200|195:242,1,67.4999979400635,2|2,1:0|0:0,0:0:0:0:
200,271,57346,1,2,1:0:0:0:
200,271,57448,2,0,P|238:276|274:287,1,67.4999979400635,12|0,0:0|0:0,0:0:0:0:
305,304,57752,1,10,0:0:0:0:
305,304,57853,2,0,L|317:259,3,33.7499989700318,0|10|0|10,0:0|0:0|0:0|0:0,0:0:0:0:
352,251,58258,2,0,L|342:218,3,33.7499989700318,2|0|0|0,1:0|1:0|1:0|1:0,0:0:0:0:
326,172,58664,6,0,L|342:89,2,60,4|2|10,0:0|0:0|0:0,0:0:0:0:
247,215,59272,2,0,L|240:255,2,30,2|0|2,1:0|1:0|1:0,0:0:0:0:
210,136,59677,2,0,L|127:151,1,60,4|0,1:0|0:0,0:0:0:0:
74,128,60083,6,0,P|115:143|136:221,1,120,6|2,1:0|1:0,0:0:0:0:
84,266,60691,1,10,0:0:0:0:
109,339,60894,1,2,1:0:0:0:
186,336,61096,2,0,L|179:294,3,30,2|0|0|0,1:0|1:0|1:0|1:0,0:0:0:0:
199,271,61502,2,0,P|231:254|265:262,1,60,14|0,0:0|0:0,0:0:0:0:
320,297,61907,6,0,B|328:251|328:251|346:231|346:231|357:168,1,120,4|10,1:0|0:0,0:0:0:0:
368,108,62515,1,2,1:0:0:0:
368,108,62617,1,0,1:0:0:0:
368,108,62718,1,2,1:0:0:0:
294,80,62921,2,0,L|281:148,1,60,6|2,1:0|0:0,0:0:0:0:
279,216,63326,6,0,B|206:216|243:166|159:164,1,120,6|2,1:0|1:0,0:0:0:0:
104,197,63934,2,0,P|81:168|85:127,1,60,10|2,0:0|1:0,0:0:0:0:
57,70,64340,2,0,P|130:64|195:47,1,120,10|14,0:0|0:0,0:0:0:0:
318,73,65150,6,0,L|330:9,2,60,4|2|10,1:0|0:0|0:0,0:0:0:0:
303,149,65758,1,2,1:0:0:0:
303,149,65860,1,0,1:0:0:0:
303,149,65961,1,2,1:0:0:0:
360,201,66164,2,0,P|401:190|426:193,1,60,4|2,1:0|0:0,0:0:0:0:
457,258,66569,6,0,P|385:279|331:276,1,120,4|2,1:0|1:0,0:0:0:0:
262,271,67177,2,0,L|272:201,1,60,10|2,0:0|0:0,0:0:0:0:
236,140,67583,2,0,P|229:121|224:102,3,30,2|0|0|0,1:0|1:0|1:0|1:0,0:0:0:0:
213,74,67988,2,0,P|180:58|141:66,1,60,14|0,0:0|0:0,0:0:0:0:
96,108,68394,6,0,L|24:98,2,60,4|0|10,1:0|0:0|0:0,0:0:0:0:
153,160,69002,1,2,1:0:0:0:
132,234,69204,1,10,0:0:0:0:
55,248,69407,2,0,L|46:213,2,30,2|0|2,1:0|1:0|1:0,0:0:0:0:
91,317,69813,6,0,P|121:310|161:310,1,60,6|0,1:0|0:0,0:0:0:0:
262,331,70218,1,10,0:0:0:0:
353,364,70421,1,10,0:0:0:0:
424,298,70623,1,10,0:0:0:0:
400,203,70826,2,0,L|319:184,1,75,10|10,0:0|0:0,0:0:0:0:
257,116,71231,2,0,L|338:97,1,75,10|2,0:0|1:0,0:0:0:0:
377,86,71535,1,0,1:0:0:0:
377,86,71637,6,0,P|381:50|390:12,2,75,6|0|0,1:0|1:0|1:0,0:0:0:0:
465,128,72245,2,0,L|505:118,2,37.5,2|0|10,1:0|1:0|0:0,0:0:0:0:
401,202,72650,2,0,L|361:192,2,37.5,0|0|8,1:0|1:0|0:0,0:0:0:0:
465,276,73056,2,0,L|505:266,2,37.5,2|0|10,1:0|1:0|0:0,0:0:0:0:
405,353,73461,1,0,1:0:0:0:
324,297,73664,6,0,L|235:313,1,75,10|8,0:0|0:0,0:0:0:0:
202,322,73968,1,8,0:0:0:0:
202,322,74069,2,0,L|207:279,3,37.5,2|8|8|8,1:0|0:0|0:0|0:0,0:0:0:0:
203,235,74475,1,6,1:0:0:0:
28,148,74880,6,0,L|13:102,2,37.5,4|0|8,1:0|1:0|0:0,0:0:0:0:
121,119,75285,2,0,L|106:73,2,37.5,4|0|8,0:0|1:0|0:0,0:0:0:0:
214,90,75691,2,0,L|199:44,2,37.5,4|0|8,0:0|1:0|0:0,0:0:0:0:
307,61,76096,2,0,L|292:15,2,37.5,4|0|8,0:0|1:0|0:0,0:0:0:0:
408,62,76502,6,0,L|397:98,1,37.5,4|8,1:0|0:0,0:0:0:0:
360,130,76704,2,0,L|371:165,1,37.5,4|8,1:0|0:0,0:0:0:0:
408,197,76907,2,0,L|396:232,1,37.5,4|8,1:0|0:0,0:0:0:0:
363,269,77110,1,4,1:0:0:0:
305,347,77313,2,0,P|288:341|266:339,3,37.5,8|0|0|0,0:0|1:0|1:0|1:0,0:0:0:0:
223,356,77718,1,8,0:0:0:0:
29,381,78123,6,0,L|21:332,1,41.2500012588501,6|2,1:0|0:0,0:0:0:0:
5,289,78326,1,2,1:0:0:0:
41,213,78529,2,0,L|133:197,1,82.5000025177003,10|0,0:0|0:0,0:0:0:0:
176,193,78833,2,0,P|186:163|171:108,1,82.5000025177003,2|2,1:0|0:0,0:0:0:0:
139,73,79137,1,2,1:0:0:0:
218,0,79340,2,0,L|309:20,1,82.5000025177003,10|2,0:0|0:0,0:0:0:0:
344,45,79644,6,0,P|330:80|319:129,1,82.5000025177003,2|2,1:0|0:0,0:0:0:0:
300,174,79948,1,2,1:0:0:0:
368,256,80150,2,0,L|456:239,1,82.5000025177003,10|2,0:0|0:0,0:0:0:0:
501,228,80454,1,2,1:0:0:0:
416,364,80758,2,0,L|330:381,1,82.5000025177003,2|10,1:0|0:0,0:0:0:0:
237,334,81164,1,0,1:0:0:0:
237,334,81265,1,8,0:0:0:0:
237,334,81367,5,6,1:0:0:0:
286,239,81569,1,2,0:0:0:0:
181,212,81772,2,0,L|99:225,1,82.5000025177003,10|2,0:0|0:0,0:0:0:0:
46,214,82076,2,0,P|42:177|58:132,1,82.5000025177003,2|2,1:0|0:0,0:0:0:0:
97,99,82381,1,2,1:0:0:0:
164,32,82583,2,0,L|250:52,1,82.5000025177003,10|2,0:0|0:0,0:0:0:0:
291,76,82887,6,0,P|304:110|293:160,1,82.5000025177003,2|2,1:0|0:0,0:0:0:0:
269,201,83192,1,2,1:0:0:0:
276,307,83394,2,0,L|361:297,1,82.5000025177003,10|2,0:0|0:0,0:0:0:0:
408,278,83698,1,2,1:0:0:0:
471,130,84002,2,0,L|522:140,2,41.2500012588501,2|2|10,1:0|0:0|0:0,0:0:0:0:
432,29,84407,1,8,0:0:0:0:
432,29,84508,1,8,0:0:0:0:
432,29,84610,5,6,1:0:0:0:
325,45,84813,1,2,0:0:0:0:
295,147,85015,2,0,P|258:134|201:124,1,82.5000025177003,10|2,0:0|0:0,0:0:0:0:
170,95,85319,2,0,P|149:125|151:173,1,82.5000025177003,2|2,1:0|0:0,0:0:0:0:
172,218,85623,1,2,1:0:0:0:
175,325,85826,2,0,L|91:309,1,82.5000025177003,10|2,0:0|0:0,0:0:0:0:
50,277,86130,6,0,P|48:239|38:189,1,82.5000025177003,2|2,1:0|0:0,0:0:0:0:
20,144,86434,1,2,1:0:0:0:
54,42,86637,2,0,L|135:62,1,82.5000025177003,10|2,0:0|0:0,0:0:0:0:
179,91,86941,1,2,1:0:0:0:
312,1,87245,2,0,P|348:5|377:49,1,82.5000025177003,2|10,1:0|0:0,0:0:0:0:
397,144,87650,1,0,1:0:0:0:
397,144,87752,1,8,0:0:0:0:
397,144,87853,5,6,1:0:0:0:
457,232,88056,1,2,0:0:0:0:
381,307,88258,2,0,L|300:293,1,82.5000025177003,10|2,0:0|0:0,0:0:0:0:
283,244,88563,2,0,L|202:257,1,82.5000025177003,2|2,1:0|0:0,0:0:0:0:
159,290,88867,1,2,1:0:0:0:
59,251,89069,2,0,P|38:227|43:179,1,82.5000025177003,10|2,0:0|0:0,0:0:0:0:
79,139,89373,6,0,L|162:156,1,82.5000025177003,2|2,1:0|0:0,0:0:0:0:
210,173,89677,1,2,1:0:0:0:
307,128,89880,2,0,L|316:40,1,82.5000025177003,10|0,0:0|1:0,0:0:0:0:
273,12,90184,1,2,0:0:0:0:
273,12,90285,2,0,L|219:0,3,41.2500012588501,6|2|10|8,1:0|0:0|0:0|0:0,0:0:0:0:
194,29,90691,2,0,L|153:38,3,41.2500012588501,10|8|10|8,0:0|0:0|0:0|0:0,0:0:0:0:
460,354,92718,6,0,L|469:274,1,75,6|8,1:0|0:0,0:0:0:0:
456,182,93123,1,2,1:0:0:0:
456,182,93326,2,0,P|392:144|312:164,1,150,12|4,0:0|1:0,0:0:0:0:
251,226,93934,1,10,0:0:0:0:
251,226,94340,6,0,P|216:212|176:209,1,75,6|0,1:0|0:0,0:0:0:0:
128,125,94745,2,0,P|93:138|53:142,1,75,10|0,0:0|0:0,0:0:0:0:
13,167,95049,2,0,P|-3:202|11:245,1,75,0|8,1:0|0:0,0:0:0:0:
31,277,95353,1,0,1:0:0:0:
128,286,95556,2,0,L|118:322,3,37.5,10|0|0|0,0:0|1:0|1:0|1:0,0:0:0:0:
126,370,95961,6,0,P|161:360|204:358,1,75,6|8,1:0|0:0,0:0:0:0:
297,357,96367,1,0,0:0:0:0:
297,357,96569,2,0,L|314:202,1,150,4|0,1:0|1:0,0:0:0:0:
360,122,97177,1,10,0:0:0:0:
360,122,97583,6,0,P|330:101|282:103,1,75,6|0,1:0|0:0,3:0:0:0:
248,120,97887,1,0,1:0:0:0:
248,120,97988,2,0,L|231:42,1,75,10|0,0:0|0:0,0:0:0:0:
208,3,98292,1,4,1:0:0:0:
63,27,98596,1,0,1:0:0:0:
83,122,98799,2,0,L|92:158,3,37.5,10|8|8|8,0:0|0:0|0:0|0:0,0:0:0:0:
96,206,99204,6,0,P|131:204|172:219,1,75,6|8,1:0|0:0,0:0:0:0:
256,261,99610,1,2,1:0:0:0:
233,356,99813,2,0,B|139:333|175:385|76:370,1,150,4|0,1:0|1:0,0:0:0:0:
0,328,100420,1,10,0:0:0:0:
0,328,100826,6,0,L|17:246,1,75,6|0,1:0|0:0,0:0:0:0:
85,186,101231,2,0,L|68:104,1,75,10|0,0:0|0:0,0:0:0:0:
59,64,101535,2,0,P|97:79|144:79,1,75,4|8,1:0|0:0,0:0:0:0:
179,76,101839,1,0,1:0:0:0:
276,84,102042,2,0,L|266:120,3,37.5,2|0|0|0,1:0|1:0|1:0|1:0,0:0:0:0:
246,165,102448,6,0,P|284:167|315:189,1,75,6|8,1:0|0:0,0:0:0:0:
381,257,102853,1,2,1:0:0:0:
381,257,103056,2,0,P|311:270|231:296,1,150,4|0,1:0|1:0,0:0:0:0:
149,338,103664,1,10,0:0:0:0:
149,338,104069,6,0,L|157:260,1,75,6|0,1:0|0:0,0:0:0:0:
68,220,104475,2,0,L|75:145,1,75,10|0,0:0|1:0,0:0:0:0:
83,96,104779,1,8,0:0:0:0:
144,20,104981,1,8,0:0:0:0:
240,35,105184,1,8,0:0:0:0:
253,131,105387,1,8,0:0:0:0:
164,172,105590,1,8,0:0:0:0:
217,308,105894,5,2,0:0:0:0:
217,308,106096,2,0,P|252:310|294:324,1,75,4|2,1:0|0:0,0:0:0:0:
387,334,106502,2,0,L|373:216,1,112.5,2|0,1:0|0:0,0:0:0:0:
376,173,106907,1,10,0:0:0:0:
287,131,107110,6,0,B|228:124|238:165|162:160,1,112.5,2|0,1:0|0:0,0:0:0:0:
135,143,107515,1,2,1:0:0:0:
122,46,107718,2,0,P|80:52|57:86,2,75,10|2|0,0:0|0:0|1:0,0:0:0:0:
218,58,108326,1,2,1:0:0:0:
218,58,108529,2,0,L|292:42,1,75,10|2,0:0|0:0,0:0:0:0:
388,31,108934,5,0,1:0:0:0:
428,119,109137,2,0,L|509:103,2,75,2|10|2,0:0|0:0|0:0,0:0:0:0:
338,156,109745,2,0,P|308:202|323:272,1,112.5,2|0,1:0|0:0,0:0:0:0:
343,295,110150,1,10,0:0:0:0:
292,378,110353,6,0,P|238:361|163:353,1,112.5,2|0,1:0|0:0,0:0:0:0:
134,359,110758,1,2,1:0:0:0:
36,354,110961,2,0,P|44:316|49:275,1,75,10|2,0:0|0:0,0:0:0:0:
68,184,111367,2,0,P|37:167|-3:172,2,75,2|2|10,1:0|1:0|0:0,0:0:0:0:
142,246,111975,1,2,0:0:0:0:
321,171,112380,1,2,0:0:0:0:
321,171,112583,6,0,P|312:136|306:96,1,75,10|0,0:0|0:0,0:0:0:0:
328,2,112988,2,0,B|387:8|365:44|430:53,1,112.5,2|0,1:0|0:0,0:0:0:0:
473,42,113394,1,10,0:0:0:0:
511,131,113596,2,0,P|496:186|484:247,1,112.5,2|0,1:0|0:0,0:0:0:0:
484,289,114002,1,2,1:0:0:0:
437,374,114204,2,0,P|399:363|361:359,1,75,10|2,0:0|0:0,0:0:0:0:
265,362,114610,6,0,P|265:327|289:293,1,75,2|0,1:0|1:0,0:0:0:0:
360,230,115015,1,10,0:0:0:0:
360,230,115218,2,0,L|338:154,1,75,2|0,0:0|1:0,0:0:0:0:
306,65,115623,1,2,0:0:0:0:
224,119,115826,2,0,P|186:122|152:100,1,75,10|2,0:0|0:0,0:0:0:0:
119,12,116231,6,0,L|45:27,1,75,2|0,1:0|0:0,0:0:0:0:
1,115,116637,1,10,0:0:0:0:
1,115,116840,2,0,P|15:150|25:190,1,75,2|0,1:0|0:0,0:0:0:0:
55,278,117245,1,2,1:0:0:0:
128,213,117448,1,10,0:0:0:0:
206,270,117650,1,6,1:0:0:0:
499,18,118664,6,0,L|484:100,1,75,4|2,1:0|0:0,0:0:0:0:
480,189,119069,2,0,P|446:169|406:168,1,75,10|2,0:0|0:0,0:0:0:0:
364,182,119373,1,2,1:0:0:0:
256,82,119677,1,2,1:0:0:0:
180,143,119880,2,0,L|172:191,2,37.5,10|0|2,0:0|1:0|0:0,0:0:0:0:
160,47,120285,6,0,P|120:45|90:69,1,75,0|2,1:0|0:0,0:0:0:0:
63,104,120590,1,2,1:0:0:0:
63,104,120691,2,0,P|74:141|81:181,1,75,10|2,0:0|0:0,0:0:0:0:
95,223,120995,1,2,1:0:0:0:
175,345,121299,1,2,1:0:0:0:
241,273,121502,2,0,L|251:233,2,37.5,10|2|2,0:0|1:0|0:0,0:0:0:0:
300,350,121907,6,0,L|375:336,1,75,0|2,1:0|0:0,0:0:0:0:
420,324,122211,1,2,1:0:0:0:
420,324,122313,2,0,P|428:288|406:249,1,75,10|2,0:0|0:0,0:0:0:0:
376,221,122617,1,2,1:0:0:0:
272,118,122921,1,2,1:0:0:0:
341,49,123123,1,10,0:0:0:0:
341,49,123225,1,2,1:0:0:0:
341,49,123326,1,2,0:0:0:0:
437,64,123529,6,0,P|451:98|448:138,1,75,0|2,1:0|0:0,0:0:0:0:
435,182,123833,1,2,1:0:0:0:
435,182,123934,2,0,L|360:166,1,75,10|2,0:0|0:0,0:0:0:0:
313,156,124238,1,2,1:0:0:0:
167,139,124542,2,0,P|163:158|162:188,1,37.5,2|8,1:0|0:0,0:0:0:0:
158,225,124745,1,2,1:0:0:0:
158,225,124846,1,0,1:0:0:0:
158,225,124948,1,4,0:0:0:0:
208,308,125150,6,0,L|290:294,2,75,4|2|10,1:0|1:0|0:0,0:0:0:0:
136,374,125759,1,2,0:0:0:0:
136,374,125860,2,0,P|102:357|52:358,1,75,2|2,1:0|0:0,0:0:0:0:
17,365,126164,1,2,1:0:0:0:
57,276,126367,2,0,L|103:273,2,37.5,10|0|0,0:0|1:0|0:0,0:0:0:0:
3,194,126772,6,0,P|0:156|16:120,1,75,0|2,1:0|0:0,0:0:0:0:
66,40,127177,2,0,P|100:52|144:62,1,75,10|2,0:0|0:0,0:0:0:0:
178,89,127482,1,2,1:0:0:0:
306,18,127786,1,2,1:0:0:0:
378,82,127988,2,0,L|421:72,2,37.5,10|0|0,0:0|1:0|0:0,0:0:0:0:
284,111,128394,6,0,P|279:147|294:181,1,75,0|2,1:0|0:0,0:0:0:0:
347,263,128799,2,0,L|274:280,1,75,10|2,0:0|0:0,0:0:0:0:
235,310,129103,1,2,1:0:0:0:
141,197,129407,1,2,1:0:0:0:
74,268,129610,2,0,L|32:258,2,37.5,10|0|2,0:0|1:0|0:0,0:0:0:0:
141,197,130015,6,0,P|150:158|155:106,1,75,2|2,1:0|0:0,0:0:0:0:
176,27,130421,2,0,L|258:46,1,75,12|2,0:0|0:0,0:0:0:0:
292,65,130725,1,10,0:0:0:0:
382,30,130927,1,10,0:0:0:0:
465,80,131130,1,10,0:0:0:0:
465,80,131231,2,0,L|452:115,3,37.5,2|0|0|0,1:0|1:0|1:0|1:0,0:0:0:0:
433,160,131637,6,0,P|398:147|351:152,2,75,4|2|10,0:0|0:0|0:0,0:0:0:0:
489,239,132245,1,2,1:0:0:0:
489,239,132346,1,0,1:0:0:0:
489,239,132448,1,2,1:0:0:0:
411,298,132650,2,0,P|373:299|338:286,1,75,4|0,1:0|0:0,0:0:0:0:
240,289,133056,6,0,P|235:217|224:124,1,150,6|2,1:0|1:0,0:0:0:0:
207,43,133664,1,10,0:0:0:0:
116,6,133867,1,2,1:0:0:0:
105,102,134069,2,0,L|67:96,3,37.5,2|0|0|0,1:0|1:0|1:0|1:0,0:0:0:0:
18,96,134475,2,0,P|2:136|19:177,1,75,14|0,0:0|0:0,0:0:0:0:
35,259,134880,6,0,P|88:238|156:228,1,112.5,4|0,1:0|0:0,0:0:0:0:
191,229,135285,1,10,0:0:0:0:
270,285,135488,1,2,1:0:0:0:
270,285,135590,1,0,1:0:0:0:
270,285,135691,1,2,1:0:0:0:
366,270,135894,2,0,P|381:237|370:192,1,75,6|2,1:0|0:0,0:0:0:0:
368,102,136299,6,0,B|311:119|311:119|297:147|297:147|231:165,1,150,6|2,1:0|1:0,0:0:0:0:
142,167,136907,2,0,P|132:137|132:87,1,75,10|2,0:0|1:0,0:0:0:0:
83,7,137313,2,0,P|26:15|4:95,1,150,14|14,0:0|0:0,0:0:0:0:
143,231,138123,6,0,P|178:218|224:212,2,75,4|2|10,1:0|0:0|0:0,0:0:0:0:
86,310,138731,1,2,1:0:0:0:
86,310,138833,1,0,1:0:0:0:
86,310,138934,1,2,1:0:0:0:
176,347,139137,2,0,P|212:340|248:328,1,75,4|2,1:0|0:0,0:0:0:0:
307,251,139542,6,0,B|394:254|352:304|445:305,1,150,4|2,1:0|1:0,0:0:0:0:
503,229,140150,2,0,P|517:196|501:150,1,75,10|2,0:0|0:0,0:0:0:0:
430,98,140556,2,0,L|441:58,3,37.5,2|0|0|0,1:0|1:0|1:0|1:0,0:0:0:0:
452,14,140961,2,0,P|416:24|370:26,1,75,14|0,0:0|0:0,0:0:0:0:
293,75,141367,6,0,L|280:156,2,75,4|0|10,1:0|0:0|0:0,0:0:0:0:
230,0,141975,1,2,1:0:0:0:
134,17,142177,1,10,0:0:0:0:
108,111,142380,1,2,1:0:0:0:
108,111,142785,6,0,B|169:123|141:156|211:171,1,112.5,6|0,1:0|0:0,0:0:0:0:
248,180,143191,1,10,0:0:0:0:
320,245,143394,1,10,0:0:0:0:
287,336,143596,1,10,0:0:0:0:
189,342,143799,2,0,L|108:323,1,75,10|10,0:0|0:0,0:0:0:0:
48,253,144204,2,0,L|121:235,1,75,10|2,0:0|1:0,0:0:0:0:
169,228,144508,1,0,1:0:0:0:
169,228,144610,6,0,P|161:194|182:154,1,75,6|0,1:0|1:0,0:0:0:0:
251,95,145015,1,0,1:0:0:0:
346,75,145218,2,0,L|336:35,2,37.5,2|0|10,1:0|1:0|0:0,0:0:0:0:
411,147,145623,2,0,L|420:183,2,37.5,0|0|8,1:0|1:0|0:0,0:0:0:0:
434,51,146029,2,0,L|424:11,2,37.5,2|0|10,1:0|1:0|0:0,0:0:0:0:
503,119,146434,1,0,1:0:0:0:
497,216,146637,6,0,P|460:203|421:200,1,75,10|8,0:0|0:0,0:0:0:0:
376,208,146941,1,0,0:0:0:0:
376,208,147042,2,0,P|369:227|371:255,3,37.5,2|8|8|8,1:0|0:0|0:0|0:0,0:0:0:0:
369,293,147448,1,6,1:0:0:0:
181,347,147853,6,0,L|169:397,2,37.5,4|0|8,1:0|1:0|0:0,0:0:0:0:
145,255,148258,2,0,L|153:218,2,37.5,0|8|8,1:0|0:0|0:0,0:0:0:0:
78,326,148664,2,0,L|66:376,2,37.5,0|8|8,1:0|0:0|0:0,0:0:0:0:
42,234,149069,2,0,L|50:197,2,37.5,0|8|8,1:0|0:0|0:0,0:0:0:0:
78,326,149475,6,0,P|95:317|118:314,1,37.5,0|8,1:0|0:0,0:0:0:0:
144,277,149677,2,0,P|161:285|184:289,1,37.5,8|8,0:0|0:0,0:0:0:0:
210,326,149880,2,0,P|227:317|250:314,1,37.5,0|8,1:0|0:0,0:0:0:0:
286,287,150083,1,8,0:0:0:0:
383,290,150285,2,0,L|376:253,3,37.5,12|8|8|8,0:0|0:0|0:0|0:0,0:0:0:0:
381,204,150691,1,8,0:0:0:0:
301,26,151096,6,0,P|278:27|255:40,1,41.2500012588501,6|2,1:0|0:0,0:0:0:0:
217,65,151299,1,2,1:0:0:0:
196,170,151502,2,0,L|108:150,1,82.5000025177003,10|0,0:0|0:0,0:0:0:0:
68,124,151806,2,0,P|44:149|48:195,1,82.5000025177003,2|2,1:0|0:0,0:0:0:0:
71,242,152110,1,2,1:0:0:0:
132,329,152313,2,0,P|167:316|214:314,1,82.5000025177003,10|2,0:0|0:0,0:0:0:0:
262,294,152617,6,0,L|270:211,1,82.5000025177003,2|2,1:0|0:0,0:0:0:0:
268,157,152921,1,2,1:0:0:0:
319,63,153123,2,0,P|360:64|398:96,1,82.5000025177003,10|2,0:0|0:0,0:0:0:0:
416,135,153427,1,2,1:0:0:0:
445,293,153731,2,0,P|407:298|363:312,1,82.5000025177003,2|10,1:0|0:0,0:0:0:0:
273,369,154137,1,0,1:0:0:0:
273,369,154238,1,8,0:0:0:0:
273,369,154340,5,6,1:0:0:0:
246,265,154542,1,2,0:0:0:0:
162,333,154745,2,0,P|129:355|80:345,1,82.5000025177003,10|2,0:0|0:0,0:0:0:0:
44,317,155049,2,0,L|53:234,1,82.5000025177003,2|2,1:0|0:0,0:0:0:0:
77,186,155354,1,2,1:0:0:0:
120,88,155556,2,0,P|153:104|204:108,1,82.5000025177003,10|2,0:0|0:0,0:0:0:0:
247,129,155860,6,0,L|237:46,1,82.5000025177003,2|2,1:0|0:0,0:0:0:0:
207,1,156163,1,2,1:0:0:0:
313,1,156367,2,0,P|350:2|381:34,1,82.5000025177003,10|2,0:0|0:0,0:0:0:0:
397,84,156671,1,2,1:0:0:0:
471,226,156975,2,0,L|512:219,2,41.2500012588501,2|2|10,1:0|0:0|0:0,0:0:0:0:
394,301,157380,1,8,0:0:0:0:
394,301,157481,1,8,0:0:0:0:
394,301,157583,5,6,1:0:0:0:
353,201,157786,1,2,0:0:0:0:
264,261,157988,2,0,L|184:285,1,82.5000025177003,10|2,0:0|0:0,0:0:0:0:
131,281,158292,2,0,P|113:246|132:199,1,82.5000025177003,2|2,1:0|0:0,0:0:0:0:
159,165,158596,1,2,1:0:0:0:
208,69,158799,2,0,L|292:87,1,82.5000025177003,10|2,0:0|0:0,0:0:0:0:
342,90,159103,6,0,P|366:122|360:164,1,82.5000025177003,2|2,1:0|0:0,0:0:0:0:
326,203,159407,1,2,1:0:0:0:
299,307,159610,2,0,L|381:325,1,82.5000025177003,10|2,0:0|0:0,0:0:0:0:
432,334,159914,1,2,1:0:0:0:
507,192,160218,2,0,P|511:156|494:111,1,82.5000025177003,2|10,1:0|0:0,0:0:0:0:
426,30,160623,1,0,1:0:0:0:
426,30,160725,1,8,0:0:0:0:
426,30,160826,5,6,1:0:0:0:
321,3,161029,1,2,0:0:0:0:
285,103,161231,2,0,L|200:89,1,82.5000025177003,10|2,0:0|0:0,0:0:0:0:
181,40,161535,2,0,L|95:53,1,82.5000025177003,2|2,1:0|0:0,0:0:0:0:
48,70,161840,1,2,1:0:0:0:
37,176,162042,2,0,P|51:214|61:257,1,82.5000025177003,10|2,0:0|0:0,0:0:0:0:
71,307,162346,6,0,P|108:306|155:325,1,82.5000025177003,2|2,1:0|0:0,0:0:0:0:
198,346,162650,1,2,1:0:0:0:
266,263,162853,2,0,P|269:220|280:175,1,82.5000025177003,14|0,0:0|1:0,0:0:0:0:
285,136,163157,1,2,0:0:0:0:
285,136,163258,2,0,L|332:125,3,41.2500012588501,6|2|10|8,1:0|0:0|0:0|0:0,0:0:0:0:
362,99,163664,2,0,L|403:109,3,41.2500012588501,10|8|10|8,0:0|0:0|0:0|0:0,0:0:0:0:
434,134,164069,6,0,L|426:201,1,50,6|8,1:0|0:0,0:0:0:0:
408,293,164475,1,8,0:0:0:0:
300,236,164745,1,0,1:0:0:0:
300,236,164880,2,0,L|235:269,5,50,8|0|0|0|0|0,0:0|1:0|1:0|1:0|1:0|1:0,0:0:0:0:
212,293,165691,2,0,L|167:270,5,50,8|0|0|0|0|0,0:0|1:0|1:0|1:0|1:0|1:0,0:0:0:0:
120,240,166502,2,0,L|75:262,3,50,8|0|0|4,0:0|1:0|1:0|1:0,0:0:0:0:
0,73,167313,6,0,L|116:47,1,112.5,6|2,1:0|1:0,0:0:0:0:
155,32,167718,2,0,P|186:64|183:104,1,75,10|0,0:0|0:0,0:0:0:0:
180,141,168022,1,10,0:0:0:0:
115,272,168326,1,2,1:0:0:0:
186,338,168529,2,0,L|267:320,1,75,10|0,0:0|1:0,0:0:0:0:
354,342,168934,6,0,L|364:298,3,37.5,10|0|0|0,0:0|1:0|1:0|1:0,0:0:0:0:
403,278,169340,2,0,L|393:234,3,37.5,10|0|0|0,0:0|1:0|1:0|1:0,0:0:0:0:
354,214,169745,2,0,L|364:170,3,37.5,10|0|0|0,0:0|1:0|1:0|1:0,0:0:0:0:
396,142,170150,1,10,0:0:0:0:
257,3,170556,6,0,L|105:47,1,150,6|8,1:0|0:0,0:0:0:0:
18,155,171265,2,0,P|31:205|46:269,1,112.5,2|0,1:0|1:0,0:0:0:0:
119,327,171772,5,10,0:0:0:0:
119,327,171873,2,0,P|169:334|212:285,1,112.5,2|0,1:0|1:0,0:0:0:0:
235,198,172380,2,0,P|219:186|198:182,2,37.5,0|0|8,0:0|1:0|0:0,0:0:0:0:
292,59,172887,2,0,P|347:73|403:70,1,112.5,0|2,1:0|1:0,0:0:0:0:
498,56,173393,2,0,L|503:18,2,37.5,10|2|0,0:0|1:0|0:0,0:0:0:0:
462,147,173799,6,0,P|446:218|443:303,1,150,2|8,1:0|0:0,0:0:0:0:
303,339,174508,2,0,P|251:320|192:316,1,112.5,2|0,1:0|1:0,0:0:0:0:
96,310,175015,5,10,0:0:0:0:
96,310,175117,2,0,L|114:197,1,112.5,0|2,1:0|1:0,0:0:0:0:
73,110,175623,2,0,L|37:101,2,37.5,0|2|8,0:0|1:0|0:0,0:0:0:0:
190,22,176130,2,0,L|292:51,1,75,0|0,1:0|0:0,0:0:0:0:
311,46,176434,1,0,1:0:0:0:
311,46,176535,1,8,0:0:0:0:
311,46,176636,2,0,L|300:-2,2,37.5,0|0|6,1:0|1:0|1:0,0:0:0:0:
406,71,177042,5,0,1:0:0:0:
432,164,177245,1,2,1:0:0:0:
361,231,177448,2,0,P|307:211|242:198,1,112.5,10|2,0:0|1:0,0:0:0:0:
137,119,178056,1,2,1:0:0:0:
57,174,178258,2,0,L|68:220,3,37.5,10|2|2|10,0:0|1:0|0:0|0:0,0:0:0:0:
102,242,178664,2,0,L|91:288,3,37.5,2|2|2|2,1:0|0:0|0:0|1:0,0:0:0:0:
57,310,179069,2,0,L|68:356,2,37.5,10|2|2,0:0|0:0|0:0,0:0:0:0:
100,381,179373,6,0,P|132:365|222:366,1,112.5,2|0,1:0|1:0,0:0:0:0:
304,368,179880,1,10,0:0:0:0:
304,368,179981,2,0,L|315:267,1,75,2|8,1:0|0:0,0:0:0:0:
276,260,180285,2,0,P|242:255|204:235,1,75,2|0,1:0|0:0,0:0:0:0:
136,167,180691,6,0,L|147:66,1,75,8|2,0:0|0:0,0:0:0:0:
140,43,180995,2,0,P|183:16|246:34,1,112.5,0|0,1:0|1:0,0:0:0:0:
331,64,181502,2,0,L|370:51,3,37.5,8|0|0|8,0:0|1:0|0:0|0:0,0:0:0:0:
413,66,181907,6,0,P|402:101|396:146,1,75,0|2,1:0|0:0,0:0:0:0:
406,186,182211,1,0,1:0:0:0:
406,186,182313,1,12,0:0:0:0:
368,275,182515,1,0,1:0:0:0:
368,275,182617,1,8,0:0:0:0:
368,275,182718,2,0,L|326:262,3,37.5,0|0|10|8,1:0|1:0|0:0|0:0,0:0:0:0:
292,235,183123,2,0,L|256:246,3,37.5,8|0|0|0,0:0|1:0|1:0|1:0,0:0:0:0:
214,271,183529,6,0,P|192:235|205:130,1,150,4|10,1:0|0:0,0:0:0:0:
169,8,184238,2,0,P|111:21|50:33,1,112.5,2|2,1:0|1:0,0:0:0:0:
36,126,184745,2,0,L|-1:120,2,37.5,10|0|2,0:0|1:0|0:0,0:0:0:0:
93,204,185150,6,0,P|85:272|88:362,1,150,0|10,1:0|0:0,0:0:0:0:
231,378,185860,2,0,L|343:354,1,112.5,0|2,1:0|1:0,0:0:0:0:
424,304,186366,2,0,L|472:323,2,37.5,8|2|0,0:0|1:0|0:0,0:0:0:0:
420,205,186772,2,0,P|428:170|411:127,1,75,2|0,1:0|0:0,0:0:0:0:
357,55,187177,2,0,L|240:86,1,112.5,10|0,0:0|1:0,0:0:0:0:
102,70,187785,1,2,1:0:0:0:
55,156,187988,2,0,P|39:150|16:146,2,37.5,10|0|2,0:0|1:0|0:0,0:0:0:0:
70,251,188394,6,0,P|94:287|204:282,1,150,2|10,1:0|0:0,0:0:0:0:
223,148,189103,2,0,P|276:164|342:171,1,112.5,2|2,1:0|1:0,0:0:0:0:
403,237,189610,2,0,P|396:256|391:281,2,37.5,0|0|4,1:0|1:0|1:0,0:0:0:0:
375,330,190015,5,0,1:0:0:0:
465,366,190218,1,0,1:0:0:0:
505,277,190421,2,0,L|481:147,1,112.5,10|2,0:0|1:0,3:0:0:0:
361,86,191029,1,0,1:0:0:0:
278,137,191231,2,0,L|286:192,2,37.5,10|0|0,0:0|1:0|0:0,0:0:0:0:
183,110,191637,6,0,P|112:108|64:164,1,150,2|8,1:0|0:0,0:0:0:0:
64,310,192346,2,0,L|181:281,1,112.5,0|0,1:0|1:0,0:0:0:0:
270,294,192853,2,0,P|271:314|279:335,2,37.5,8|0|0,0:0|1:0|0:0,0:0:0:0:
288,198,193258,2,0,L|270:108,1,75,2|2,1:0|0:0,0:0:0:0:
277,24,193664,2,0,P|313:18|350:46,1,75,10|2,0:0|0:0,0:0:0:0:
382,68,193968,1,0,1:0:0:0:
484,172,194272,1,2,1:0:0:0:
419,245,194475,1,10,0:0:0:0:
482,334,194677,1,2,1:0:0:0:
482,334,194779,1,10,0:0:0:0:
482,334,194880,6,0,L|432:351,3,37.5,2|2|10|10,1:0|0:0|0:0|0:0,0:0:0:0:
411,379,195285,2,0,L|375:366,3,37.5,10|10|10|10,0:0|0:0|0:0|0:0,0:0:0:0:
340,334,195691,2,0,L|304:346,3,37.5,10|10|10|10,0:0|0:0|0:0|0:0,0:0:0:0:
269,379,196096,2,0,L|233:366,3,37.5,10|10|10|10,0:0|0:0|0:0|0:0,0:0:0:0:
188,347,196502,6,0,P|184:306|203:273,1,75,4|0,1:0|0:0,0:0:0:0:
239,248,196806,1,0,1:0:0:0:
239,248,196907,1,10,0:0:0:0:
364,173,197211,2,0,L|343:96,1,75,8|0,0:0|0:0,0:0:0:0:
350,52,197515,1,2,1:0:0:0:
266,1,197718,2,0,P|228:0|195:29,1,75,8|0,0:0|0:0,0:0:0:0:
115,70,198123,6,0,P|126:104|136:147,1,75,2|0,1:0|0:0,0:0:0:0:
144,190,198427,1,0,1:0:0:0:
144,190,198529,1,8,0:0:0:0:
178,332,198833,2,0,L|54:312,1,112.5,8|0,0:0|1:0,0:0:0:0:
83,217,199340,2,0,L|194:234,1,112.5,10|0,0:0|0:0,0:0:0:0:
242,241,199745,6,0,P|234:203|233:159,1,75,0|0,1:0|0:0,0:0:0:0:
233,117,200049,1,0,1:0:0:0:
233,117,200150,1,10,0:0:0:0:
323,2,200454,2,0,P|355:25|407:26,1,75,8|0,0:0|0:0,0:0:0:0:
438,26,200758,1,2,1:0:0:0:
506,95,200961,2,0,P|495:131|490:172,1,75,8|0,0:0|0:0,0:0:0:0:
470,264,201367,6,0,P|436:245|395:248,1,75,2|0,1:0|0:0,0:0:0:0:
356,268,201671,1,0,1:0:0:0:
356,268,201772,1,8,0:0:0:0:
215,308,202076,2,0,L|230:192,1,112.5,8|0,0:0|1:0,0:0:0:0:
228,98,202583,1,8,0:0:0:0:
151,37,202785,1,10,0:0:0:0:
151,37,202887,1,8,0:0:0:0:
151,37,202988,6,0,P|112:31|77:52,1,75,4|0,1:0|0:0,0:0:0:0:
53,86,203292,1,0,1:0:0:0:
53,86,203393,1,10,0:0:0:0:
46,232,203698,2,0,L|129:216,1,75,8|0,0:0|0:0,0:0:0:0:
164,235,204001,1,2,1:0:0:0:
259,215,204204,2,0,P|251:251|246:292,1,75,8|0,0:0|0:0,0:0:0:0:
292,375,204610,6,0,P|324:354|370:358,1,75,2|2,1:0|0:0,0:0:0:0:
406,367,204913,1,0,1:0:0:0:
406,367,205015,1,8,0:0:0:0:
510,264,205319,2,0,P|497:212|491:148,1,112.5,8|0,0:0|1:0,0:0:0:0:
456,62,205826,2,0,P|424:43|376:48,1,75,10|0,0:0|0:0,0:0:0:0:
344,67,206130,1,0,1:0:0:0:
344,67,206231,6,0,P|342:106|337:156,1,75,4|0,1:0|0:0,0:0:0:0:
334,190,206535,1,0,1:0:0:0:
334,190,206636,1,10,0:0:0:0:
287,328,206940,2,0,P|256:314|203:304,1,75,8|0,0:0|0:0,0:0:0:0:
168,317,207244,1,2,1:0:0:0:
70,304,207448,2,0,P|60:264|77:235,1,75,8|0,0:0|0:0,0:0:0:0:
166,199,207853,6,0,P|155:161|152:113,1,75,2|0,1:0|0:0,0:0:0:0:
127,83,208157,1,0,1:0:0:0:
127,83,208258,1,8,0:0:0:0:
250,3,208563,2,0,L|373:26,1,112.5,8|0,0:0|1:0,0:0:0:0:
457,30,209069,1,10,0:0:0:0:
501,116,209271,1,0,0:0:0:0:
414,162,209475,6,0,P|376:151|321:147,1,75,6|0,1:0|0:0,0:0:0:0:
293,161,209779,1,0,1:0:0:0:
293,161,209880,1,8,0:0:0:0:
168,238,210184,2,0,L|185:316,1,75,8|0,0:0|0:0,0:0:0:0:
191,359,210488,1,0,1:0:0:0:
94,373,210691,6,0,P|37:367|24:313,1,112.5,10|10,0:0|0:0,0:0:0:0:
32,272,211096,1,6,1:0:0:0:
53,176,211299,2,0,P|104:198|171:198,1,112.5,10|10,0:0|0:0,0:0:0:0:
203,177,211704,1,6,1:0:0:0:
285,124,211907,1,10,0:0:0:0:
285,124,212008,2,0,L|273:79,1,37.5,6|0,1:0|0:0,0:0:0:0:
270,38,212211,1,10,0:0:0:0:
270,38,212313,1,6,1:0:0:0:
464,49,212718,6,0,P|454:71|450:98,1,50,10|2,0:0|1:0,0:0:0:0:
397,134,212988,2,0,P|406:156|411:183,1,50,10|2,0:0|1:0,0:0:0:0:
464,219,213258,2,0,P|454:241|450:268,1,50,10|2,0:0|1:0,0:0:0:0:
408,317,213529,1,10,0:0:0:0:
285,358,213799,6,0,L|233:348,1,50,10|2,0:0|1:0,0:0:0:0:
176,374,214069,2,0,L|124:384,1,50,10|2,0:0|1:0,0:0:0:0:
84,333,214340,6,0,P|91:314|89:290,3,37.5,10|0|2|0,0:0|1:0|1:0|1:0,0:0:0:0:
62,257,214745,2,0,P|55:238|57:214,3,37.5,10|0|2|0,0:0|1:0|1:0|1:0,0:0:0:0:
95,192,215150,2,0,P|102:173|100:149,3,37.5,10|8|10|8,0:0|0:0|0:0|0:0,0:0:0:0:
83,110,215556,1,10,0:0:0:0:
251,9,215961,6,0,L|302:17,1,41.2500012588501,6|2,1:0|0:0,0:0:0:0:
344,28,216164,1,2,1:0:0:0:
434,86,216367,2,0,P|423:123|417:174,1,82.5000025177003,10|0,0:0|0:0,0:0:0:0:
394,215,216671,2,0,P|357:214|310:244,1,82.5000025177003,2|2,1:0|0:0,0:0:0:0:
277,270,216975,1,2,1:0:0:0:
231,367,217178,2,0,L|150:352,1,82.5000025177003,10|2,0:0|0:0,0:0:0:0:
104,324,217481,6,0,P|87:296|92:248,1,82.5000025177003,2|2,1:0|0:0,0:0:0:0:
133,212,217786,1,2,1:0:0:0:
238,196,217988,2,0,L|216:112,1,82.5000025177003,10|2,0:0|0:0,0:0:0:0:
221,62,218292,1,2,1:0:0:0:
91,0,218596,2,0,P|56:-4|23:26,1,82.5000025177003,2|10,1:0|0:0,0:0:0:0:
0,131,219002,1,0,1:0:0:0:
0,131,219103,1,8,0:0:0:0:
0,131,219205,5,6,1:0:0:0:
93,183,219407,1,2,0:0:0:0:
6,246,219610,2,0,P|18:279|26:326,1,82.5000025177003,10|2,0:0|0:0,0:0:0:0:
39,377,219914,2,0,P|70:356|121:358,1,82.5000025177003,2|2,1:0|0:0,0:0:0:0:
167,366,220217,1,2,1:0:0:0:
272,349,220421,2,0,L|255:266,1,82.5000025177003,10|2,0:0|0:0,0:0:0:0:
226,222,220725,6,0,P|251:198|297:192,1,82.5000025177003,2|2,1:0|0:0,0:0:0:0:
343,220,221028,1,2,1:0:0:0:
449,221,221232,2,0,P|448:186|440:140,1,82.5000025177003,10|2,0:0|0:0,0:0:0:0:
409,94,221536,1,2,1:0:0:0:
257,40,221840,2,0,L|250:-5,2,41.2500012588501,2|2|10,1:0|0:0|0:0,0:0:0:0:
210,136,222245,1,8,0:0:0:0:
210,136,222346,1,8,0:0:0:0:
210,136,222448,5,6,1:0:0:0:
129,64,222651,1,2,0:0:0:0:
40,123,222853,2,0,P|49:158|53:208,1,82.5000025177003,10|2,0:0|0:0,0:0:0:0:
52,258,223157,2,0,P|91:258|127:287,1,82.5000025177003,2|2,1:0|0:0,0:0:0:0:
160,323,223461,1,2,1:0:0:0:
265,340,223664,2,0,L|280:256,1,82.5000025177003,10|2,0:0|0:0,0:0:0:0:
260,208,223968,6,0,P|293:189|337:191,1,82.5000025177003,2|2,1:0|0:0,0:0:0:0:
384,215,224272,1,2,1:0:0:0:
488,189,224475,2,0,L|499:103,1,82.5000025177003,10|2,0:0|0:0,0:0:0:0:
499,53,224779,1,2,1:0:0:0:
346,2,225083,2,0,P|311:15|266:25,1,82.5000025177003,2|14,1:0|0:0,0:0:0:0:
162,50,225488,1,0,0:0:0:0:
112,145,225691,6,0,L|126:188,3,41.2500012588501,14|10|10|10,0:0|0:0|0:0|0:0,0:0:0:0:
172,207,226096,2,0,L|158:246,2,41.2500012588501,10|8|10,0:0|0:0|0:0,0:0:0:0:
220,182,226400,2,0,P|258:179|301:201,1,82.5000025177003,6|2,1:0|0:0,0:0:0:0:
345,223,226705,1,6,1:0:0:0:
441,268,226907,2,0,L|420:356,1,82.5000025177003,10|2,0:0|0:0,0:0:0:0:
379,381,227211,6,0,P|348:361|298:366,1,82.5000025177003,2|2,1:0|0:0,0:0:0:0:
249,367,227515,1,2,1:0:0:0:
150,324,227718,2,0,L|164:243,1,82.5000025177003,14|0,0:0|1:0,0:0:0:0:
202,204,228022,1,2,0:0:0:0:
202,204,228123,2,0,P|196:186|197:153,3,41.2500012588501,6|2|10|8,1:0|0:0|0:0|0:0,0:0:0:0:
162,120,228529,2,0,P|167:102|167:69,3,41.2500012588501,10|8|10|8,0:0|0:0|0:0|0:0,0:0:0:0:
207,43,228934,6,0,L|252:54,1,41.2500012588501,6|0,1:0|0:0,0:0:0:0:
285,91,229137,1,2,1:0:0:0:
370,26,229340,2,0,P|391:56|385:101,1,82.5000025177003,10|0,0:0|0:0,0:0:0:0:
347,137,229644,2,0,L|366:220,1,82.5000025177003,2|2,1:0|0:0,0:0:0:0:
394,262,229948,1,2,1:0:0:0:
370,366,230150,2,0,P|337:348|291:352,1,82.5000025177003,10|2,0:0|0:0,0:0:0:0:
239,352,230454,6,0,P|232:315|219:270,1,82.5000025177003,2|2,1:0|0:0,0:0:0:0:
246,225,230758,1,2,1:0:0:0:
222,120,230961,2,0,P|188:103|140:108,1,82.5000025177003,10|2,0:0|0:0,0:0:0:0:
101,139,231265,1,2,1:0:0:0:
5,244,231569,2,0,P|18:279|27:324,1,82.5000025177003,2|10,1:0|0:0,0:0:0:0:
117,382,231975,1,0,1:0:0:0:
117,382,232076,1,8,0:0:0:0:
117,382,232178,5,6,1:0:0:0:
179,295,232380,1,2,0:0:0:0:
252,373,232583,2,0,L|335:357,1,82.5000025177003,10|2,0:0|0:0,0:0:0:0:
386,348,232887,2,0,P|405:318|393:268,1,82.5000025177003,2|2,1:0|0:0,0:0:0:0:
354,239,233190,1,2,1:0:0:0:
253,203,233394,2,0,P|264:165|271:117,1,82.5000025177003,10|2,0:0|0:0,0:0:0:0:
272,68,233698,6,0,P|309:68|355:60,1,82.5000025177003,2|2,1:0|0:0,0:0:0:0:
405,44,234002,1,2,1:0:0:0:
503,85,234204,2,0,L|472:174,1,82.5000025177003,10|2,0:0|0:0,0:0:0:0:
446,208,234509,1,2,1:0:0:0:
471,366,234813,2,0,L|511:359,2,41.2500012588501,2|2|10,1:0|0:0|0:0,0:0:0:0:
390,295,235218,1,8,0:0:0:0:
390,295,235319,1,8,0:0:0:0:
390,295,235421,5,6,1:0:0:0:
315,217,235624,1,2,0:0:0:0:
263,310,235826,2,0,L|179:295,1,82.5000025177003,10|2,0:0|0:0,0:0:0:0:
147,253,236130,2,0,P|157:216|136:166,1,82.5000025177003,2|2,1:0|0:0,0:0:0:0:
122,125,236434,1,2,1:0:0:0:
17,98,236637,2,0,L|37:16,1,82.5000025177003,10|2,0:0|0:0,0:0:0:0:
88,4,236941,6,0,P|124:4|164:28,1,82.5000025177003,2|2,1:0|0:0,0:0:0:0:
194,71,237245,1,2,1:0:0:0:
238,168,237448,2,0,L|322:148,1,82.5000025177003,10|2,0:0|0:0,0:0:0:0:
351,106,237752,1,2,1:0:0:0:
510,86,238056,2,0,P|497:121|488:169,1,82.5000025177003,2|10,1:0|0:0,0:0:0:0:
477,272,238461,1,0,1:0:0:0:
477,272,238563,1,8,0:0:0:0:
477,272,238664,5,6,1:0:0:0:
386,214,238867,1,2,0:0:0:0:
312,291,239069,2,0,P|275:280|231:278,1,82.5000025177003,10|2,0:0|0:0,0:0:0:0:
181,299,239373,2,0,P|181:262|166:220,1,82.5000025177003,2|2,1:0|0:0,0:0:0:0:
169,165,239678,1,2,1:0:0:0:
102,81,239880,2,0,P|66:85|35:120,1,82.5000025177003,10|2,0:0|0:0,0:0:0:0:
15,167,240184,6,0,L|38:249,1,82.5000025177003,2|2,1:0|0:0,0:0:0:0:
40,300,240488,1,2,1:0:0:0:
139,339,240691,2,0,L|224:330,1,82.5000025177003,14|0,0:0|1:0,0:0:0:0:
261,294,240995,1,2,0:0:0:0:
261,294,241096,2,0,P|254:275|249:243,3,41.2500012588501,6|2|10|8,1:0|0:0|0:0|0:0,0:0:0:0:
282,211,241502,2,0,P|288:192|292:163,3,41.2500012588501,10|8|10|8,0:0|0:0|0:0|0:0,0:0:0:0:
259,134,241907,5,6,1:0:0:0:
