osu file format v14

[General]
AudioFilename: audio.mp3
AudioLeadIn: 0
PreviewTime: 151000
Countdown: 0
SampleSet: Soft
StackLeniency: 0.7
Mode: 0
LetterboxInBreaks: 0
WidescreenStoryboard: 0

[Editor]
DistanceSpacing: 0.8
BeatDivisor: 4
GridSize: 32
TimelineZoom: 2.899999

[Metadata]
Title:NONSENSE
TitleUnicode:NONSENSE
Artist:hitorie
ArtistUnicode:ヒトリエ
Creator:Kine
Version:GOCHISOUSAMA
Source:
Tags:jrock japanese j-rock wowaka nonsense Rock WONDER and WONDER
BeatmapID:4068544
BeatmapSetID:1963004

[Difficulty]
HPDrainRate:5
CircleSize:4
OverallDifficulty:9
ApproachRate:9.5
SliderMultiplier:2.5
SliderTickRate:1

[Events]
//Background and Video events
0,0,"c1bae66933fc8895a9ffce524b281d8624683da9_s2_n1.jpg",0,0
//Break Periods
//Storyboard Layer 0 (Background)
//Storyboard Layer 1 (Fail)
//Storyboard Layer 2 (Pass)
//Storyboard Layer 3 (Foreground)
//Storyboard Layer 4 (Overlay)
//Storyboard Sound Samples

[TimingPoints]
286,405.405405405405,4,2,1,60,1,0
7380,-133.333333333333,4,2,1,60,0,0
7684,-133.333333333333,4,2,1,5,0,0
7785,-83.3333333333333,4,2,1,60,0,0
7887,-133.333333333333,4,2,1,5,0,0
7988,-133.333333333333,4,2,1,60,0,0
8394,-83.3333333333333,4,2,1,60,0,0
9002,-100,4,2,1,60,0,0
10927,-133.333333333333,4,2,1,5,0,0
11029,-100,4,2,1,60,0,0
11130,-133.333333333333,4,2,1,5,0,0
11231,-100,4,2,1,60,0,0
11637,-83.3333333333333,4,2,1,60,0,0
17414,-133.333333333333,4,2,1,5,0,0
17515,-83.3333333333333,4,2,1,60,0,0
17617,-133.333333333333,4,2,1,5,0,0
17718,-83.3333333333333,4,2,1,60,0,0
26231,-66.6666666666667,4,2,1,60,0,0
27853,-83.3333333333333,4,2,1,60,0,0
28563,-66.6666666666667,4,2,1,60,0,0
32718,-100,4,2,1,60,0,0
33326,-133.333333333333,4,2,1,60,0,0
33630,-133.333333333333,4,2,1,5,0,0
33731,-83.3333333333333,4,2,1,60,0,0
33934,-133.333333333333,4,2,1,60,0,0
34340,-83.3333333333333,4,2,1,60,0,0
34948,-100,4,2,1,60,0,0
36873,-133.333333333333,4,2,1,5,0,0
36975,-100,4,2,1,60,0,0
37583,-83.3333333333333,4,2,1,60,0,0
40117,-133.333333333333,4,2,1,5,0,0
40218,-83.3333333333333,4,2,1,60,0,0
43360,-133.333333333333,4,2,1,5,0,0
43461,-83.3333333333333,4,2,1,60,0,0
52177,-66.6666666666667,4,2,1,60,0,0
53799,-83.3333333333333,4,2,1,60,0,0
54509,-83.3333333333333,4,2,1,60,0,0
55421,-66.6666666666667,4,2,1,60,0,0
58664,-100,4,2,1,60,0,0
59677,-222.222222222221,4,2,1,60,0,0
59981,-133.333333333333,4,2,1,5,0,0
60083,-100,4,2,1,60,0,0
60387,-133.333333333333,4,2,1,5,0,0
60488,-100,4,2,1,60,0,0
61806,-133.333333333333,4,2,1,5,0,0
61907,-83.3333333333333,4,2,1,60,0,0
62211,-133.333333333333,4,2,1,5,0,0
62313,-83.3333333333333,4,2,1,60,0,0
62921,-100,4,2,1,60,0,0
63326,-83.3333333333333,4,2,1,60,0,0
63630,-133.333333333333,4,2,1,5,0,0
63731,-83.3333333333333,4,2,1,60,0,0
63934,-100,4,2,1,60,0,0
64340,-133.333333333333,4,2,1,60,0,0
64644,-133.333333333333,4,2,1,5,0,0
64745,-100,4,2,1,60,0,0
65049,-133.333333333333,4,2,1,5,0,0
65150,-100,4,2,1,60,0,0
65454,-133.333333333333,4,2,1,5,0,0
65556,-100,4,2,1,60,0,0
65657,-133.333333333333,4,2,1,5,0,0
65758,-100,4,2,1,60,0,0
66569,-83.3333333333333,4,2,1,60,0,0
66873,-133.333333333333,4,2,1,5,0,0
66975,-83.3333333333333,4,2,1,60,0,0
67177,-100,4,2,1,60,0,0
68292,-133.333333333333,4,2,1,5,0,0
68394,-83.3333333333333,4,2,1,60,0,0
68698,-133.333333333333,4,2,1,5,0,0
68799,-83.3333333333333,4,2,1,60,0,0
68900,-133.333333333333,4,2,1,5,0,0
69002,-133.333333333333,4,2,1,60,0,0
69204,-83.3333333333333,4,2,1,60,0,0
69306,-133.333333333333,4,2,1,5,0,0
69407,-83.3333333333333,4,2,1,60,0,0
70218,-83.3333333333333,4,2,1,60,0,0
70319,-133.333333333333,4,2,1,5,0,0
70421,-76.9230769230769,4,2,1,65,0,0
70522,-133.333333333333,4,2,1,5,0,0
70623,-71.4285714285714,4,2,1,70,0,0
70725,-133.333333333333,4,2,1,5,0,0
70826,-66.6666666666667,4,2,1,75,0,0
70927,-133.333333333333,4,2,1,5,0,0
71029,-62.5,4,2,1,80,0,0
71130,-133.333333333333,4,2,1,5,0,0
71231,-58.8235294117647,4,2,1,85,0,0
71333,-133.333333333333,4,2,1,5,0,0
71434,-83.3333333333333,4,2,1,60,0,0
74069,-133.333333333333,4,2,1,60,0,0
74272,-100,4,2,1,60,0,0
74475,-222.222222222221,4,2,1,60,0,0
74779,-133.333333333333,4,2,1,5,0,0
74880,-222.222222222221,4,2,1,60,0,0
76502,-100,4,2,1,60,0,0
76603,-133.333333333333,4,2,1,5,0,0
76704,-100,4,2,1,60,0,0
76806,-133.333333333333,4,2,1,5,0,0
76907,-100,4,2,1,60,0,0
77008,-133.333333333333,4,2,1,5,0,0
77110,-100,4,2,1,60,0,0
77211,-133.333333333333,4,2,1,5,0,0
77313,-100,4,2,1,60,0,0
78123,-66.6666666666667,4,2,2,80,0,1
78225,-66.6666666666667,4,2,1,80,0,1
82076,-50,4,2,1,80,0,1
82380,-66.6666666666667,4,2,1,80,0,1
91096,-100,4,2,1,80,0,0
92718,405.405405405405,4,2,1,60,1,0
93326,-133.333333333333,4,2,1,60,0,0
93630,-133.333333333333,4,2,1,5,0,0
93731,-83.3333333333333,4,2,1,60,0,0
93833,-133.333333333333,4,2,1,5,0,0
93934,-133.333333333333,4,2,1,60,0,0
94340,-83.3333333333333,4,2,1,60,0,0
96873,-133.333333333333,4,2,1,5,0,0
96975,-83.3333333333333,4,2,1,60,0,0
97076,-133.333333333333,4,2,1,5,0,0
97177,-83.3333333333333,4,2,1,60,0,0
97583,-83.3333333333333,4,2,1,60,0,0
100117,-133.333333333333,4,2,1,5,0,0
100218,-83.3333333333333,4,2,1,60,0,0
100319,-133.333333333333,4,2,1,5,0,0
100421,-83.3333333333333,4,2,1,60,0,0
100826,-66.6666666666667,4,2,1,60,0,0
101130,-83.3333333333333,4,2,1,60,0,0
103056,-66.6666666666667,4,2,1,60,0,0
103360,-83.3333333333333,4,2,1,5,0,0
103461,-83.3333333333333,4,2,1,60,0,0
103563,-133.333333333333,4,2,1,5,0,0
103664,-83.3333333333333,4,2,1,60,0,0
106096,-133.333333333333,4,2,1,60,0,0
106806,-133.333333333333,4,2,1,5,0,0
106907,-133.333333333333,4,2,1,60,0,0
107414,-133.333333333333,4,2,1,5,0,0
107515,-133.333333333333,4,2,1,60,0,0
110049,-133.333333333333,4,2,1,5,0,0
110150,-133.333333333333,4,2,1,60,0,0
110657,-133.333333333333,4,2,1,5,0,0
110758,-133.333333333333,4,2,1,60,0,0
113900,-133.333333333333,4,2,1,5,0,0
114002,-133.333333333333,4,2,1,60,0,0
116535,-133.333333333333,4,2,1,5,0,0
116637,-133.333333333333,4,2,1,60,0,0
117144,-133.333333333333,4,2,1,5,0,0
117245,-133.333333333333,4,2,1,60,0,0
118461,-133.333333333333,4,2,1,5,0,0
118664,-83.3333333333333,4,2,1,60,0,0
125150,-66.6666666666667,4,2,1,60,0,0
126772,-83.3333333333333,4,2,1,60,0,0
127482,-83.3333333333333,4,2,1,60,0,0
128394,-66.6666666666667,4,2,1,60,0,0
131637,-100,4,2,1,60,0,0
132650,-222.222222222221,4,2,1,60,0,0
132954,-133.333333333333,4,2,1,5,0,0
133056,-100,4,2,1,60,0,0
133360,-133.333333333333,4,2,1,5,0,0
133461,-100,4,2,1,60,0,0
134779,-133.333333333333,4,2,1,5,0,0
134880,-83.3333333333333,4,2,1,60,0,0
135894,-100,4,2,1,60,0,0
136299,-83.3333333333333,4,2,1,60,0,0
136603,-133.333333333333,4,2,1,5,0,0
136704,-83.3333333333333,4,2,1,60,0,0
136907,-100,4,2,1,60,0,0
137313,-133.333333333333,4,2,1,60,0,0
137617,-133.333333333333,4,2,1,5,0,0
137718,-100,4,2,1,60,0,0
138022,-133.333333333333,4,2,1,5,0,0
138123,-100,4,2,1,60,0,0
139542,-83.3333333333333,4,2,1,60,0,0
139846,-133.333333333333,4,2,1,5,0,0
139948,-83.3333333333333,4,2,1,60,0,0
140150,-100,4,2,1,60,0,0
141265,-133.333333333333,4,2,1,5,0,0
141367,-83.3333333333333,4,2,1,60,0,0
141671,-133.333333333333,4,2,1,5,0,0
141772,-83.3333333333333,4,2,1,60,0,0
141873,-133.333333333333,4,2,1,5,0,0
141975,-83.3333333333333,4,2,1,60,0,0
142279,-133.333333333333,4,2,1,5,0,0
142380,-83.3333333333333,4,2,1,60,0,0
143090,-133.333333333333,4,2,1,5,0,0
143191,-83.3333333333333,4,2,1,60,0,0
143292,-133.333333333333,4,2,1,5,0,0
143394,-83.3333333333333,4,2,1,60,0,0
143495,-133.333333333333,4,2,1,5,0,0
143596,-83.3333333333333,4,2,1,60,0,0
143698,-133.333333333333,4,2,1,5,0,0
143799,-83.3333333333333,4,2,1,60,0,0
143900,-133.333333333333,4,2,1,5,0,0
144002,-83.3333333333333,4,2,1,60,0,0
144103,-133.333333333333,4,2,1,5,0,0
144205,-83.3333333333333,4,2,1,60,0,0
144306,-133.333333333333,4,2,1,5,0,0
144408,-83.3333333333333,4,2,1,60,0,0
147042,-133.333333333333,4,2,1,60,0,0
147448,-222.222222222221,4,2,1,60,0,0
147752,-133.333333333333,4,2,1,5,0,0
147853,-222.222222222221,4,2,1,60,0,0
148056,-181.818181818181,4,2,1,60,0,0
148258,-181.818181818181,4,2,1,65,0,0
148461,-133.333333333333,4,2,1,65,0,0
148664,-133.333333333333,4,2,1,70,0,0
148867,-117.647058823529,4,2,1,70,0,0
149069,-117.647058823529,4,2,1,75,0,0
149272,-105.263157894737,4,2,1,75,0,0
149475,-100,4,2,1,80,0,0
149677,-90.9090909090909,4,2,1,80,0,0
149880,-90.9090909090909,4,2,1,85,0,0
150083,-83.3333333333333,4,2,1,85,0,0
150285,-83.3333333333333,4,2,1,90,0,0
150488,-76.9230769230769,4,2,1,90,0,0
151096,-66.6666666666667,4,2,2,80,0,1
151197,-66.6666666666667,4,2,1,80,0,1
155049,-50,4,2,1,80,0,1
155353,-66.6666666666667,4,2,1,80,0,1
164069,-100,4,2,1,70,0,0
170353,-133.333333333333,4,2,1,70,0,0
170556,-100,4,2,1,70,0,0
179069,-76.9230769230769,4,2,1,70,0,0
209475,-66.6666666666667,4,2,1,70,0,0
215961,-66.6666666666667,4,2,2,80,0,1
216063,-66.6666666666667,4,2,1,80,0,1
219914,-50,4,2,1,80,0,1
220218,-66.6666666666667,4,2,1,80,0,1
228934,-66.6666666666667,4,2,2,80,0,1
229036,-66.6666666666667,4,2,1,80,0,1
241907,-66.6666666666667,4,2,1,80,0,0

[Colours]
Combo1 : 253,179,87
Combo2 : 255,106,106
Combo3 : 199,199,141
Combo4 : 255,196,106
Combo5 : 196,196,196
Combo6 : 247,72,103
Combo7 : 225,217,189

[HitObjects]
54,43,6772,5,6,1:0:0:0:
127,57,6873,1,8,0:0:0:0:
144,130,6975,1,8,0:0:0:0:
90,181,7076,1,0,1:0:0:0:
19,157,7177,2,0,P|11:125|0:98,1,62.5,2|8,1:0|0:0,0:0:0:0:
211,0,7380,6,0,P|229:71|254:133,1,140.625005364418,8|0,0:0|0:0,0:0:0:0:
378,128,7785,2,0,B|349:131|341:144|341:144|344:129|332:102,1,74.9999977111817,0|0,1:0|0:0,0:0:0:0:
385,43,7988,1,10,0:0:0:0:
289,211,8090,1,0,1:0:0:0:
15,86,8394,6,0,P|83:101|101:180,1,149.999995422363,6|0,1:0|0:0,0:0:0:0:
37,286,8698,1,0,1:0:0:0:
37,286,8799,2,0,P|68:267|107:260,1,74.9999977111817,10|0,0:0|0:0,0:0:0:0:
190,211,9002,1,0,0:0:0:0:
155,365,9103,2,0,L|96:342,1,62.5,0|2,1:0|0:0,0:0:0:0:
216,317,9306,1,0,1:0:0:0:
226,335,9407,1,0,1:0:0:0:
281,383,9508,5,8,0:0:0:0:
368,370,9610,1,10,0:0:0:0:
397,288,9711,1,0,1:0:0:0:
337,223,9813,1,0,1:0:0:0:
254,252,9914,1,0,1:0:0:0:
309,304,10015,6,0,P|321:279|333:247,1,62.5,6|8,1:0|0:0,0:0:0:0:
276,178,10218,1,8,0:0:0:0:
422,203,10319,2,0,P|409:178|398:146,1,62.5,0|2,1:0|1:0,0:0:0:0:
324,96,10522,1,8,0:0:0:0:
391,14,10623,6,0,B|388:37|402:62|402:62|364:-9|285:21,1,187.5,4|0,1:0|0:0,0:0:0:0:
235,133,11029,2,0,P|247:160|274:176,1,62.5,0|0,1:0|0:0,0:0:0:0:
337,223,11231,1,10,0:0:0:0:
213,57,11333,1,0,1:0:0:0:
0,273,11637,6,0,B|88:287|27:339|126:352,1,149.999995422363,6|0,1:0|0:0,3:0:0:0:
197,306,11941,1,0,1:0:0:0:
181,229,12042,2,0,P|144:241|126:275,1,74.9999977111817,10|0,0:0|0:0,0:0:0:0:
191,384,12245,1,0,0:0:0:0:
261,351,12346,2,0,P|339:364|419:383,1,149.999995422363,0|8,1:0|0:0,0:0:0:0:
505,358,12650,2,0,P|495:322|457:300,1,74.9999977111817,0|8,1:0|0:0,0:0:0:0:
351,221,12853,5,10,0:0:0:0:
383,296,12954,1,8,0:0:0:0:
465,301,13056,1,8,0:0:0:0:
503,228,13157,1,8,0:0:0:0:
454,161,13258,6,0,P|441:127|431:87,1,74.9999977111817,6|8,1:0|0:0,0:0:0:0:
444,8,13461,1,8,0:0:0:0:
286,169,13563,2,0,P|294:134|309:95,1,74.9999977111817,0|2,1:0|1:0,3:0:0:0:
364,36,13766,1,8,0:0:0:0:
156,105,13867,6,0,B|90:108|45:197|129:262|187:236|208:193|208:193|200:165|213:140,1,299.999990844727,4|0,1:0|0:0,0:0:0:0:
266,17,14475,1,10,0:0:0:0:
351,221,14576,1,0,1:0:0:0:
155,0,14880,6,0,P|87:25|1:37,1,149.999995422363,6|0,1:0|0:0,0:0:0:0:
156,105,15184,1,0,1:0:0:0:
156,105,15285,2,0,P|189:120|240:129,1,74.9999977111817,10|0,0:0|0:0,0:0:0:0:
351,221,15488,1,0,0:0:0:0:
289,181,15590,2,0,B|308:126|308:126|296:96|296:96|314:39,1,149.999995422363,0|8,1:0|0:0,0:0:0:0:
395,0,15894,2,0,P|434:7|460:51,1,74.9999977111817,0|8,1:0|0:0,0:0:0:0:
487,114,16096,5,2,1:0:0:0:
421,150,16198,1,0,1:0:0:0:
482,228,16299,1,0,1:0:0:0:
416,264,16401,1,0,1:0:0:0:
487,328,16502,6,0,P|449:336|411:354,1,74.9999977111817,6|8,1:0|0:0,0:0:0:0:
340,312,16704,1,8,0:0:0:0:
204,237,16806,2,0,P|241:245|280:263,1,74.9999977111817,0|2,1:0|1:0,0:0:0:0:
351,221,17008,1,8,0:0:0:0:
172,384,17110,6,0,B|100:343|112:264|112:264|126:312|175:324,1,224.999993133545,4|0,1:0|0:0,0:0:0:0:
337,343,17515,2,0,B|352:330|371:330|371:330|352:326|336:307,1,74.9999977111817,0|0,1:0|0:0,0:0:0:0:
204,237,17718,1,10,0:0:0:0:
262,384,17819,1,0,1:0:0:0:
296,129,18123,6,0,P|226:144|139:171,1,149.999995422363,6|0,1:0|0:0,0:0:0:0:
204,237,18427,1,0,1:0:0:0:
99,99,18529,2,0,P|74:128|68:164,1,74.9999977111817,10|0,0:0|0:0,0:0:0:0:
65,317,18731,1,0,1:0:0:0:
114,241,18833,5,8,0:0:0:0:
230,384,19035,1,8,0:0:0:0:
354,242,19238,1,8,0:0:0:0:
279,279,19340,5,10,0:0:0:0:
204,237,19441,1,8,0:0:0:0:
209,155,19542,1,0,1:0:0:0:
284,118,19644,1,0,1:0:0:0:
355,160,19745,6,0,P|391:174|433:181,1,74.9999977111817,4|0,1:0|0:0,0:0:0:0:
283,37,19948,1,2,0:0:0:0:
213,74,20049,1,2,1:0:0:0:
209,155,20150,2,0,P|140:137|60:125,1,149.999995422363,10|2,0:0|0:0,0:0:0:0:
120,48,20454,2,0,P|83:43|47:34,1,74.9999977111817,2|0,1:0|0:0,0:0:0:0:
62,125,20657,1,2,0:0:0:0:
7,201,20758,2,0,P|45:207|81:217,1,74.9999977111817,2|0,1:0|0:0,0:0:0:0:
136,300,20961,5,10,0:0:0:0:
136,300,21063,1,0,1:0:0:0:
223,312,21164,2,0,B|239:303|259:302|259:302|238:300|221:287,1,74.9999977111817,2|0,0:0|0:0,0:0:0:0:
349,123,21367,6,0,P|281:152|270:232,1,149.999995422363,0|2,1:0|0:0,0:0:0:0:
331,283,21671,1,2,1:0:0:0:
405,243,21772,2,0,P|380:213|339:203,1,74.9999977111817,10|0,0:0|0:0,0:0:0:0:
261,384,21975,1,2,0:0:0:0:
261,384,22076,6,0,P|294:370|339:363,1,74.9999977111817,2|0,1:0|0:0,0:0:0:0:
331,283,22279,1,2,0:0:0:0:
405,243,22380,2,0,P|438:256|483:264,1,74.9999977111817,2|0,1:0|0:0,0:0:0:0:
421,77,22583,1,10,0:0:0:0:
358,36,22684,1,2,1:0:0:0:
289,65,22785,2,0,P|260:88|248:124,1,74.9999977111817,2|0,0:0|0:0,0:0:0:0:
239,228,22988,6,0,P|173:208|83:193,1,149.999995422363,0|2,1:0|0:0,0:0:0:0:
248,123,23292,1,2,1:0:0:0:
327,181,23394,2,0,P|343:211|335:254,1,74.9999977111817,10|2,0:0|0:0,0:0:0:0:
342,379,23596,1,2,0:0:0:0:
269,326,23698,2,0,L|196:345,1,74.9999977111817,2|0,1:0|0:0,0:0:0:0:
93,194,23900,1,2,0:0:0:0:
166,247,24002,2,0,L|238:227,1,74.9999977111817,2|0,1:0|0:0,0:0:0:0:
102,108,24204,5,10,0:0:0:0:
36,146,24306,1,2,1:0:0:0:
93,194,24407,2,0,P|88:231|79:269,1,74.9999977111817,2|8,0:0|0:0,0:0:0:0:
237,338,24610,6,0,P|246:264|264:189,1,149.999995422363,0|2,1:0|0:0,0:0:0:0:
263,190,24914,1,2,1:0:0:0:
149,320,25015,2,0,P|158:283|165:246,1,74.9999977111817,10|2,0:0|0:0,0:0:0:0:
316,354,25218,1,2,0:0:0:0:
264,190,25319,2,0,P|254:226|247:263,1,74.9999977111817,2|0,1:0|0:0,0:0:0:0:
424,278,25522,1,2,0:0:0:0:
316,354,25623,2,0,P|322:317|332:280,1,74.9999977111817,2|8,1:0|0:0,0:0:0:0:
431,111,25826,5,2,1:0:0:0:
465,192,25927,1,0,1:0:0:0:
344,148,26029,2,0,B|323:116|323:116|280:105,1,74.9999977111817,4|0,0:0|0:0,0:0:0:0:
122,34,26231,6,0,B|158:-5|214:4|239:46|239:46|215:65|211:97,1,187.500007152558,4|2,1:0|1:0,0:0:0:0:
183,175,26535,1,0,0:0:0:0:
238,264,26637,2,0,B|265:261|283:274|283:274|270:255|268:222,1,93.7500035762788,10|0,0:0|0:0,0:0:0:0:
102,130,26840,1,2,0:0:0:0:
102,130,26941,2,0,B|64:167|24:175|24:175|64:186|104:229,1,187.500007152558,2|2,1:0|0:0,0:0:0:0:
250,112,27245,2,0,B|242:85|252:64|252:64|236:81|203:89,1,93.7500035762788,2|0,1:0|0:0,0:0:0:0:
155,298,27448,5,10,0:0:0:0:
238,264,27549,1,0,1:0:0:0:
257,355,27650,2,0,P|303:342|350:337,1,93.7500035762788,0|8,0:0|0:0,0:0:0:0:
469,246,27853,6,0,B|476:295|437:311|437:311|425:269|386:258,1,149.999995422363,0|2,1:0|0:0,0:0:0:0:
319,216,28157,1,0,1:0:0:0:
238,264,28258,2,0,L|223:189,1,74.9999977111817,10|0,0:0|0:0,0:0:0:0:
269,72,28461,1,2,0:0:0:0:
305,0,28563,2,0,P|350:7|370:48,1,93.7500035762788,2|0,1:0|0:0,0:0:0:0:
360,134,28765,1,2,0:0:0:0:
269,72,28867,2,0,P|226:92|176:103,1,93.7500035762788,2|0,1:0|0:0,0:0:0:0:
369,47,29069,5,10,0:0:0:0:
406,60,29171,1,0,1:0:0:0:
440,173,29272,1,0,0:0:0:0:
506,136,29374,1,8,0:0:0:0:
360,134,29475,2,0,P|348:177|371:232,1,93.7500035762788,0|0,1:0|0:0,0:0:0:0:
410,289,29677,1,2,0:0:0:0:
222,295,29779,1,0,1:0:0:0:
222,295,29880,6,0,B|205:274|184:268|184:268|206:265|229:249,1,93.7500035762788,10|0,0:0|3:0,3:0:0:0:
303,277,30083,1,2,3:0:0:0:
348,344,30184,2,0,B|336:367|339:389|339:389|328:370|304:356,1,93.7500035762788,2|0,1:0|3:0,3:0:0:0:
303,277,30387,1,2,3:0:0:0:
325,198,30488,2,0,B|350:191|365:175|365:175|357:196|362:223,1,93.7500035762788,2|0,1:0|3:0,3:0:0:0:
158,344,30691,5,10,0:0:0:0:
111,285,30792,1,0,1:0:0:0:
175,236,30894,1,2,0:0:0:0:
222,295,30995,1,8,0:0:0:0:
26,294,31096,6,0,P|38:249|44:199,1,93.7500035762788,2|0,1:0|0:0,0:0:0:0:
114,98,31299,1,2,0:0:0:0:
107,89,31400,2,0,B|112:66|135:51|135:51|141:76|162:90,1,93.7500035762788,2|8,1:0|0:0,0:0:0:0:
116,175,31603,1,2,0:0:0:0:
33,119,31704,1,2,0:0:0:0:
211,28,31806,6,0,P|252:49|302:65,1,93.7500035762788,10|0,0:0|0:0,0:0:0:0:
481,57,32008,6,8,P|439:77|402:106,1,93.7500035762788,10|0,0:0|0:0,0:0:0:0:
328,265,32211,5,10,0:0:0:0:
328,265,32313,1,4,0:0:0:0:
116,175,32718,5,6,1:0:0:0:
45,199,32819,1,8,0:0:0:0:
41,274,32921,1,8,0:0:0:0:
98,321,33022,1,0,1:0:0:0:
170,301,33123,2,0,P|179:272|186:228,1,62.5,2|8,1:0|0:0,0:0:0:0:
328,233,33326,6,0,P|308:294|293:388,1,140.625005364418,12|0,0:0|0:0,0:0:0:0:
381,175,33731,2,0,B|360:143|360:143|320:157,1,74.9999977111817,4|0,1:0|0:0,0:0:0:0:
231,226,33934,1,10,0:0:0:0:
455,204,34036,1,0,1:0:0:0:
289,41,34340,6,0,B|198:57|252:103|153:121,1,149.999995422363,6|0,1:0|0:0,0:0:0:0:
59,72,34644,1,0,1:0:0:0:
59,72,34745,2,0,P|71:37|78:-4,1,74.9999977111817,10|0,0:0|0:0,0:0:0:0:
154,39,34948,1,0,0:0:0:0:
67,158,35049,2,0,P|34:160|8:135,1,62.5,0|2,1:0|0:0,0:0:0:0:
166,118,35252,1,0,1:0:0:0:
172,137,35353,1,0,1:0:0:0:
198,206,35454,5,8,0:0:0:0:
247,148,35556,1,10,0:0:0:0:
321,148,35657,1,0,1:0:0:0:
372,202,35759,1,0,1:0:0:0:
365,276,35860,1,0,1:0:0:0:
306,322,35961,6,0,P|276:310|238:306,1,62.5,6|8,1:0|0:0,0:0:0:0:
170,334,36164,1,8,0:0:0:0:
198,206,36265,2,0,P|168:217|130:222,1,62.5,0|2,1:0|1:0,0:0:0:0:
76,300,36468,1,8,0:0:0:0:
0,55,36569,6,0,B|31:1|99:21|110:63|110:63|92:83|87:114,1,187.5,4|0,1:0|0:0,0:0:0:0:
55,207,36975,2,0,P|80:194|125:187,1,62.5,0|0,1:0|0:0,0:0:0:0:
198,206,37177,1,10,0:0:0:0:
14,136,37279,1,0,1:0:0:0:
317,79,37583,6,0,P|249:108|168:123,1,149.999995422363,6|0,1:0|0:0,3:0:0:0:
88,104,37887,1,0,1:0:0:0:
194,9,37988,2,0,P|221:27|231:70,1,74.9999977111817,10|0,0:0|0:0,0:0:0:0:
198,206,38191,1,0,0:0:0:0:
397,183,38292,2,0,L|237:143,1,149.999995422363,8|8,0:0|0:0,0:0:0:0:
118,218,38596,2,0,P|126:253|155:275,1,74.9999977111817,0|8,1:0|0:0,0:0:0:0:
210,347,38799,5,10,0:0:0:0:
277,288,38900,1,8,0:0:0:0:
334,358,39002,1,8,0:0:0:0:
405,303,39103,1,8,0:0:0:0:
412,214,39204,6,0,P|373:216|341:250,1,74.9999977111817,6|8,1:0|0:0,0:0:0:0:
334,358,39407,1,8,0:0:0:0:
269,218,39508,2,0,P|260:256|286:296,1,74.9999977111817,0|2,1:0|1:0,3:0:0:0:
405,303,39711,1,8,0:0:0:0:
287,133,39813,6,0,B|285:105|224:90|182:141|193:158|188:156|199:176|188:232|127:241|89:221,1,224.999993133545,4|0,1:0|0:0,0:0:0:0:
111,220,40218,1,0,1:0:0:0:
269,218,40421,1,10,0:0:0:0:
75,125,40522,1,0,1:0:0:0:
286,34,40826,6,0,P|354:35|382:106,1,149.999995422363,6|0,1:0|0:0,0:0:0:0:
351,221,41130,1,0,1:0:0:0:
351,221,41231,2,0,P|387:207|435:197,1,74.9999977111817,10|0,0:0|0:0,0:0:0:0:
287,133,41434,1,0,0:0:0:0:
203,87,41535,2,0,B|124:100|166:148|73:161,1,149.999995422363,0|8,1:0|0:0,0:0:0:0:
230,0,41840,2,0,P|263:3|286:43,1,74.9999977111817,0|8,1:0|0:0,0:0:0:0:
287,133,42042,5,2,1:0:0:0:
365,87,42144,1,0,1:0:0:0:
440,135,42245,1,0,1:0:0:0:
426,224,42347,1,0,1:0:0:0:
338,244,42448,6,0,P|300:252|262:270,1,74.9999977111817,6|8,1:0|0:0,0:0:0:0:
209,335,42650,1,8,0:0:0:0:
192,192,42752,2,0,P|173:226|163:266,1,74.9999977111817,0|2,1:0|1:0,0:0:0:0:
299,349,42954,1,8,0:0:0:0:
272,97,43056,6,0,B|229:59|151:73|134:134|134:134|158:107|196:110,1,224.999993133545,4|0,1:0|0:0,0:0:0:0:
278,202,43461,2,0,B|297:201|312:213|312:213|300:198|300:173,1,74.9999977111817,0|0,1:0|0:0,0:0:0:0:
192,192,43664,1,10,0:0:0:0:
265,0,43765,1,0,1:0:0:0:
0,307,44069,6,0,P|76:312|144:347,1,149.999995422363,6|0,1:0|0:0,0:0:0:0:
213,374,44373,1,0,1:0:0:0:
145,260,44475,2,0,P|107:261|79:289,1,74.9999977111817,10|0,0:0|0:0,0:0:0:0:
49,384,44677,1,0,1:0:0:0:
224,292,44779,5,8,0:0:0:0:
19,220,44981,1,8,0:0:0:0:
195,71,45184,1,8,0:0:0:0:
220,141,45285,5,10,0:0:0:0:
297,170,45387,1,8,0:0:0:0:
362,120,45488,1,0,1:0:0:0:
359,37,45590,1,0,1:0:0:0:
285,0,45691,6,0,L|289:86,1,74.9999977111817,4|0,1:0|0:0,0:0:0:0:
297,170,45894,1,2,0:0:0:0:
220,141,45995,1,2,1:0:0:0:
232,230,46096,2,0,P|300:212|381:200,1,149.999995422363,10|2,0:0|0:0,0:0:0:0:
512,261,46400,2,0,P|474:264|434:271,1,74.9999977111817,2|0,1:0|0:0,0:0:0:0:
378,200,46603,1,2,0:0:0:0:
498,108,46704,2,0,P|461:114|423:118,1,74.9999977111817,2|0,1:0|0:0,0:0:0:0:
359,37,46907,5,10,0:0:0:0:
359,37,47009,1,0,1:0:0:0:
278,0,47110,2,0,B|260:8|241:3|241:3|260:10|271:29,1,74.9999977111817,2|8,0:0|0:0,0:0:0:0:
205,76,47313,6,0,B|117:103|187:144|83:178,1,149.999995422363,0|2,1:0|0:0,0:0:0:0:
0,152,47617,1,2,1:0:0:0:
15,61,47718,2,0,P|51:66|76:108,1,74.9999977111817,10|0,0:0|0:0,0:0:0:0:
99,173,47921,1,2,0:0:0:0:
229,154,48022,6,0,P|214:187|203:240,1,74.9999977111817,2|0,1:0|0:0,0:0:0:0:
240,303,48225,1,2,0:0:0:0:
110,284,48326,2,0,P|124:317|136:370,1,74.9999977111817,2|0,1:0|0:0,0:0:0:0:
214,384,48529,1,10,0:0:0:0:
240,303,48630,1,2,1:0:0:0:
321,333,48731,2,0,P|359:337|400:349,1,74.9999977111817,2|8,0:0|0:0,0:0:0:0:
512,247,48934,6,0,P|439:239|361:216,1,149.999995422363,0|2,1:0|0:0,0:0:0:0:
328,141,49238,1,2,1:0:0:0:
411,156,49340,2,0,P|439:179|439:223,1,74.9999977111817,10|2,0:0|0:0,0:0:0:0:
402,290,49542,1,2,0:0:0:0:
284,222,49644,2,0,P|287:258|316:282,1,74.9999977111817,2|0,1:0|0:0,0:0:0:0:
240,150,49846,1,2,0:0:0:0:
319,51,49948,2,0,P|353:64|390:70,1,74.9999977111817,2|0,1:0|0:0,0:0:0:0:
234,64,50150,5,10,0:0:0:0:
164,109,50252,1,2,1:0:0:0:
90,72,50353,2,0,P|100:36|107:-3,1,74.9999977111817,2|8,0:0|0:0,0:0:0:0:
19,162,50556,6,0,B|108:164|58:217|160:223,1,149.999995422363,0|2,1:0|0:0,0:0:0:0:
240,150,50860,1,2,1:0:0:0:
166,295,50961,2,0,P|159:261|149:221,1,74.9999977111817,10|2,0:0|0:0,0:0:0:0:
349,183,51164,1,2,0:0:0:0:
275,328,51265,2,0,P|268:294|258:254,1,74.9999977111817,2|0,1:0|0:0,0:0:0:0:
458,216,51468,1,2,0:0:0:0:
384,361,51569,2,0,P|377:327|367:287,1,74.9999977111817,2|8,1:0|0:0,0:0:0:0:
349,183,51772,5,2,1:0:0:0:
419,140,51873,1,0,1:0:0:0:
392,61,51975,2,0,P|352:48|314:61,1,74.9999977111817,4|0,0:0|0:0,0:0:0:0:
154,0,52177,6,0,B|236:3|243:87|243:87|227:66|202:58,1,187.500007152558,4|2,1:0|1:0,0:0:0:0:
173,138,52481,1,0,0:0:0:0:
107,179,52583,2,0,L|14:157,1,93.7500035762788,10|0,0:0|0:0,0:0:0:0:
235,207,52785,1,2,0:0:0:0:
182,279,52887,2,0,L|-1:235,1,187.500007152558,2|2,1:0|0:0,0:0:0:0:
91,339,53191,2,0,L|0:317,1,93.7500035762788,2|0,1:0|0:0,0:0:0:0:
182,279,53394,5,10,0:0:0:0:
206,359,53495,1,0,1:0:0:0:
286,335,53596,2,0,P|332:322|379:317,1,93.7500035762788,0|8,0:0|0:0,0:0:0:0:
490,220,53799,6,0,B|458:246|461:288|461:288|448:246|407:235,1,149.999995422363,0|2,1:0|0:0,0:0:0:0:
333,239,54103,1,0,1:0:0:0:
397,158,54204,2,0,P|429:140|471:145,1,74.9999977111817,10|0,0:0|0:0,0:0:0:0:
413,236,54407,1,2,0:0:0:0:
313,158,54508,2,0,P|321:120|327:66,1,74.9999977111817,2|0,1:0|0:0,0:0:0:0:
295,0,54711,1,2,0:0:0:0:
244,73,54813,2,0,P|239:110|231:146,1,74.9999977111817,2|0,1:0|0:0,0:0:0:0:
155,197,55015,5,10,0:0:0:0:
99,132,55117,1,0,1:0:0:0:
34,188,55218,1,0,0:0:0:0:
90,253,55319,1,8,0:0:0:0:
155,197,55421,6,0,P|197:178|247:181,1,93.7500035762788,0|0,1:0|0:0,0:0:0:0:
246,292,55623,1,2,0:0:0:0:
246,292,55725,1,0,1:0:0:0:
246,292,55826,6,0,B|215:280|189:286|189:286|210:269|225:238,1,93.7500035762788,10|0,0:0|3:0,3:0:0:0:
324,219,56029,1,2,3:0:0:0:
431,244,56130,2,0,B|432:275|448:297|448:297|425:283|391:283,1,93.7500035762788,2|0,1:0|3:0,3:0:0:0:
324,219,56333,1,2,3:0:0:0:
280,121,56434,2,0,B|302:98|308:72|308:72|312:99|334:124,1,93.7500035762788,2|0,1:0|3:0,3:0:0:0:
324,219,56637,5,10,0:0:0:0:
246,187,56738,1,0,1:0:0:0:
194,254,56840,1,2,0:0:0:0:
114,227,56941,1,8,0:0:0:0:
44,273,57042,6,0,P|28:230|51:175,1,93.7500035762788,2|0,1:0|0:0,0:0:0:0:
174,76,57245,1,2,0:0:0:0:
181,88,57346,2,0,P|155:126|112:142,1,93.7500035762788,2|12,1:0|0:0,0:0:0:0:
25,91,57549,1,2,0:0:0:0:
25,91,57752,5,10,0:0:0:0:
25,91,57853,2,0,P|14:40|2:-6,3,93.7500035762788,0|10|0|10,0:0|0:0|0:0|0:0,0:0:0:0:
107,143,58258,5,2,1:0:0:0:
174,177,58360,1,0,1:0:0:0:
244,152,58461,1,0,1:0:0:0:
270,81,58563,1,0,1:0:0:0:
227,18,58664,6,0,L|93:37,2,125,4|2|10,0:0|0:0|0:0,0:0:0:0:
394,72,59272,1,2,1:0:0:0:
429,106,59373,1,0,1:0:0:0:
404,149,59475,1,2,1:0:0:0:
237,126,59677,2,0,L|341:115,1,84.3749974250794,4|0,1:0|0:0,0:0:0:0:
512,216,60083,6,0,B|404:196|439:277|330:255,1,187.5,6|0,1:0|0:0,0:0:0:0:
320,255,60488,1,2,1:0:0:0:
237,126,60691,1,10,0:0:0:0:
429,106,60894,1,2,1:0:0:0:
230,218,61096,5,2,1:0:0:0:
183,198,61198,1,0,1:0:0:0:
137,218,61299,1,0,1:0:0:0:
122,272,61400,1,0,1:0:0:0:
59,281,61502,6,0,B|51:225|13:201|13:201|59:210|100:166,1,187.5,14|0,0:0|0:0,0:0:0:0:
325,159,61907,6,0,B|324:90|272:54|216:71|216:71|239:97|236:133,1,224.999993133545,4|0,1:0|0:0,0:0:0:0:
236,125,62313,1,10,0:0:0:0:
29,122,62515,1,2,1:0:0:0:
5,82,62617,1,0,1:0:0:0:
34,47,62718,1,2,1:0:0:0:
138,36,62921,6,0,L|114:163,1,125,6|2,1:0|0:0,0:0:0:0:
0,224,63326,6,0,B|26:189|121:230|75:283|145:322|186:299,1,224.999993133545,6|0,1:0|0:0,0:0:0:0:
185,299,63731,1,2,1:0:0:0:
257,166,63934,2,0,P|202:165|169:224,1,125,10|2,0:0|1:0,0:0:0:0:
212,384,64340,6,0,P|280:360|360:344,1,140.625005364418,10|0,0:0|0:0,0:0:0:0:
444,330,64745,2,0,P|359:301|260:281,1,187.5,14|0,0:0|0:0,0:0:0:0:
185,299,65150,5,4,1:0:0:0:
354,299,65353,2,0,P|359:266|365:235,1,62.5,2|0,0:0|0:0,0:0:0:0:
274,220,65556,2,0,P|268:252|262:283,1,62.5,10|0,0:0|0:0,0:0:0:0:
323,149,65758,1,2,1:0:0:0:
294,123,65860,1,0,1:0:0:0:
258,136,65961,1,2,1:0:0:0:
185,299,66164,6,0,P|125:283|49:277,1,125,4|2,1:0|0:0,0:0:0:0:
274,219,66569,6,0,P|172:188|42:173,1,224.999993133545,4|0,1:0|0:0,0:0:0:0:
55,174,66975,1,2,1:0:0:0:
158,167,67177,2,0,P|155:105|94:81,1,125,10|2,0:0|0:0,0:0:0:0:
138,330,67583,5,2,1:0:0:0:
185,299,67684,1,0,1:0:0:0:
239,310,67785,1,0,1:0:0:0:
270,357,67887,1,0,1:0:0:0:
324,370,67988,2,0,B|386:334|372:253|372:253|368:283|340:301,1,187.5,14|0,0:0|0:0,0:0:0:0:
393,127,68394,6,0,B|326:96|288:158|288:158|272:220|209:218,1,224.999993133545,4|0,1:0|0:0,0:0:0:0:
197,215,68799,2,2,P|173:186|176:141,1,74.9999977111817,10|2,0:0|0:0,0:0:0:0:
206,56,69002,1,2,1:0:0:0:
85,132,69204,2,0,P|91:94|128:68,1,74.9999977111817,10|0,0:0|0:0,0:0:0:0:
273,0,69407,1,2,1:0:0:0:
287,3,69508,1,0,1:0:0:0:
301,6,69609,1,2,1:0:0:0:
69,242,69813,6,0,L|28:18,1,224.999993133545,6|0,1:0|0:0,0:0:0:0:
16,9,70218,6,0,L|34:111,1,74.9999977111817,10|0,0:0|0:0,0:0:0:0:
113,277,70421,2,0,L|93:173,1,81.2499962806703,10|0,0:0|0:0,0:0:0:0:
194,22,70623,2,0,L|212:124,1,87.499997329712,10|0,0:0|0:0,0:0:0:0:
297,311,70826,2,0,L|277:207,1,93.7500035762788,10|0,0:0|0:0,0:0:0:0:
374,36,71029,2,0,L|392:138,1,100,10|0,0:0|0:0,0:0:0:0:
503,333,71232,2,0,L|483:229,1,106.250002026558,10|0,0:0|0:0,0:0:0:0:
287,16,71434,1,2,1:0:0:0:
287,16,71535,1,0,1:0:0:0:
287,16,71637,5,6,1:0:0:0:
374,36,71840,1,0,1:0:0:0:
461,56,72042,1,0,1:0:0:0:
204,184,72245,5,2,1:0:0:0:
197,162,72346,1,0,1:0:0:0:
212,144,72448,1,10,0:0:0:0:
332,194,72650,5,0,1:0:0:0:
354,221,72752,1,0,1:0:0:0:
344,254,72853,1,8,0:0:0:0:
142,384,73056,5,2,1:0:0:0:
127,334,73157,1,0,1:0:0:0:
160,294,73259,1,10,0:0:0:0:
276,322,73461,1,0,1:0:0:0:
44,266,73664,1,10,0:0:0:0:
160,294,73867,5,8,0:0:0:0:
176,238,73968,1,8,0:0:0:0:
140,194,74069,2,0,L|86:211,1,46.8750017881394,2|8,1:0|0:0,0:0:0:0:
117,114,74272,2,0,L|57:132,1,62.5,8|8,0:0|0:0,0:0:0:0:
94,34,74475,6,0,L|1:63,1,84.3749974250794,6|0,1:0|0:0,0:0:0:0:
164,0,74880,5,4,1:0:0:0:
173,7,74981,1,0,1:0:0:0:
175,19,75083,1,8,0:0:0:0:
172,30,75184,1,8,0:0:0:0:
275,38,75285,5,4,0:0:0:0:
281,51,75386,1,0,1:0:0:0:
277,65,75488,1,8,0:0:0:0:
266,78,75589,1,8,0:0:0:0:
356,121,75691,5,4,0:0:0:0:
356,137,75792,1,0,1:0:0:0:
344,151,75894,1,8,0:0:0:0:
327,159,75995,1,8,0:0:0:0:
390,225,76096,5,4,0:0:0:0:
381,242,76197,1,0,1:0:0:0:
358,252,76299,1,8,0:0:0:0:
334,253,76400,1,8,0:0:0:0:
200,228,76502,6,0,P|208:200|218:159,1,62.5,4|8,1:0|0:0,0:0:0:0:
307,315,76704,2,0,P|315:287|325:246,1,62.5,4|8,1:0|0:0,0:0:0:0:
132,297,76907,2,0,P|123:269|114:228,1,62.5,4|8,1:0|0:0,0:0:0:0:
25,384,77110,2,0,P|16:356|7:315,1,62.5,4|8,1:0|0:0,0:0:0:0:
0,147,77313,5,8,0:0:0:0:
32,94,77414,1,0,1:0:0:0:
100,85,77515,1,0,1:0:0:0:
159,131,77617,1,0,1:0:0:0:
234,102,77718,5,8,0:0:0:0:
85,164,77819,1,4,1:0:0:0:
360,27,78123,5,6,1:0:0:0:
439,43,78225,1,2,0:0:0:0:
333,40,78326,1,2,1:0:0:0:
454,64,78428,1,2,0:0:0:0:
371,131,78529,6,0,B|308:131|308:67|308:67|286:22|238:26,1,187.500007152558,10|0,0:0|0:0,0:0:0:0:
67,154,78833,2,0,B|68:78|153:81|153:81|145:112|166:139,1,187.500007152558,2|2,1:0|0:0,0:0:0:0:
256,178,79137,1,2,1:0:0:0:
234,102,79238,1,2,0:0:0:0:
145,241,79340,2,0,P|237:255|340:286,1,187.500007152558,10|2,0:0|0:0,0:0:0:0:
506,190,79644,6,0,B|434:157|395:225|395:225|416:249|415:286,1,187.500007152558,2|2,1:0|0:0,0:0:0:0:
269,331,79948,2,0,P|284:287|329:280,1,93.7500035762788,2|2,1:0|0:0,0:0:0:0:
351,384,80150,2,0,L|143:339,1,187.500007152558,10|2,0:0|0:0,0:0:0:0:
201,266,80454,2,0,P|271:274|284:378,1,187.500007152558,2|0,1:0|0:0,0:0:0:0:
167,344,80758,6,0,P|160:297|141:250,1,93.7500035762788,2|0,1:0|0:0,0:0:0:0:
419,167,80961,2,0,P|425:213|445:261,1,93.7500035762788,10|0,0:0|0:0,0:0:0:0:
281,246,81164,1,0,1:0:0:0:
276,166,81265,1,8,0:0:0:0:
271,86,81367,5,6,1:0:0:0:
198,120,81468,1,2,0:0:0:0:
350,108,81569,1,2,0:0:0:0:
209,36,81670,1,2,1:0:0:0:
362,25,81772,6,0,B|474:37|401:98|515:121,1,187.500007152558,10|2,0:0|0:0,0:0:0:0:
389,248,82076,2,0,B|441:210|434:138|334:111|315:190|315:190|332:210|332:234,1,250,2|2,1:0|0:0,0:0:0:0:
353,371,82380,2,0,P|311:353|260:343,1,93.7500035762788,2|2,1:0|0:0,0:0:0:0:
72,308,82583,2,0,P|164:290|251:255,1,187.500007152558,10|2,0:0|0:0,0:0:0:0:
307,81,82887,6,0,P|268:105|248:149,1,93.7500035762788,2|0,1:0|0:0,0:0:0:0:
250,255,83090,1,2,0:0:0:0:
75,207,83191,2,0,P|118:192|165:205,1,93.7500035762788,2|2,1:0|0:0,0:0:0:0:
512,192,83394,2,0,B|447:170|447:170|396:183|396:183|333:162,1,187.500007152558,10|2,0:0|0:0,0:0:0:0:
364,3,83698,6,0,P|401:29|404:79,2,93.7500035762788,2|0|2,1:0|0:0|0:0,0:0:0:0:
284,0,84002,1,2,1:0:0:0:
220,55,84103,1,2,0:0:0:0:
256,129,84204,5,10,0:0:0:0:
288,325,84407,1,8,0:0:0:0:
351,269,84508,1,8,0:0:0:0:
315,195,84609,5,6,1:0:0:0:
178,122,84711,1,2,0:0:0:0:
340,113,84813,1,2,0:0:0:0:
209,201,84915,1,2,1:0:0:0:
312,26,85015,6,0,B|371:-1|413:51|413:51|426:96|465:103,1,187.500007152558,10|2,0:0|0:0,0:0:0:0:
178,122,85319,2,0,P|133:108|76:100,1,93.7500035762788,2|0,1:0|0:0,0:0:0:0:
340,113,85522,1,2,0:0:0:0:
236,240,85623,2,0,P|191:226|134:218,1,93.7500035762788,2|2,1:0|0:0,0:0:0:0:
406,187,85826,2,0,P|479:223|469:319,1,187.500007152558,10|2,0:0|0:0,0:0:0:0:
356,325,86130,6,0,B|322:217|322:217|336:260|373:267,1,187.500007152558,2|2,1:0|0:0,0:0:0:0:
264,330,86434,2,0,L|237:241,1,93.7500035762788,2|2,1:0|0:0,0:0:0:0:
81,259,86637,2,0,B|187:242|126:173|226:153,1,187.500007152558,10|2,0:0|0:0,0:0:0:0:
256,77,86941,1,2,1:0:0:0:
256,77,87042,6,0,P|292:104|308:156,1,93.7500035762788,2|0,0:0|0:0,0:0:0:0:
499,94,87245,2,0,P|459:119|440:161,1,93.7500035762788,2|0,1:0|0:0,0:0:0:0:
356,325,87448,1,10,0:0:0:0:
383,65,87650,1,0,1:0:0:0:
315,31,87752,1,8,0:0:0:0:
256,77,87853,5,6,1:0:0:0:
205,9,87954,1,2,0:0:0:0:
137,60,88056,1,2,0:0:0:0:
188,128,88157,1,2,1:0:0:0:
188,128,88258,6,0,P|230:114|288:103,1,93.7500035762788,10|0,0:0|0:0,0:0:0:0:
157,291,88461,1,2,0:0:0:0:
90,193,88563,2,0,P|48:179|-10:168,1,93.7500035762788,2|0,1:0|0:0,0:0:0:0:
79,278,88765,1,2,0:0:0:0:
95,361,88867,1,2,1:0:0:0:
177,378,88968,1,2,0:0:0:0:
233,316,89069,6,0,B|256:269|337:308|296:351|381:379|411:346,1,187.500007152558,10|2,0:0|0:0,0:0:0:0:
467,179,89373,2,0,B|382:186|386:269|386:269|397:231|431:223,1,187.500007152558,2|2,1:0|0:0,0:0:0:0:
218,224,89677,2,0,P|205:180|169:152,1,93.7500035762788,2|2,1:0|0:0,0:0:0:0:
135,25,89880,2,0,B|210:35|210:35|232:67|232:67|319:82,1,187.500007152558,10|0,0:0|1:0,0:0:0:0:
454,0,90184,1,2,0:0:0:0:
454,0,90285,2,0,P|413:20|392:73,1,93.7500035762788,6|2,1:0|0:0,0:0:0:0:
364,146,90488,5,10,0:0:0:0:
446,125,90590,1,8,0:0:0:0:
507,182,90691,1,10,0:0:0:0:
490,264,90792,1,8,0:0:0:0:
408,286,90894,1,10,0:0:0:0:
343,232,90995,1,8,0:0:0:0:
425,206,91096,1,10,0:0:0:0:
89,372,92718,5,6,1:0:0:0:
16,354,92819,1,8,0:0:0:0:
1,279,92921,1,8,0:0:0:0:
56,228,93022,1,0,1:0:0:0:
129,239,93123,2,0,P|138:269|155:303,1,62.5,2|8,1:0|0:0,0:0:0:0:
310,273,93326,6,0,P|289:206|254:135,1,140.625005364418,12|0,0:0|0:0,0:0:0:0:
203,205,93731,2,0,P|214:241|233:280,1,74.9999977111817,4|0,1:0|0:0,0:0:0:0:
269,343,93934,1,10,0:0:0:0:
177,129,94035,1,0,1:0:0:0:
354,0,94340,6,0,P|423:27|430:97,1,149.999995422363,6|0,1:0|0:0,0:0:0:0:
390,185,94644,1,0,1:0:0:0:
390,185,94745,2,0,P|357:169|319:162,1,74.9999977111817,10|0,0:0|0:0,0:0:0:0:
196,172,94948,1,0,0:0:0:0:
259,273,95049,2,0,P|292:257|330:250,1,74.9999977111817,0|0,1:0|0:0,0:0:0:0:
465,262,95252,1,8,0:0:0:0:
392,363,95353,2,0,P|359:347|321:340,1,74.9999977111817,0|0,1:0|0:0,0:0:0:0:
216,376,95556,5,10,0:0:0:0:
165,321,95657,1,0,1:0:0:0:
163,246,95758,1,0,1:0:0:0:
98,284,95860,1,0,1:0:0:0:
25,266,95961,6,0,P|17:229|6:192,1,74.9999977111817,6|0,1:0|0:0,0:0:0:0:
0,97,96164,1,8,0:0:0:0:
158,149,96265,2,0,P|125:131|89:115,1,74.9999977111817,0|0,1:0|0:0,0:0:0:0:
12,59,96468,1,8,0:0:0:0:
178,53,96569,6,0,B|227:34|256:-19|256:-19|228:35|245:97,1,224.999993133545,4|0,1:0|0:0,0:0:0:0:
277,164,96975,2,0,B|294:170|304:189|304:189|294:170|300:148,1,74.9999977111817,0|0,1:0|0:0,0:0:0:0:
118,0,97177,1,10,0:0:0:0:
319,53,97279,1,0,1:0:0:0:
77,204,97583,6,0,P|151:203|177:265,1,149.999995422363,6|0,1:0|0:0,3:0:0:0:
227,384,97887,1,0,1:0:0:0:
227,384,97988,2,0,P|233:346|247:303,1,74.9999977111817,10|0,0:0|0:0,0:0:0:0:
97,282,98191,1,0,0:0:0:0:
97,282,98292,2,0,P|90:319|77:363,1,74.9999977111817,4|0,1:0|0:0,0:0:0:0:
176,265,98495,1,8,0:0:0:0:
240,213,98596,2,0,P|213:186|166:184,1,74.9999977111817,0|8,1:0|0:0,0:0:0:0:
243,311,98799,5,10,0:0:0:0:
298,260,98900,1,8,0:0:0:0:
372,250,99002,1,8,0:0:0:0:
438,284,99103,1,8,0:0:0:0:
467,352,99204,6,0,P|472:316|483:279,1,74.9999977111817,6|8,1:0|0:0,0:0:0:0:
512,181,99407,1,8,0:0:0:0:
326,181,99508,2,0,P|360:170|398:164,1,74.9999977111817,0|2,1:0|1:0,3:0:0:0:
499,148,99711,1,8,0:0:0:0:
298,260,99813,6,0,B|238:232|245:149|245:149|191:166|193:221,1,224.999993133545,4|0,1:0|0:0,0:0:0:0:
59,289,100218,2,0,P|91:271|137:283,1,74.9999977111817,0|0,1:0|0:0,0:0:0:0:
225,318,100421,1,10,0:0:0:0:
85,162,100522,1,0,1:0:0:0:
181,53,100826,6,0,B|184:11|235:-15|276:12|276:12|283:48|312:62,1,187.500007152558,6|0,1:0|0:0,0:0:0:0:
417,91,101130,1,0,1:0:0:0:
417,91,101231,2,0,P|427:55|441:18,1,74.9999977111817,10|0,0:0|0:0,0:0:0:0:
350,0,101434,1,0,0:0:0:0:
240,116,101535,2,0,B|157:132|202:180|108:194,1,149.999995422363,4|8,1:0|0:0,0:0:0:0:
49,76,101840,2,0,P|85:81|108:118,1,74.9999977111817,0|8,1:0|0:0,0:0:0:0:
188,249,102042,5,2,1:0:0:0:
116,192,102144,1,0,1:0:0:0:
41,225,102245,1,0,1:0:0:0:
36,314,102346,1,0,1:0:0:0:
122,360,102448,6,0,P|158:348|200:342,1,74.9999977111817,6|8,1:0|0:0,0:0:0:0:
293,364,102650,1,8,0:0:0:0:
188,249,102752,2,0,P|224:255|260:266,1,74.9999977111817,0|2,1:0|1:0,0:0:0:0:
371,304,102954,1,8,0:0:0:0:
497,207,103056,6,0,B|525:147|443:85|365:135|388:217|388:217|415:223|432:245,1,281.250010728836,4|0,1:0|0:0,0:0:0:0:
483,309,103461,2,0,B|504:319|511:334|511:334|505:318|514:295,1,74.9999977111817,0|0,1:0|0:0,0:0:0:0:
260,266,103664,1,10,0:0:0:0:
497,207,103765,1,0,1:0:0:0:
404,0,104069,6,0,B|382:-11|323:16|358:48|302:79|271:67,1,149.999995422363,6|0,1:0|0:0,0:0:0:0:
137,0,104373,1,0,1:0:0:0:
137,0,104475,2,0,P|170:6|190:39,1,74.9999977111817,10|0,0:0|0:0,0:0:0:0:
209,130,104677,1,0,1:0:0:0:
209,130,104779,5,8,0:0:0:0:
347,220,104981,1,8,0:0:0:0:
257,358,105184,1,8,0:0:0:0:
121,262,105387,1,8,0:0:0:0:
235,243,105590,1,8,0:0:0:0:
343,85,105894,5,2,0:0:0:0:
343,85,106096,2,0,P|389:85|424:123,1,93.7500035762788,4|2,1:0|0:0,0:0:0:0:
512,206,106502,2,0,P|442:215|369:233,1,140.625005364418,2|0,1:0|0:0,0:0:0:0:
359,239,106907,1,10,0:0:0:0:
340,341,107110,6,0,B|259:323|300:290|220:271,1,140.625005364418,2|0,1:0|0:0,0:0:0:0:
206,273,107515,1,2,1:0:0:0:
359,239,107718,2,0,P|378:195|364:150,1,93.7500035762788,10|2,0:0|0:0,0:0:0:0:
296,63,108123,1,0,1:0:0:0:
205,131,108326,1,2,1:0:0:0:
117,76,108529,2,0,P|141:38|192:34,1,93.7500035762788,10|2,0:0|0:0,0:0:0:0:
296,63,108934,5,0,1:0:0:0:
380,137,109137,2,0,L|405:38,2,93.7500035762788,2|10|2,0:0|0:0|0:0,0:0:0:0:
356,257,109745,2,0,P|319:210|240:218,1,140.625005364418,2|0,1:0|0:0,0:0:0:0:
232,228,110150,1,10,0:0:0:0:
122,345,110353,6,0,P|188:327|265:320,1,140.625005364418,2|0,1:0|0:0,0:0:0:0:
276,321,110758,1,2,1:0:0:0:
88,267,110961,2,0,P|45:286|40:341,1,93.7500035762788,10|2,0:0|0:0,0:0:0:0:
192,291,111367,2,0,L|174:189,3,93.7500035762788,2|2|10|2,1:0|1:0|0:0|0:0,0:0:0:0:
288,291,112177,1,0,1:0:0:0:
338,376,112380,1,2,0:0:0:0:
405,300,112583,6,0,P|395:254|392:207,1,93.7500035762788,10|0,0:0|0:0,0:0:0:0:
386,113,112988,1,2,1:0:0:0:
470,153,113191,1,0,1:0:0:0:
392,207,113394,1,10,0:0:0:0:
291,164,113596,6,0,P|305:99|313:23,1,140.625005364418,2|0,1:0|0:0,0:0:0:0:
309,9,114002,1,2,1:0:0:0:
226,33,114204,2,0,P|221:79|211:125,1,93.7500035762788,10|2,0:0|0:0,0:0:0:0:
37,111,114610,2,0,P|82:112|119:152,1,93.7500035762788,2|0,1:0|1:0,0:0:0:0:
180,216,115015,1,10,0:0:0:0:
117,289,115218,6,0,P|73:279|19:274,1,93.7500035762788,2|0,0:0|1:0,0:0:0:0:
182,196,115623,1,2,0:0:0:0:
267,156,115826,2,0,P|307:173|323:218,1,93.7500035762788,10|2,0:0|0:0,0:0:0:0:
213,354,116231,2,0,L|183:201,1,140.625005364418,2|0,1:0|0:0,0:0:0:0:
182,196,116637,1,10,0:0:0:0:
284,291,116840,6,0,B|364:301|322:343|410:353,1,140.625005364418,2|0,1:0|0:0,0:0:0:0:
422,354,117245,1,2,1:0:0:0:
309,183,117448,1,10,0:0:0:0:
213,354,117650,6,0,B|194:294|136:255|60:257|6:307|6:307|72:291|122:337,1,375.000014305115,6|0,1:0|0:0,0:0:0:0:
302,384,118664,6,0,P|307:348|321:307,1,74.9999977111817,4|0,1:0|0:0,0:0:0:0:
327,164,118867,1,2,0:0:0:0:
284,234,118968,1,2,1:0:0:0:
366,239,119069,2,0,L|513:209,1,149.999995422363,10|2,0:0|0:0,0:0:0:0:
512,292,119373,2,0,L|437:307,1,74.9999977111817,2|0,1:0|0:0,0:0:0:0:
366,239,119576,1,2,0:0:0:0:
482,133,119677,2,0,L|407:148,1,74.9999977111817,2|0,1:0|0:0,0:0:0:0:
327,164,119880,5,10,0:0:0:0:
327,164,119982,1,0,1:0:0:0:
344,78,120083,2,0,B|359:66|368:49|368:49|362:67|368:92,1,74.9999977111817,2|0,0:0|0:0,0:0:0:0:
284,234,120285,6,0,P|213:212|124:198,1,149.999995422363,0|2,1:0|0:0,0:0:0:0:
55,168,120590,1,2,1:0:0:0:
84,77,120691,2,0,P|117:87|139:121,1,74.9999977111817,10|0,0:0|0:0,0:0:0:0:
138,199,120894,1,2,0:0:0:0:
68,301,120995,6,0,L|150:279,1,74.9999977111817,2|0,1:0|0:0,0:0:0:0:
217,334,121198,1,2,0:0:0:0:
213,208,121299,2,0,L|284:234,1,74.9999977111817,2|0,1:0|0:0,0:0:0:0:
317,320,121502,1,10,0:0:0:0:
277,384,121603,1,2,1:0:0:0:
382,384,121704,2,0,P|405:352|404:310,1,74.9999977111817,2|8,0:0|0:0,0:0:0:0:
499,134,121907,6,0,P|425:137|393:207,1,149.999995422363,0|2,1:0|0:0,0:0:0:0:
465,254,122211,1,2,1:0:0:0:
392,198,122313,2,0,P|358:214|322:222,1,74.9999977111817,10|2,0:0|0:0,0:0:0:0:
382,384,122515,1,2,0:0:0:0:
317,320,122617,2,0,P|283:303|247:295,1,74.9999977111817,2|0,1:0|0:0,0:0:0:0:
146,210,122819,1,2,0:0:0:0:
193,144,122921,2,0,P|228:150|248:185,1,74.9999977111817,2|0,1:0|0:0,0:0:0:0:
173,330,123123,5,10,0:0:0:0:
100,287,123225,1,2,1:0:0:0:
46,349,123326,2,0,P|21:318|25:275,1,74.9999977111817,2|8,0:0|0:0,0:0:0:0:
0,175,123529,2,0,P|72:197|160:211,1,149.999995422363,0|2,1:0|0:0,0:0:0:0:
248,104,123833,1,2,1:0:0:0:
248,104,123934,2,0,P|213:113|191:151,1,74.9999977111817,10|2,0:0|0:0,0:0:0:0:
279,260,124137,1,2,0:0:0:0:
279,260,124238,6,0,L|263:173,1,74.9999977111817,2|0,1:0|0:0,0:0:0:0:
391,81,124441,1,10,0:0:0:0:
391,81,124542,2,0,L|375:168,1,74.9999977111817,2|8,1:0|0:0,0:0:0:0:
479,266,124745,5,2,1:0:0:0:
402,235,124846,1,0,1:0:0:0:
385,316,124948,2,0,B|367:324|359:342|359:342|363:323|355:298,1,74.9999977111817,4|0,0:0|0:0,0:0:0:0:
268,172,125150,6,0,B|237:160|182:203|221:228|164:285|124:266,1,187.500007152558,4|2,1:0|1:0,0:0:0:0:
41,234,125454,1,0,0:0:0:0:
50,136,125556,2,0,P|94:142|123:183,1,93.7500035762788,10|0,0:0|0:0,0:0:0:0:
125,266,125758,1,2,0:0:0:0:
216,312,125860,2,0,P|200:219|192:127,1,187.500007152558,2|2,1:0|0:0,0:0:0:0:
287,262,126164,2,0,P|279:215|275:169,1,93.7500035762788,2|0,1:0|0:0,0:0:0:0:
266,67,126367,5,10,0:0:0:0:
335,20,126468,1,0,1:0:0:0:
381,89,126569,2,0,P|427:85|474:71,1,93.7500035762788,0|8,0:0|0:0,0:0:0:0:
512,196,126772,6,0,B|431:215|469:258|390:277,1,149.999995422363,0|2,1:0|0:0,0:0:0:0:
287,262,127076,1,0,1:0:0:0:
286,174,127177,2,0,P|323:174|352:202,1,74.9999977111817,10|0,0:0|0:0,0:0:0:0:
391,276,127380,1,2,0:0:0:0:
324,364,127481,6,0,P|287:351|249:344,1,74.9999977111817,2|0,1:0|0:0,0:0:0:0:
166,354,127684,1,2,0:0:0:0:
204,221,127785,2,0,P|167:234|129:241,1,74.9999977111817,2|0,1:0|0:0,0:0:0:0:
56,288,127988,5,10,0:0:0:0:
11,217,128090,1,0,1:0:0:0:
86,169,128191,1,0,0:0:0:0:
131,240,128293,1,8,0:0:0:0:
272,283,128394,6,0,P|279:236|291:190,1,93.7500035762788,0|0,1:0|0:0,0:0:0:0:
316,110,128596,1,2,0:0:0:0:
316,110,128698,1,0,1:0:0:0:
316,110,128799,6,0,B|323:81|350:66|350:66|343:88|351:113,1,93.7500035762788,10|0,0:0|0:0,0:0:0:0:
290,191,129002,1,2,0:0:0:0:
356,246,129103,2,0,B|378:265|381:295|381:295|364:279|338:276,1,93.7500035762788,2|0,1:0|0:0,0:0:0:0:
290,191,129306,1,2,0:0:0:0:
208,205,129407,2,0,B|180:217|152:207|152:207|173:198|187:176,1,93.7500035762788,2|0,1:0|0:0,0:0:0:0:
134,33,129610,2,0,P|125:78|114:129,2,93.7500035762788,10|0|2,0:0|1:0|0:0,0:0:0:0:
61,0,129914,1,8,0:0:0:0:
246,21,130015,6,0,P|229:109|207:205,1,187.500007152558,2|2,1:0|0:0,0:0:0:0:
144,262,130319,1,2,1:0:0:0:
207,204,130421,2,0,P|253:208|286:243,1,93.7500035762788,12|0,0:0|0:0,0:0:0:0:
321,341,130623,1,2,0:0:0:0:
230,371,130725,6,0,L|218:265,1,93.7500035762788,10|0,0:0|0:0,0:0:0:0:
417,356,130927,2,0,L|405:250,1,93.7500035762788,10|0,0:0|0:0,0:0:0:0:
396,187,131130,1,10,0:0:0:0:
350,127,131231,1,2,1:0:0:0:
274,129,131333,1,0,1:0:0:0:
242,175,131434,1,0,1:0:0:0:
214,179,131535,1,0,1:0:0:0:
148,125,131637,6,0,P|158:69|230:69,2,125,4|2|10,0:0|0:0|0:0,0:0:0:0:
97,246,132245,1,2,1:0:0:0:
66,240,132346,1,0,1:0:0:0:
34,235,132448,1,2,1:0:0:0:
214,179,132650,2,0,P|201:218|189:274,1,84.3749974250794,4|0,1:0|0:0,0:0:0:0:
107,326,133056,6,0,P|194:303|293:297,1,187.5,6|0,1:0|0:0,0:0:0:0:
308,298,133461,1,2,1:0:0:0:
429,88,133664,2,0,P|372:105|352:165,1,125,10|2,0:0|1:0,0:0:0:0:
444,384,134069,5,2,1:0:0:0:
450,353,134171,1,0,1:0:0:0:
456,322,134272,1,0,1:0:0:0:
463,291,134373,1,0,1:0:0:0:
470,260,134475,6,0,B|435:230|442:177|442:177|427:229|374:253,1,187.5,14|0,0:0|0:0,0:0:0:0:
309,116,134880,6,0,B|314:152|282:182|282:182|319:157|364:170,1,149.999995422363,4|0,1:0|0:0,0:0:0:0:
404,83,135285,1,10,0:0:0:0:
205,45,135488,1,2,1:0:0:0:
214,81,135590,1,0,1:0:0:0:
223,117,135691,1,2,1:0:0:0:
232,272,135894,6,0,L|98:238,1,125,6|2,1:0|0:0,0:0:0:0:
251,363,136299,6,0,L|14:303,1,224.999993133545,6|0,1:0|0:0,0:0:0:0:
17,301,136704,1,2,1:0:0:0:
36,167,136907,2,0,P|91:181|109:246,1,125,10|2,0:0|1:0,0:0:0:0:
251,363,137313,6,0,P|287:304|317:231,1,140.625005364418,14|0,0:0|0:0,0:0:0:0:
298,133,137718,2,0,P|344:209|383:303,1,187.5,14|0,0:0|0:0,0:0:0:0:
390,316,138123,5,4,1:0:0:0:
298,133,138326,2,0,P|269:146|231:157,1,62.5,2|0,0:0|0:0,0:0:0:0:
271,239,138529,2,0,P|299:225|338:215,1,62.5,10|0,0:0|0:0,0:0:0:0:
163,138,138731,1,2,1:0:0:0:
154,168,138833,1,0,1:0:0:0:
171,193,138934,1,2,1:0:0:0:
147,344,139137,6,0,L|282:368,1,125,4|2,1:0|0:0,0:0:0:0:
201,260,139542,6,0,L|421:299,1,224.999993133545,4|0,1:0|0:0,0:0:0:0:
439,303,139948,1,2,1:0:0:0:
452,210,140150,2,0,P|389:210|358:267,1,125,10|2,0:0|0:0,0:0:0:0:
356,379,140556,5,2,1:0:0:0:
325,331,140657,1,0,1:0:0:0:
272,311,140758,1,0,1:0:0:0:
215,318,140860,1,0,1:0:0:0:
172,354,140961,6,0,B|123:340|82:367|82:367|119:333|115:280,1,187.5,14|0,0:0|0:0,0:0:0:0:
147,156,141367,6,0,B|85:133|21:186|35:247|35:247|44:215|79:202,1,224.999993133545,4|0,1:0|0:0,0:0:0:0:
184,233,141772,2,2,P|219:224|258:221,1,74.9999977111817,10|2,0:0|0:0,0:0:0:0:
345,224,141975,1,2,1:0:0:0:
374,129,142177,2,0,P|403:150|430:177,1,74.9999977111817,10|0,0:0|0:0,0:0:0:0:
484,246,142380,1,2,1:0:0:0:
173,77,142785,6,0,B|183:20|116:-22|51:30|74:87|74:87|94:90|108:112,1,224.999993133545,6|0,1:0|0:0,0:0:0:0:
52,170,143191,6,0,P|87:180|120:199,1,74.9999977111817,10|0,0:0|0:0,0:0:0:0:
321,223,143394,2,0,P|286:233|253:252,1,74.9999977111817,10|0,0:0|0:0,0:0:0:0:
23,311,143596,2,0,P|63:284|110:267,1,74.9999977111817,10|0,0:0|0:0,0:0:0:0:
305,84,143799,2,0,P|285:128|276:177,1,74.9999977111817,10|0,0:0|0:0,0:0:0:0:
160,378,144002,2,0,P|165:331|182:283,1,74.9999977111817,10|0,0:0|0:0,0:0:0:0:
167,17,144205,2,0,P|188:60|221:98,1,74.9999977111817,10|0,0:0|0:0,0:0:0:0:
203,189,144407,1,2,1:0:0:0:
203,189,144508,1,0,1:0:0:0:
203,189,144610,5,6,1:0:0:0:
321,223,144813,1,0,1:0:0:0:
422,159,145015,1,0,1:0:0:0:
163,113,145218,1,2,1:0:0:0:
139,131,145319,1,0,1:0:0:0:
125,158,145421,6,0,P|117:195|136:237,1,74.9999977111817,10|0,0:0|0:0,0:0:0:0:
281,218,145623,2,0,P|288:181|276:146,1,74.9999977111817,0|0,1:0|1:0,0:0:0:0:
203,189,145826,1,8,0:0:0:0:
161,341,146029,1,2,1:0:0:0:
131,335,146130,1,0,1:0:0:0:
101,329,146231,5,10,0:0:0:0:
211,281,146434,1,0,1:0:0:0:
294,367,146637,1,10,0:0:0:0:
401,313,146840,1,8,0:0:0:0:
394,134,147042,5,2,1:0:0:0:
340,150,147144,1,8,0:0:0:0:
322,182,147245,1,8,0:0:0:0:
331,218,147346,1,8,0:0:0:0:
347,233,147448,6,0,P|387:224|431:218,1,84.3749974250794,6|0,1:0|0:0,0:0:0:0:
493,142,147853,5,4,1:0:0:0:
489,124,147954,1,0,1:0:0:0:
485,107,148056,2,0,L|475:54,1,34.3750010490418,8|8,0:0|0:0,0:0:0:0:
394,134,148258,5,0,1:0:0:0:
389,111,148359,1,8,0:0:0:0:
384,89,148461,2,0,L|371:24,1,46.8750017881394,8|8,0:0|0:0,0:0:0:0:
295,123,148664,5,0,1:0:0:0:
289,95,148765,1,8,0:0:0:0:
283,68,148867,2,0,L|272:8,1,53.125001013279,8|8,0:0|0:0,0:0:0:0:
194,126,149069,5,0,1:0:0:0:
187,92,149170,1,8,0:0:0:0:
179,59,149272,2,0,L|165:0,1,59.3749984145165,8|8,0:0|0:0,0:0:0:0:
1,109,149475,5,0,1:0:0:0:
47,92,149576,1,8,0:0:0:0:
95,129,149677,2,0,P|112:156|99:195,1,68.7500020980836,8|8,0:0|0:0,0:0:0:0:
194,126,149880,5,0,1:0:0:0:
247,156,149981,1,8,0:0:0:0:
237,230,150083,2,0,P|224:266|180:284,1,74.9999977111817,8|8,0:0|0:0,0:0:0:0:
366,251,150285,5,12,0:0:0:0:
376,325,150386,1,8,0:0:0:0:
302,361,150488,2,0,P|262:376|215:351,1,81.2499962806703,8|8,0:0|0:0,0:0:0:0:
141,360,150691,5,8,0:0:0:0:
144,336,150792,1,4,1:0:0:0:
136,101,151096,5,6,1:0:0:0:
42,37,151198,1,2,0:0:0:0:
129,119,151299,1,2,1:0:0:0:
25,48,151401,1,2,0:0:0:0:
0,203,151502,6,0,B|27:133|110:151|110:151|96:176|109:210,1,187.500007152558,10|0,0:0|0:0,0:0:0:0:
45,320,151806,2,0,P|132:286|226:278,1,187.500007152558,2|2,1:0|0:0,0:0:0:0:
383,182,152110,2,0,P|341:204|308:237,1,93.7500035762788,2|2,1:0|0:0,0:0:0:0:
304,327,152313,1,10,0:0:0:0:
385,372,152414,1,0,0:0:0:0:
427,288,152515,1,2,0:0:0:0:
270,146,152617,6,0,B|199:167|199:167|217:222|227:289,1,187.500007152558,2|2,1:0|0:0,0:0:0:0:
147,290,152921,2,0,P|138:243|124:199,1,93.7500035762788,2|2,1:0|0:0,0:0:0:0:
0,94,153123,2,0,B|31:129|26:180|26:180|47:135|97:124,1,187.500007152558,10|2,0:0|0:0,0:0:0:0:
241,69,153427,2,0,B|206:68|149:120|212:150|152:202|116:198,1,187.500007152558,2|0,1:0|0:0,0:0:0:0:
276,166,153731,2,0,P|320:153|368:151,1,93.7500035762788,2|0,1:0|0:0,0:0:0:0:
393,314,153934,2,0,P|346:316|301:329,1,93.7500035762788,10|0,0:0|0:0,0:0:0:0:
417,67,154137,1,0,1:0:0:0:
483,118,154238,1,8,0:0:0:0:
452,197,154340,5,6,1:0:0:0:
346,113,154441,1,2,0:0:0:0:
369,189,154542,1,2,0:0:0:0:
417,67,154643,1,2,1:0:0:0:
197,193,154745,6,0,B|243:183|286:217|251:260|292:294|345:286,1,187.500007152558,10|2,0:0|0:0,0:0:0:0:
183,288,155049,2,0,B|127:214|43:270|43:270|79:305|80:357,1,250,2|2,1:0|0:0,0:0:0:0:
171,384,155353,2,0,P|213:366|264:356,1,93.7500035762788,2|2,1:0|0:0,0:0:0:0:
222,92,155556,2,0,P|136:129|44:149,1,187.500007152558,10|2,0:0|0:0,0:0:0:0:
282,235,155860,6,0,P|301:192|302:143,1,93.7500035762788,2|0,1:0|0:0,0:0:0:0:
275,1,156063,1,2,0:0:0:0:
414,147,156164,2,0,P|404:100|377:60,1,93.7500035762788,2|2,1:0|0:0,0:0:0:0:
114,41,156367,2,0,B|123:112|123:112|150:142|150:142|158:231,1,187.500007152558,10|2,0:0|0:0,0:0:0:0:
90,309,156671,6,0,P|46:292|-2:285,1,93.7500035762788,2|0,1:0|0:0,0:0:0:0:
156,217,156873,1,2,0:0:0:0:
198,384,156975,2,0,P|241:367|290:360,1,93.7500035762788,2|2,1:0|0:0,0:0:0:0:
381,245,157177,1,10,0:0:0:0:
381,245,157380,5,8,0:0:0:0:
304,209,157481,1,8,0:0:0:0:
312,121,157583,5,6,1:0:0:0:
420,57,157684,1,2,0:0:0:0:
326,44,157785,1,2,0:0:0:0:
414,133,157886,1,2,1:0:0:0:
244,67,157988,6,0,B|182:53|158:108|158:108|148:158|99:168,1,187.500007152558,10|2,0:0|0:0,0:0:0:0:
16,39,158292,2,0,P|59:51|82:96,1,93.7500035762788,2|0,1:0|0:0,0:0:0:0:
87,243,158495,1,2,0:0:0:0:
141,21,158596,2,0,P|167:56|157:106,1,93.7500035762788,2|2,1:0|0:0,0:0:0:0:
31,311,158799,2,0,B|72:292|87:242|87:242|77:294|125:344,1,187.500007152558,10|2,0:0|0:0,0:0:0:0:
251,216,159103,6,0,P|203:221|179:267,1,93.7500035762788,2|0,1:0|0:0,0:0:0:0:
212,359,159306,1,2,0:0:0:0:
295,316,159407,1,2,1:0:0:0:
369,372,159508,1,2,0:0:0:0:
460,350,159610,2,0,B|479:283|428:225|428:225|423:258|385:280,1,187.500007152558,10|2,0:0|0:0,0:0:0:0:
251,216,159914,1,2,1:0:0:0:
251,216,160015,6,0,P|266:174|272:118,1,93.7500035762788,2|0,0:0|0:0,0:0:0:0:
512,213,160218,2,0,P|497:171|491:115,1,93.7500035762788,2|0,1:0|0:0,0:0:0:0:
376,0,160421,2,0,L|381:114,1,93.7500035762788,10|0,0:0|0:0,0:0:0:0:
295,316,160623,1,0,1:0:0:0:
210,314,160725,1,8,0:0:0:0:
160,245,160826,5,6,1:0:0:0:
124,318,160927,1,2,0:0:0:0:
50,282,161029,1,2,0:0:0:0:
86,209,161130,1,2,1:0:0:0:
225,191,161231,6,0,P|265:212|313:227,1,93.7500035762788,10|0,0:0|0:0,0:0:0:0:
419,198,161434,1,2,0:0:0:0:
316,336,161535,2,0,P|357:314|402:299,1,93.7500035762788,2|0,1:0|0:0,0:0:0:0:
257,106,161738,1,2,0:0:0:0:
172,116,161840,1,2,1:0:0:0:
136,192,161941,1,2,0:0:0:0:
178,264,162042,6,0,B|204:300|201:355|201:355|171:313|117:320,1,187.500007152558,10|2,0:0|0:0,0:0:0:0:
52,384,162346,2,0,P|27:346|39:288,1,93.7500035762788,2|0,1:0|0:0,0:0:0:0:
121,319,162549,1,2,0:0:0:0:
8,223,162650,2,0,P|52:218|97:256,1,93.7500035762788,2|2,1:0|0:0,0:0:0:0:
301,279,162853,2,0,B|241:258|208:320|208:320|209:370|162:391,1,187.500007152558,14|0,0:0|1:0,0:0:0:0:
302,378,163157,1,2,0:0:0:0:
302,378,163258,6,0,P|346:364|399:360,1,93.7500035762788,6|2,1:0|0:0,0:0:0:0:
512,366,163461,1,10,0:0:0:0:
454,303,163563,1,8,0:0:0:0:
473,221,163664,5,10,0:0:0:0:
413,193,163765,1,8,0:0:0:0:
390,151,163867,1,10,0:0:0:0:
391,113,163968,1,8,0:0:0:0:
399,96,164069,6,0,L|482:76,1,83.3333333333333,6|8,1:0|0:0,0:0:0:0:
272,19,164340,1,0,0:0:0:0:
272,19,164475,2,0,L|355:-1,2,83.3333333333333,8|0|0,0:0|0:0|1:0,0:0:0:0:
165,0,164880,5,8,0:0:0:0:
96,31,165015,1,0,1:0:0:0:
96,105,165150,1,0,1:0:0:0:
157,148,165285,5,0,1:0:0:0:
193,193,165421,1,0,1:0:0:0:
190,242,165556,1,0,1:0:0:0:
169,268,165691,5,8,0:0:0:0:
237,220,165826,1,0,1:0:0:0:
294,229,165961,1,0,1:0:0:0:
332,260,166096,1,0,1:0:0:0:
346,298,166231,1,0,1:0:0:0:
345,331,166367,1,0,1:0:0:0:
338,346,166502,5,8,0:0:0:0:
272,309,166637,1,0,1:0:0:0:
202,354,166772,1,0,1:0:0:0:
117,318,166907,1,4,1:0:0:0:
311,0,167313,6,0,B|381:22|333:51|411:78,1,125,6|0,1:0|0:0,0:0:0:0:
421,81,167617,1,2,1:0:0:0:
421,81,167718,1,10,0:0:0:0:
476,166,168022,2,0,P|418:187|345:202,1,125,10|0,0:0|0:0,0:0:0:0:
410,271,168326,2,0,P|440:264|469:253,1,62.5,2|0,1:0|3:0,0:0:0:0:
332,126,168529,2,0,P|284:161|288:235,1,125,10|0,0:0|1:0,0:0:0:0:
314,339,168934,6,0,L|323:305,2,31.25,10|0|0,0:0|1:0|1:0,0:0:0:0:
281,222,169137,2,0,L|288:191,2,31.25,0|0|0,1:0|1:0|1:0,0:0:0:0:
224,328,169340,2,0,L|233:294,2,31.25,10|0|0,0:0|1:0|1:0,0:0:0:0:
191,211,169542,2,0,L|198:180,2,31.25,0|0|0,1:0|1:0|1:0,0:0:0:0:
134,317,169745,2,0,L|143:283,2,31.25,10|0|0,0:0|1:0|1:0,0:0:0:0:
101,200,169948,2,0,L|108:169,2,31.25,0|0|0,1:0|1:0|1:0,0:0:0:0:
11,277,170150,5,10,0:0:0:0:
171,98,170353,6,0,B|171:72|171:72|147:88,1,46.8750017881394,2|2,0:0|0:0,0:0:0:0:
191,211,170556,6,0,B|246:164|246:164|291:195,1,125,6|0,1:0|0:0,0:0:0:0:
436,156,170860,1,0,1:0:0:0:
405,226,170961,2,0,P|369:211|370:179,1,62.5,8|0,0:0|0:0,0:0:0:0:
300,55,171164,1,2,0:0:0:0:
300,55,171265,2,0,P|360:75|429:83,1,125,2|0,1:0|0:0,0:0:0:0:
496,169,171569,2,0,P|465:165|435:155,1,62.5,0|0,1:0|0:0,0:0:0:0:
288,347,171772,5,10,0:0:0:0:
314,271,171873,2,0,B|350:284|350:284|370:329|370:329|423:343,1,125,2|0,1:0|0:0,0:0:0:0:
488,309,172177,2,0,B|488:282|488:282|470:243,1,62.5,0|0,1:0|0:0,0:0:0:0:
352,153,172380,1,0,0:0:0:0:
332,168,172481,1,0,1:0:0:0:
329,192,172583,2,0,P|296:187|257:179,1,62.5,8|0,0:0|0:0,0:0:0:0:
119,71,172785,1,2,0:0:0:0:
119,71,172887,6,0,P|172:83|177:151,1,125,0|2,1:0|0:0,0:0:0:0:
62,219,173191,2,0,P|31:206|35:164,1,62.5,2|2,1:0|0:0,0:0:0:0:
102,149,173394,1,10,0:0:0:0:
264,122,173495,2,0,L|234:243,1,125,2|10,1:0|0:0,0:0:0:0:
135,316,173799,6,0,B|205:292|187:342|271:321,1,125,2|0,1:0|0:0,0:0:0:0:
336,370,174103,1,0,1:0:0:0:
336,370,174204,2,0,B|356:283|356:283|315:256,1,125,8|2,0:0|0:0,0:0:0:0:
419,374,174508,6,0,P|426:343|431:303,1,62.5,2|0,1:0|0:0,0:0:0:0:
426,221,174711,1,2,0:0:0:0:
500,384,174813,2,0,P|507:353|512:313,1,62.5,0|0,1:0|0:0,0:0:0:0:
496,153,175015,1,10,0:0:0:0:
426,221,175117,2,0,L|367:203,1,62.5,0|2,1:0|0:0,0:0:0:0:
238,153,175319,1,0,0:0:0:0:
245,72,175421,6,0,P|303:78|315:142,1,125,2|0,1:0|0:0,0:0:0:0:
252,213,175725,1,2,1:0:0:0:
252,213,175826,2,0,B|249:188|249:188|240:174|240:174|240:147,1,62.5,8|0,0:0|0:0,0:0:0:0:
172,232,176029,1,2,0:0:0:0:
172,232,176130,2,0,B|164:192|164:192|155:192|155:192|155:161,1,62.5,0|2,1:0|0:0,0:0:0:0:
82,119,176333,1,0,0:0:0:0:
88,94,176434,1,0,1:0:0:0:
94,70,176535,1,8,0:0:0:0:
101,45,176637,5,0,1:0:0:0:
168,90,176738,1,0,1:0:0:0:
176,8,176840,2,0,P|206:7|237:0,1,62.5,6|0,1:0|0:0,0:0:0:0:
369,0,177042,6,0,B|354:15|354:15|361:69,1,62.5,0|0,1:0|0:0,0:0:0:0:
504,59,177245,2,0,B|502:80|502:80|456:109,1,62.5,2|0,1:0|0:0,0:0:0:0:
354,220,177448,2,0,B|382:166|382:166|364:157|364:157|342:200,1,125,10|0,0:0|0:0,0:0:0:0:
320,303,177752,6,0,B|292:287|292:287|293:328,1,62.5,2|0,1:0|0:0,0:0:0:0:
202,335,177954,1,0,0:0:0:0:
202,335,178056,2,0,B|196:303|196:303|165:330,1,62.5,2|0,1:0|0:0,0:0:0:0:
101,370,178258,1,10,0:0:0:0:
60,307,178360,1,2,1:0:0:0:
119,262,178461,1,2,0:0:0:0:
85,195,178563,1,10,0:0:0:0:
144,149,178664,6,0,P|172:158|147:172,3,62.5,2|2|2|2,1:0|0:0|0:0|1:0,0:0:0:0:
246,68,179069,2,0,P|258:98|228:87,2,81.2499962806703,10|2|2,0:0|0:0|0:0,0:0:0:0:
250,182,179373,6,0,B|286:182|311:160|311:160|338:190|338:190|365:188|401:207,1,162.499992561341,2|0,1:0|0:0,0:0:0:0:
512,110,179677,2,0,B|484:106|484:106|454:122|453:164,1,81.2499962806703,0|0,1:0|0:0,0:0:0:0:
487,248,179880,1,10,0:0:0:0:
392,202,179981,2,0,B|374:224|374:224|373:258|409:280,1,81.2499962806703,2|0,1:0|0:0,0:0:0:0:
428,367,180184,1,8,0:0:0:0:
428,367,180285,6,0,B|394:381|394:381|315:340|315:340|273:363,1,162.499992561341,2|0,1:0|0:0,0:0:0:0:
206,307,180590,1,0,1:0:0:0:
206,307,180691,2,0,P|225:277|213:222,1,81.2499962806703,8|0,0:0|0:0,0:0:0:0:
93,236,180894,1,2,0:0:0:0:
93,236,180995,2,0,P|104:273|115:326,1,81.2499962806703,0|0,1:0|0:0,0:0:0:0:
320,262,181198,1,0,0:0:0:0:
320,262,181299,2,0,P|309:225|298:172,1,81.2499962806703,0|0,1:0|0:0,0:0:0:0:
356,115,181502,5,8,0:0:0:0:
275,83,181603,2,0,B|185:105|239:157|148:187,1,162.499992561341,0|8,1:0|0:0,0:0:0:0:
62,25,181907,2,0,P|122:23|132:110,1,162.499992561341,0|2,1:0|0:0,0:0:0:0:
13,135,182211,1,0,1:0:0:0:
13,135,182313,2,0,B|54:137|54:137|81:171,1,81.2499962806703,12|0,0:0|0:0,0:0:0:0:
82,271,182515,1,0,1:0:0:0:
113,261,182617,1,8,0:0:0:0:
144,252,182718,5,0,1:0:0:0:
202,295,182819,1,0,1:0:0:0:
271,270,182921,1,10,0:0:0:0:
285,198,183022,1,8,0:0:0:0:
230,149,183123,1,8,0:0:0:0:
244,85,183225,1,0,1:0:0:0:
294,59,183326,1,0,1:0:0:0:
341,67,183427,1,0,1:0:0:0:
362,91,183529,5,4,1:0:0:0:
424,159,183630,2,0,B|440:146|448:126|448:126|463:143|494:152,1,81.2499962806703,2|0,0:0|0:0,0:0:0:0:
319,177,183833,1,0,1:0:0:0:
383,288,183934,2,0,B|372:269|354:258|354:258|374:246|388:217,1,81.2499962806703,10|0,0:0|0:0,0:0:0:0:
314,328,184137,1,0,0:0:0:0:
224,349,184238,6,0,P|234:310|243:266,1,81.2499962806703,2|0,1:0|0:0,0:0:0:0:
131,330,184441,1,0,0:0:0:0:
57,274,184542,2,0,P|93:257|132:235,1,81.2499962806703,2|0,1:0|0:0,0:0:0:0:
206,186,184745,1,10,0:0:0:0:
200,154,184846,1,0,1:0:0:0:
231,163,184948,1,2,0:0:0:0:
129,237,185049,1,8,0:0:0:0:
129,237,185150,6,0,B|112:177|112:177|121:145|121:145|99:75,1,162.499992561341,0|0,1:0|0:0,0:0:0:0:
138,5,185454,1,2,1:0:0:0:
138,5,185556,2,0,B|169:-1|169:-1|180:7|180:7|173:46,1,81.2499962806703,10|0,0:0|0:0,0:0:0:0:
200,154,185758,1,0,0:0:0:0:
269,94,185860,6,0,B|260:53|260:53|276:48|276:48|282:79,1,81.2499962806703,0|2,1:0|0:0,0:0:0:0:
352,132,186063,1,0,0:0:0:0:
367,45,186164,2,0,B|376:4|376:4|360:-1|360:-1|355:21,1,81.2499962806703,2|0,1:0|0:0,0:0:0:0:
285,191,186367,1,8,0:0:0:0:
352,132,186468,2,0,B|396:141|374:165|439:176,1,81.2499962806703,2|0,1:0|0:0,0:0:0:0:
451,99,186671,1,10,0:0:0:0:
492,171,186772,6,0,P|462:195|457:243,1,81.2499962806703,2|0,1:0|0:0,0:0:0:0:
380,384,186975,1,0,0:0:0:0:
326,319,187076,1,2,1:0:0:0:
406,294,187177,2,0,B|442:274|442:274|459:315,1,81.2499962806703,10|0,0:0|0:0,0:0:0:0:
274,384,187380,1,2,0:0:0:0:
274,384,187481,6,0,P|231:377|184:381,1,81.2499962806703,0|0,1:0|0:0,0:0:0:0:
211,246,187684,1,0,0:0:0:0:
211,246,187785,2,0,P|178:274|151:313,1,81.2499962806703,2|0,1:0|0:0,0:0:0:0:
73,348,187988,1,10,0:0:0:0:
0,311,188090,1,0,1:0:0:0:
70,266,188191,1,2,0:0:0:0:
47,308,188292,1,8,0:0:0:0:
19,209,188394,6,0,P|31:182|33:198,2,81.2499962806703,2|2|2,1:0|0:0|0:0,0:0:0:0:
70,266,188698,1,2,1:0:0:0:
137,227,188799,2,0,B|146:193|146:193|143:184|143:184|152:148,1,81.2499962806703,10|0,0:0|0:0,0:0:0:0:
119,76,189002,5,0,0:0:0:0:
142,1,189103,2,0,P|181:9|193:50,1,81.2499962806703,2|2,1:0|0:0,0:0:0:0:
321,165,189306,1,2,0:0:0:0:
298,90,189407,2,0,P|259:98|247:139,1,81.2499962806703,2|10,1:0|0:0,0:0:0:0:
264,221,189610,5,0,1:0:0:0:
331,244,189711,1,0,1:0:0:0:
276,292,189813,1,4,1:0:0:0:
491,100,190015,6,0,B|515:65|515:65|511:12,1,81.2499962806703,0|0,1:0|0:0,0:0:0:0:
419,0,190218,2,0,B|395:35|395:35|399:88,1,81.2499962806703,0|0,1:0|0:0,0:0:0:0:
512,244,190421,2,0,B|512:203|469:189|469:189|477:182|477:182|426:174|407:216,1,162.499992561341,10|0,0:0|3:0,3:0:0:0:
349,261,190725,2,0,P|366:298|380:346,1,81.2499962806703,2|0,1:0|0:0,0:0:0:0:
305,367,190928,1,0,0:0:0:0:
305,367,191029,2,0,P|293:328|276:292,1,81.2499962806703,0|0,1:0|0:0,0:0:0:0:
272,204,191231,5,10,0:0:0:0:
218,184,191333,1,0,1:0:0:0:
174,220,191434,1,0,0:0:0:0:
177,284,191535,1,8,0:0:0:0:
113,322,191637,6,0,B|65:332|22:288|31:263|31:263|46:284|76:292,1,162.499992561341,2|0,1:0|0:0,0:0:0:0:
55,150,191941,1,0,1:0:0:0:
55,150,192042,2,0,P|85:174|96:223,1,81.2499962806703,8|0,0:0|0:0,0:0:0:0:
196,146,192245,1,2,0:0:0:0:
196,146,192346,2,0,P|196:184|166:224,1,81.2499962806703,0|0,1:0|0:0,0:0:0:0:
289,251,192549,1,0,0:0:0:0:
289,251,192650,2,0,P|260:276|209:278,1,81.2499962806703,0|0,1:0|0:0,0:0:0:0:
292,157,192853,5,8,0:0:0:0:
345,137,192954,1,0,1:0:0:0:
396,161,193056,1,0,0:0:0:0:
407,216,193157,1,8,0:0:0:0:
460,235,193258,6,0,P|480:238|454:225,3,81.2499962806703,2|2|2|2,1:0|0:0|0:0|1:0,0:0:0:0:
456,115,193664,2,0,P|471:101|444:113,2,81.2499962806703,10|2|2,0:0|0:0|0:0,0:0:0:0:
344,136,193968,6,0,P|334:96|320:59,1,81.2499962806703,0|2,1:0|0:0,0:0:0:0:
248,0,194171,1,2,0:0:0:0:
263,162,194272,2,0,P|253:122|238:84,1,81.2499962806703,2|2,1:0|0:0,0:0:0:0:
166,26,194475,1,10,0:0:0:0:
0,132,194677,5,2,1:0:0:0:
66,101,194779,1,10,0:0:0:0:
101,164,194880,2,0,B|91:179|91:179|96:227|96:227|86:248,3,81.2499962806703,2|2|10|10,1:0|0:0|0:0|0:0,0:0:0:0:
34,314,195285,5,10,0:0:0:0:
73,324,195387,1,10,0:0:0:0:
112,334,195488,1,10,0:0:0:0:
151,344,195590,1,10,0:0:0:0:
199,349,195691,5,10,0:0:0:0:
191,295,195792,1,10,0:0:0:0:
212,245,195894,1,10,0:0:0:0:
257,217,195995,1,10,0:0:0:0:
305,216,196096,5,10,0:0:0:0:
318,288,196198,1,10,0:0:0:0:
377,327,196299,1,10,0:0:0:0:
449,327,196400,1,10,0:0:0:0:
496,272,196502,6,0,B|504:198|438:179|438:179|459:196|457:224,1,162.499992561341,4|0,1:0|0:0,0:0:0:0:
424,98,196806,1,0,1:0:0:0:
424,98,196907,2,0,P|385:113|365:155,1,81.2499962806703,10|0,0:0|0:0,0:0:0:0:
304,322,197110,1,0,0:0:0:0:
304,322,197211,2,0,P|316:281|297:239,1,81.2499962806703,8|0,0:0|0:0,0:0:0:0:
177,130,197414,1,0,0:0:0:0:
177,130,197515,2,0,P|211:152|256:145,1,81.2499962806703,2|0,1:0|0:0,0:0:0:0:
124,0,197718,6,0,B|34:26|88:75|6:103,1,162.499992561341,8|0,0:0|0:0,0:0:0:0:
82,211,198022,1,0,0:0:0:0:
82,211,198123,2,0,P|40:194|-9:184,1,81.2499962806703,2|0,1:0|0:0,0:0:0:0:
119,291,198326,1,0,0:0:0:0:
168,237,198427,1,0,1:0:0:0:
189,307,198529,2,0,P|230:290|280:280,1,81.2499962806703,8|0,0:0|0:0,0:0:0:0:
409,245,198731,5,2,0:0:0:0:
426,210,198833,1,8,0:0:0:0:
408,168,198934,2,0,B|338:135|308:206|308:206|331:220|338:250,1,162.499992561341,0|0,0:0|1:0,0:0:0:0:
350,338,199238,1,0,0:0:0:0:
350,338,199340,2,0,P|430:322|524:313,1,162.499992561341,10|0,0:0|0:0,0:0:0:0:
336,53,199745,6,0,P|264:67|232:146,1,162.499992561341,0|0,1:0|0:0,0:0:0:0:
256,251,200049,1,0,1:0:0:0:
256,251,200150,2,0,B|236:237|228:221|228:221|215:232|190:237,1,81.2499962806703,10|0,0:0|0:0,0:0:0:0:
54,195,200353,1,0,0:0:0:0:
106,245,200454,1,8,0:0:0:0:
127,174,200556,6,0,P|119:134|105:92,1,81.2499962806703
211,64,200758,2,0,P|218:103|233:146,1,81.2499962806703,2|0,1:0|0:0,0:0:0:0:
226,328,200961,1,8,0:0:0:0:
256,251,201063,2,0,L|347:284,1,81.2499962806703
420,262,201265,1,0,0:0:0:0:
420,262,201367,6,0,P|452:207|369:198,1,162.499992561341,2|0,1:0|0:0,0:0:0:0:
366,199,201671,1,0,1:0:0:0:
366,199,201772,1,8,0:0:0:0:
157,369,201975,1,2,0:0:0:0:
153,350,202076,1,8,0:0:0:0:
149,331,202177,6,0,P|110:318|68:310,1,81.2499962806703
156,200,202380,2,0,P|117:213|75:221,1,81.2499962806703,0|0,1:0|0:0,0:0:0:0:
0,258,202583,1,8,0:0:0:0:
120,99,202785,1,10,0:0:0:0:
188,71,202887,1,8,0:0:0:0:
235,125,202988,6,0,B|325:105|294:167|405:145,1,162.499992561341,4|0,1:0|0:0,0:0:0:0:
457,23,203292,1,0,1:0:0:0:
457,23,203394,2,0,P|399:-1|363:77,1,162.499992561341,10|0,0:0|0:0,0:0:0:0:
470,187,203698,1,8,0:0:0:0:
470,187,203799,2,0,P|476:147|488:106,1,81.2499962806703
360,72,204002,2,0,P|353:111|342:153,1,81.2499962806703,2|0,1:0|0:0,0:0:0:0:
447,299,204204,6,0,B|410:279|410:279|334:312|334:312|277:290,1,162.499992561341,8|0,0:0|0:0,0:0:0:0:
218,260,204508,1,0,0:0:0:0:
218,260,204610,2,0,P|234:227|284:212,1,81.2499962806703,2|0,1:0|0:0,0:0:0:0:
208,384,204813,1,2,0:0:0:0:
208,384,204914,1,0,1:0:0:0:
208,384,205015,6,0,L|129:364,1,81.2499962806703,8|0,0:0|0:0,0:0:0:0:
0,302,205218,1,2,0:0:0:0:
0,302,205319,2,0,L|79:282,1,81.2499962806703,8|0,0:0|0:0,0:0:0:0:
208,220,205522,1,0,0:0:0:0:
208,220,205623,2,0,L|129:200,1,81.2499962806703,0|0,1:0|0:0,0:0:0:0:
0,138,205826,2,0,L|161:97,1,162.499992561341,10|0,0:0|0:0,0:0:0:0:
213,21,206130,1,0,1:0:0:0:
213,21,206231,6,0,B|276:-9|309:57|309:57|288:69|279:100,1,162.499992561341,4|0,1:0|0:0,0:0:0:0:
301,189,206535,1,0,1:0:0:0:
359,125,206637,2,0,P|398:115|447:108,1,81.2499962806703,10|0,0:0|0:0,0:0:0:0:
286,336,206840,1,2,0:0:0:0:
286,336,206941,1,8,0:0:0:0:
286,336,207042,6,0,L|252:255,1,81.2499962806703
389,207,207245,2,0,L|420:281,1,81.2499962806703,2|0,1:0|0:0,0:0:0:0:
171,242,207448,2,0,P|218:184|300:188,1,162.499992561341,8|0,0:0|0:0,0:0:0:0:
185,343,207752,1,0,0:0:0:0:
185,343,207853,2,0,P|148:329|98:321,1,81.2499962806703,2|0,1:0|0:0,0:0:0:0:
77,232,208056,1,0,0:0:0:0:
77,232,208157,1,0,1:0:0:0:
77,232,208258,2,0,P|40:246|-10:254,1,81.2499962806703,8|0,0:0|0:0,0:0:0:0:
91,100,208461,5,2,0:0:0:0:
76,47,208563,1,8,0:0:0:0:
123,20,208664,2,0,P|160:29|186:66,1,81.2499962806703
193,158,208867,2,0,P|230:145|275:137,1,81.2499962806703,0|0,1:0|0:0,0:0:0:0:
367,25,209069,2,0,B|345:49|345:49|380:146|380:146|367:175,1,162.499992561341,10|0,0:0|0:0,0:0:0:0:
190,304,209475,6,0,B|190:249|241:242|241:242|241:236|241:236|294:223|321:269,1,187.500007152558,6|0,1:0|0:0,0:0:0:0:
402,354,209779,1,0,1:0:0:0:
402,354,209880,2,0,P|412:307|426:264,1,93.7500035762788,8|0,0:0|0:0,0:0:0:0:
468,153,210083,1,2,0:0:0:0:
409,107,210184,1,8,0:0:0:0:
369,170,210285,6,0,B|332:139|332:139|277:158,1,93.7500035762788,2|0,0:0|0:0,0:0:0:0:
274,71,210488,2,0,B|226:79|226:79|205:133,1,93.7500035762788,0|0,1:0|0:0,0:0:0:0:
225,203,210691,5,10,0:0:0:0:
222,281,210792,2,0,P|174:271|152:229,1,93.7500035762788,6|0,1:0|0:0,0:0:0:0:
0,257,210995,1,10,0:0:0:0:
34,327,211096,2,0,P|71:300|77:255,1,93.7500035762788,6|0,1:0|3:0,3:0:0:0:
9,153,211299,5,10,0:0:0:0:
75,89,211400,2,0,L|99:189,1,93.7500035762788,6|0,1:0|0:0,0:0:0:0:
25,150,211603,5,10,0:0:0:0:
152,66,211704,2,0,L|175:157,1,93.7500035762788,6|0,1:0|0:0,0:0:0:0:
41,147,211907,5,10,0:0:0:0:
229,43,212008,2,0,L|252:134,1,93.7500035762788,6|0,1:0|0:0,0:0:0:0:
57,144,212211,5,10,0:0:0:0:
305,18,212313,2,0,L|328:110,1,93.7500035762788,6|0,1:0|0:0,0:0:0:0:
392,302,212718,6,0,B|361:318|351:348|351:348|360:318|348:287,1,125.000004768372,10|2,0:0|1:0,0:0:0:0:
378,188,212988,2,0,B|408:171|418:141|418:141|409:171|421:202,1,125.000004768372,10|2,0:0|1:0,0:0:0:0:
280,238,213258,6,0,B|263:207|233:197|233:197|263:206|308:190,1,125.000004768372,10|2,0:0|1:0,0:0:0:0:
487,255,213528,2,0,B|503:285|533:295|533:295|503:286|458:302,1,125.000004768372,10|2,0:0|1:0,0:0:0:0:
378,344,213799,6,0,B|347:360|337:390|337:390|346:360|334:329,1,125.000004768372,10|2,0:0|1:0,0:0:0:0:
392,145,214069,2,0,B|422:128|432:98|432:98|423:128|435:159,1,125.000004768372,10|2,0:0|1:0,0:0:0:0:
228,271,214340,6,0,P|237:301|262:344,2,46.8750017881394,10|8|0,0:0|0:0|1:0,0:0:0:0:
149,165,214542,2,0,P|166:137|188:113,2,46.8750017881394,2|0|0,1:0|1:0|1:0,0:0:0:0:
100,285,214745,2,0,P|67:289|34:287,2,46.8750017881394,10|8|0,0:0|0:0|1:0,0:0:0:0:
233,183,214947,6,0,P|256:183|279:186,2,46.8750017881394,2|0|0,1:0|1:0|1:0,0:0:0:0:
170,327,215150,1,10,0:0:0:0:
173,336,215201,2,0,P|155:353|142:372,1,46.8750017881394,8|8,0:0|0:0,0:0:0:0:
82,207,215353,1,10,0:0:0:0:
73,203,215404,2,0,P|58:184|45:165,1,46.8750017881394,8|8,0:0|0:0,0:0:0:0:
160,241,215556,5,10,0:0:0:0:
100,72,215961,5,6,1:0:0:0:
203,31,216063,1,2,0:0:0:0:
171,102,216164,1,2,1:0:0:0:
130,0,216266,1,2,0:0:0:0:
250,96,216367,6,0,P|339:71|443:61,1,187.500007152558,10|0,0:0|0:0,0:0:0:0:
405,143,216671,2,0,P|358:147|313:160,1,93.7500035762788,2|0,1:0|0:0,0:0:0:0:
289,241,216873,1,2,0:0:0:0:
227,183,216974,1,2,1:0:0:0:
190,259,217076,1,2,0:0:0:0:
29,182,217177,2,0,B|64:142|119:151|139:191|139:191|112:210|108:243,1,187.500007152558,10|2,0:0|0:0,0:0:0:0:
37,342,217481,6,0,P|80:327|133:320,1,93.7500035762788,2|0,1:0|0:0,0:0:0:0:
270,323,217684,1,2,0:0:0:0:
270,323,217785,2,0,P|296:285|285:234,1,93.7500035762788,2|2,1:0|0:0,0:0:0:0:
184,80,217988,2,0,P|274:111|375:120,1,187.500007152558,10|2,0:0|0:0,0:0:0:0:
371,220,218292,6,0,P|416:204|466:199,1,93.7500035762788,2|0,1:0|0:0,0:0:0:0:
459,116,218495,1,0,0:0:0:0:
357,15,218596,2,0,P|402:30|452:35,1,93.7500035762788,2|0,1:0|0:0,0:0:0:0:
289,168,218799,2,0,P|293:120|283:59,1,93.7500035762788,10|0,0:0|0:0,0:0:0:0:
195,0,219002,1,0,1:0:0:0:
121,11,219103,1,8,0:0:0:0:
107,84,219204,5,6,1:0:0:0:
136,213,219306,1,2,0:0:0:0:
186,134,219407,1,2,0:0:0:0:
57,163,219508,1,2,1:0:0:0:
186,134,219610,6,0,B|296:148|228:212|356:228,1,187.500007152558,10|2,0:0|0:0,0:0:0:0:
462,77,219914,2,0,B|382:74|339:148|339:148|295:111|323:58,1,250,2|2,1:0|0:0,0:0:0:0:
406,189,220218,2,0,P|439:158|499:164,1,93.7500035762788,2|2,1:0|0:0,0:0:0:0:
512,335,220421,2,0,P|428:313|322:302,1,187.500007152558,10|2,0:0|0:0,0:0:0:0:
276,373,220725,6,0,P|244:338|248:282,1,93.7500035762788,2|0,1:0|0:0,0:0:0:0:
293,224,220928,1,2,0:0:0:0:
156,297,221029,2,0,P|162:249|207:217,1,93.7500035762788,2|2,1:0|0:0,0:0:0:0:
264,89,221231,2,0,B|331:113|331:113|308:163|292:224,1,187.500007152558,10|2,0:0|0:0,0:0:0:0:
378,246,221535,2,0,P|391:201|409:154,1,93.7500035762788,2|0,1:0|0:0,0:0:0:0:
407,70,221738,1,2,0:0:0:0:
461,274,221840,2,0,P|474:229|492:182,1,93.7500035762788,2|2,1:0|0:0,0:0:0:0:
488,98,222042,5,10,0:0:0:0:
390,340,222245,1,8,0:0:0:0:
321,370,222346,1,8,0:0:0:0:
263,321,222448,5,6,1:0:0:0:
201,205,222549,1,2,0:0:0:0:
174,294,222650,1,2,0:0:0:0:
290,232,222752,1,2,1:0:0:0:
81,304,222853,6,0,B|11:327|-11:258|-11:258|19:237|32:197,1,187.500007152558,10|2,0:0|0:0,0:0:0:0:
0,118,223157,2,0,P|45:113|96:93,1,93.7500035762788,2|0,1:0|0:0,0:0:0:0:
159,137,223360,1,2,0:0:0:0:
64,0,223461,2,0,P|107:16|154:21,1,93.7500035762788,2|2,1:0|0:0,0:0:0:0:
340,4,223664,6,0,P|261:13|241:112,1,187.500007152558,10|2,0:0|0:0,0:0:0:0:
320,138,223968,2,0,P|338:96|381:81,1,93.7500035762788,2|0,1:0|0:0,0:0:0:0:
381,201,224171,1,2,0:0:0:0:
442,144,224272,2,0,P|424:186|381:201,1,93.7500035762788,2|2,1:0|0:0,0:0:0:0:
305,384,224475,6,0,P|290:291|260:202,1,187.500007152558,10|2,0:0|0:0,0:0:0:0:
203,323,224779,2,0,P|189:281|180:226,1,93.7500035762788,2|2,1:0|0:0,0:0:0:0:
181,145,224981,1,0,0:0:0:0:
106,185,225083,2,0,P|136:150|180:145,1,93.7500035762788,2|0,1:0|0:0,0:0:0:0:
195,54,225285,2,0,P|238:66|262:105,1,93.7500035762788,14|0,0:0|0:0,0:0:0:0:
260,202,225488,1,0,0:0:0:0:
512,80,225691,5,14,0:0:0:0:
475,14,225792,1,10,0:0:0:0:
399,14,225894,1,10,0:0:0:0:
356,75,225995,1,10,0:0:0:0:
281,68,226096,5,10,0:0:0:0:
273,48,226198,1,8,0:0:0:0:
265,28,226299,1,10,0:0:0:0:
257,8,226400,6,0,B|150:15|201:80|97:100,1,187.500007152558,6|2,1:0|0:0,0:0:0:0:
29,67,226704,2,0,P|74:63|101:98,1,93.7500035762788,6|2,1:0|0:0,0:0:0:0:
24,211,226907,2,0,P|117:184|223:172,1,187.500007152558,10|2,0:0|0:0,0:0:0:0:
93,281,227211,6,0,P|139:267|192:261,1,93.7500035762788,2|0,1:0|0:0,0:0:0:0:
268,288,227414,1,2,0:0:0:0:
112,364,227515,2,0,P|158:350|211:344,1,93.7500035762788,2|2,1:0|0:0,0:0:0:0:
395,169,227718,2,0,B|319:217|319:217|361:249|354:313,1,187.500007152558,14|0,0:0|1:0,0:0:0:0:
203,344,228022,1,2,0:0:0:0:
203,344,228123,2,0,P|177:310|184:262,1,93.7500035762788,6|2,1:0|0:0,0:0:0:0:
233,190,228326,1,10,0:0:0:0:
253,158,228427,1,8,0:0:0:0:
257,120,228529,5,10,0:0:0:0:
212,59,228630,1,8,0:0:0:0:
137,64,228731,1,10,0:0:0:0:
100,130,228833,1,8,0:0:0:0:
139,193,228934,6,0,B|208:206|208:206|229:251|229:251|320:269,1,187.500007152558,6|2,1:0|1:0,0:0:0:0:
401,153,229238,1,2,0:0:0:0:
401,153,229340,2,0,P|354:156|326:192,1,93.7500035762788,10|0,0:0|0:0,0:0:0:0:
331,346,229542,1,0,0:0:0:0:
419,331,229644,2,0,L|398:237,1,93.7500035762788,2|0,1:0|0:0,0:0:0:0:
326,190,229846,1,2,0:0:0:0:
476,203,229948,2,0,L|497:109,1,93.7500035762788,2|2,1:0|0:0,0:0:0:0:
490,3,230150,6,0,B|381:9|443:79|324:93,1,187.500007152558,10|2,0:0|0:0,0:0:0:0:
189,0,230454,2,0,P|234:8|253:49,1,93.7500035762788,2|0,1:0|0:0,0:0:0:0:
257,136,230657,1,2,0:0:0:0:
257,136,230758,2,0,L|163:164,1,93.7500035762788,2|2,1:0|0:0,0:0:0:0:
129,301,230961,2,0,B|62:270|83:190|83:190|90:223|125:240,1,187.500007152558,10|2,0:0|0:0,0:0:0:0:
218,321,231265,6,0,P|262:307|317:297,1,93.7500035762788,2|0,1:0|0:0,0:0:0:0:
392,141,231468,1,0,0:0:0:0:
392,141,231569,2,0,P|349:148|326:189,1,93.7500035762788,2|0,1:0|0:0,0:0:0:0:
391,269,231772,2,0,P|434:262|457:221,1,93.7500035762788,10|0,0:0|0:0,0:0:0:0:
451,83,231975,1,0,1:0:0:0:
411,58,232076,1,8,0:0:0:0:
364,64,232177,5,6,1:0:0:0:
301,140,232279,1,2,0:0:0:0:
225,77,232380,1,2,0:0:0:0:
288,1,232481,1,2,1:0:0:0:
209,80,232583,6,0,P|161:65|118:58,1,93.7500035762788,10|0,0:0|0:0,0:0:0:0:
29,80,232785,1,2,0:0:0:0:
98,143,232887,2,0,P|144:150|188:164,1,93.7500035762788,2|0,1:0|0:0,0:0:0:0:
250,229,233090,1,2,0:0:0:0:
167,249,233191,2,0,P|122:234|76:227,1,93.7500035762788,2|2,1:0|0:0,0:0:0:0:
305,295,233394,2,0,P|332:257|332:205,1,93.7500035762788,10|0,0:0|0:0,0:0:0:0:
274,39,233596,1,2,0:0:0:0:
266,114,233698,6,0,L|356:140,1,93.7500035762788,2|0,1:0|0:0,0:0:0:0:
373,258,233900,1,2,0:0:0:0:
411,192,234002,2,0,L|501:166,1,93.7500035762788,2|2,1:0|0:0,0:0:0:0:
365,384,234204,2,0,P|290:330|192:342,1,187.500007152558,10|2,0:0|0:0,0:0:0:0:
85,384,234508,6,0,P|114:347|115:295,1,93.7500035762788,2|0,1:0|0:0,0:0:0:0:
56,158,234711,1,2,0:0:0:0:
31,245,234813,2,0,L|125:221,1,93.7500035762788,2|2,1:0|0:0,0:0:0:0:
224,78,235015,2,0,P|187:104|178:158,1,93.7500035762788,10|0,0:0|0:0,0:0:0:0:
214,234,235218,1,8,0:0:0:0:
254,210,235319,1,8,0:0:0:0:
300,218,235421,5,6,1:0:0:0:
359,290,235522,1,2,0:0:0:0:
394,203,235623,1,2,0:0:0:0:
351,236,235725,1,2,1:0:0:0:
462,283,235826,2,0,P|469:237|487:190,1,93.7500035762788,10|0,0:0|0:0,0:0:0:0:
496,50,236029,1,2,0:0:0:0:
496,50,236130,6,0,B|376:63|438:111|328:130,1,187.500007152558,2|2,1:0|0:0,0:0:0:0:
272,0,236434,2,0,P|315:3|333:53,1,93.7500035762788,2|2,1:0|0:0,0:0:0:0:
252,171,236637,2,0,P|245:120|234:75,1,93.7500035762788,10|0,0:0|0:0,0:0:0:0:
47,11,236840,1,2,0:0:0:0:
47,11,236941,2,0,L|153:43,1,93.7500035762788,2|0,1:0|0:0,0:0:0:0:
114,119,237144,1,2,0:0:0:0:
114,119,237245,2,0,L|24:91,1,93.7500035762788,2|2,1:0|0:0,0:0:0:0:
235,78,237448,6,0,B|261:37|330:42|348:84|348:84|323:100|318:130,1,187.500007152558,10|2,0:0|0:0,0:0:0:0:
459,209,237752,1,2,1:0:0:0:
474,125,237853,2,0,P|422:124|393:157,1,93.7500035762788,2|0,0:0|0:0,0:0:0:0:
507,280,238056,2,0,P|466:300|423:286,1,93.7500035762788,2|0,1:0|0:0,0:0:0:0:
264,243,238258,2,0,L|370:229,1,93.7500035762788,10|0,0:0|0:0,0:0:0:0:
191,306,238461,1,0,1:0:0:0:
154,261,238563,1,8,0:0:0:0:
174,209,238664,5,6,1:0:0:0:
264,243,238765,1,2,0:0:0:0:
298,153,238867,1,2,0:0:0:0:
208,119,238968,1,2,1:0:0:0:
359,207,239069,6,0,B|402:185|417:138|417:138|410:187|446:228,1,187.500007152558,10|2,0:0|0:0,0:0:0:0:
430,301,239373,2,0,P|384:287|336:280,1,93.7500035762788,2|0,1:0|0:0,0:0:0:0:
322,357,239576,1,2,0:0:0:0:
322,357,239677,2,0,P|368:364|413:377,1,93.7500035762788,2|2,1:0|0:0,0:0:0:0:
219,384,239880,2,0,P|188:353|201:292,1,93.7500035762788,10|0,0:0|0:0,0:0:0:0:
240,218,240083,1,2,0:0:0:0:
234,130,240184,6,0,B|133:140|190:215|84:235,1,187.500007152558,2|2,1:0|0:0,0:0:0:0:
12,118,240488,2,0,P|48:106|75:152,1,93.7500035762788,2|2,1:0|0:0,0:0:0:0:
7,345,240691,2,0,P|98:321|212:303,1,187.500007152558,14|0,0:0|1:0,0:0:0:0:
313,272,240995,1,2,0:0:0:0:
313,272,241096,2,0,L|326:179,2,93.7500035762788,6|2|10,1:0|0:0|0:0,0:0:0:0:
337,359,241400,1,8,0:0:0:0:
342,344,241502,5,10,0:0:0:0:
413,367,241603,1,8,0:0:0:0:
482,338,241704,1,10,0:0:0:0:
501,265,241806,1,8,0:0:0:0:
459,202,241907,5,6,1:0:0:0:
