osu file format v14

[General]
AudioFilename: audio.mp3
AudioLeadIn: 0
PreviewTime: 219351
Countdown: 0
SampleSet: Normal
StackLeniency: 0.7
Mode: 1
LetterboxInBreaks: 0
WidescreenStoryboard: 1

[Editor]
Bookmarks: 9369,27757,37059,50904,64821,87824,110899,120201,133974,147891,152434,161736,173201,191872,196276,219351,237883,247041,270116
DistanceSpacing: 1
BeatDivisor: 4
GridSize: 32
TimelineZoom: 2

[Metadata]
Title:Little Cry Baby
TitleUnicode:リトルクライベイビー
Artist:hitorie
ArtistUnicode:ヒトリエ
Creator:Eyenine
Version:Muzukashii
Source:
Tags:rock japanese j-rock jrock j-pop jpop IKI ヲワカ wowaka 現実逃避P genjitsutouhiP シノダ Shinoda イガラシ ygarshy ゆーまお yumao
BeatmapID:2731788
BeatmapSetID:1315240

[Difficulty]
HPDrainRate:5
CircleSize:5
OverallDifficulty:5
ApproachRate:7
SliderMultiplier:1.4
SliderTickRate:1

[Events]
//Background and Video events
0,0,"doll.jpg",0,0
//Break Periods
//Storyboard Layer 0 (Background)
//Storyboard Layer 1 (Fail)
//Storyboard Layer 2 (Pass)
//Storyboard Layer 3 (Foreground)
//Storyboard Layer 4 (Overlay)
//Storyboard Sound Samples

[TimingPoints]
130,288.436577603861,4,1,0,70,1,0
130,-100,4,1,0,70,0,0
202,-100,4,1,0,20,0,0
4672,-100,4,1,0,70,0,0
9287,-100,4,1,0,85,0,0
27819,-100,4,1,0,70,0,0
50894,-100,4,1,0,80,0,0
64811,-100,4,1,0,70,0,0
73933,-100,4,1,0,85,0,0
87814,-100,4,1,0,90,0,1
109591,-100,4,1,0,90,0,0
109663,-100,4,1,0,85,0,0
120155,-100,4,1,0,70,0,0
133928,-100,4,1,0,85,0,0
173191,-100,4,1,0,90,0,1
190498,279.06976744186,4,1,0,90,1,1
190498,-103.35644030805,4,1,0,90,0,1
190916,276.497695852534,4,1,0,90,1,9
190916,-104.318798247444,4,1,0,90,0,1
191054,297.029702970297,4,1,0,90,1,9
191054,-97.1062342202369,4,1,0,90,0,9
191202,298.507462686567,4,1,0,90,1,9
191202,-96.6262534972936,4,1,0,90,0,9
191351,304.568527918781,4,1,0,90,1,9
191351,-94.7033429799346,4,1,0,90,0,9
191655,288.436577603861,4,1,0,90,1,0
191655,-100,4,1,0,90,0,0
193998,-100,4,1,0,70,0,0
200848,-100,4,1,0,85,0,0
219344,-100,4,1,0,90,0,1
237804,-100,4,1,0,90,0,0
247034,-100,4,1,0,90,0,1
268811,-100,4,1,0,90,0,0
268883,-100,4,1,0,85,0,0
277609,272.727272727273,4,1,0,85,1,8
277609,-105.760078454749,4,1,0,85,0,8
278017,288.461538461539,4,1,0,85,1,8
278017,-99.9913469026717,4,1,0,85,0,8
278018,288.436577603861,4,1,0,85,1,8
278018,-100,4,1,0,85,0,0
278162,307.692307692308,4,1,0,85,1,0
278162,-93.7418877212548,4,1,0,85,0,0
278623,267.857142857143,4,1,0,85,1,8
278623,-107.677398514052,4,1,0,85,0,8
278756,294.117647058824,4,1,0,85,1,8
278756,-98.0684363853127,4,1,0,85,0,8
279197,288.461538461539,4,1,0,85,1,8
279197,-99.9913469026717,4,1,0,85,0,8
279341,285.306704707561,4,1,0,85,1,0
279341,-101.097020450153,4,1,0,85,0,0
279412,-101.097020450153,4,1,0,70,0,0
280482,-101.097020450153,4,1,0,60,0,0
281623,-101.097020450153,4,1,0,50,0,0
282764,-101.097020450153,4,1,0,40,0,0

[HitObjects]
160,256,130,5,4,0:0:0:0:
160,256,4744,1,4,0:0:0:0:
352,128,5033,1,8,0:0:0:0:
160,128,5177,1,0,0:0:0:0:
352,128,5321,1,8,0:0:0:0:
160,128,5466,1,0,0:0:0:0:
352,128,5754,1,8,0:0:0:0:
160,128,6042,1,0,0:0:0:0:
352,128,6187,1,8,0:0:0:0:
160,128,6475,1,0,0:0:0:0:
160,128,6619,1,0,0:0:0:0:
352,128,6764,1,8,0:0:0:0:
160,128,7052,1,0,0:0:0:0:
352,128,7340,1,8,0:0:0:0:
160,128,7485,1,0,0:0:0:0:
352,128,7629,1,8,0:0:0:0:
160,128,7773,1,0,0:0:0:0:
352,128,8062,1,8,0:0:0:0:
160,128,8350,1,0,0:0:0:0:
352,128,8494,1,8,0:0:0:0:
160,128,8638,1,0,0:0:0:0:
352,128,8783,1,8,0:0:0:0:
160,128,8927,1,0,0:0:0:0:
160,256,9359,1,4,0:0:0:0:
352,128,9648,1,8,0:0:0:0:
160,128,9936,1,0,0:0:0:0:
160,128,10081,1,0,0:0:0:0:
352,128,10225,1,8,0:0:0:0:
352,128,10369,1,8,0:0:0:0:
352,128,10802,1,8,0:0:0:0:
352,128,10946,1,8,0:0:0:0:
352,128,11018,1,8,0:0:0:0:
352,128,11090,1,8,0:0:0:0:
160,128,11234,1,0,0:0:0:0:
352,128,11379,1,8,0:0:0:0:
160,128,11667,1,0,0:0:0:0:
352,128,11955,1,8,0:0:0:0:
160,128,12244,1,0,0:0:0:0:
160,128,12388,1,0,0:0:0:0:
352,128,12532,1,8,0:0:0:0:
352,128,12676,1,8,0:0:0:0:
160,128,12965,1,0,0:0:0:0:
352,128,13109,1,8,0:0:0:0:
160,128,13253,1,0,0:0:0:0:
160,128,13325,1,0,0:0:0:0:
160,128,13398,1,0,0:0:0:0:
160,128,13542,1,0,0:0:0:0:
352,128,13686,1,8,0:0:0:0:
160,128,13974,1,0,0:0:0:0:
352,128,14263,1,8,0:0:0:0:
160,128,14551,1,0,0:0:0:0:
160,128,14696,1,0,0:0:0:0:
352,128,14840,1,8,0:0:0:0:
352,128,14984,1,8,0:0:0:0:
352,128,15417,1,8,0:0:0:0:
352,128,15561,1,8,0:0:0:0:
352,128,15633,1,8,0:0:0:0:
352,128,15705,1,8,0:0:0:0:
160,128,15849,1,0,0:0:0:0:
352,128,15994,1,8,0:0:0:0:
160,128,16282,1,0,0:0:0:0:
352,128,16570,1,8,0:0:0:0:
160,128,16859,1,0,0:0:0:0:
160,128,17003,1,0,0:0:0:0:
352,128,17147,1,8,0:0:0:0:
352,128,17291,1,8,0:0:0:0:
160,128,17580,1,0,0:0:0:0:
352,256,17724,1,12,0:0:0:0:
160,128,18013,1,0,0:0:0:0:
160,128,18085,1,0,0:0:0:0:
160,128,18157,1,0,0:0:0:0:
352,128,18301,1,8,0:0:0:0:
352,128,18445,1,8,0:0:0:0:
160,256,18589,1,4,0:0:0:0:
352,128,18878,1,8,0:0:0:0:
160,128,19166,1,0,0:0:0:0:
160,128,19311,1,0,0:0:0:0:
352,128,19455,1,8,0:0:0:0:
160,128,19743,5,0,0:0:0:0:
160,128,19887,1,0,0:0:0:0:
352,128,20032,1,8,0:0:0:0:
160,128,20176,1,0,0:0:0:0:
160,128,20248,1,0,0:0:0:0:
160,128,20320,1,0,0:0:0:0:
160,128,20464,1,0,0:0:0:0:
352,128,20608,1,8,0:0:0:0:
160,128,20897,1,0,0:0:0:0:
160,128,21041,1,0,0:0:0:0:
352,128,21185,1,8,0:0:0:0:
160,128,21330,1,0,0:0:0:0:
352,128,21474,1,8,0:0:0:0:
160,128,21618,1,0,0:0:0:0:
352,128,21762,1,8,0:0:0:0:
352,128,21906,1,8,0:0:0:0:
352,128,22339,1,8,0:0:0:0:
352,128,22483,1,8,0:0:0:0:
160,128,22628,1,0,0:0:0:0:
160,128,22772,1,0,0:0:0:0:
352,128,22916,1,8,0:0:0:0:
160,256,23204,1,4,0:0:0:0:
352,128,23493,1,8,0:0:0:0:
160,128,23781,1,0,0:0:0:0:
160,128,23926,1,0,0:0:0:0:
352,128,24070,1,8,0:0:0:0:
160,128,24214,1,0,0:0:0:0:
160,128,24502,1,0,0:0:0:0:
352,128,24647,1,8,0:0:0:0:
160,128,24791,1,0,0:0:0:0:
160,128,24863,1,0,0:0:0:0:
160,128,24935,1,0,0:0:0:0:
160,128,25079,1,0,0:0:0:0:
352,128,25223,1,8,0:0:0:0:
160,128,25512,1,0,0:0:0:0:
352,128,25656,1,8,0:0:0:0:
352,128,25728,1,8,0:0:0:0:
352,128,25800,1,8,0:0:0:0:
160,128,25945,1,0,0:0:0:0:
352,128,26089,1,8,0:0:0:0:
352,128,26233,1,8,0:0:0:0:
160,128,26377,1,0,0:0:0:0:
352,128,26521,1,8,0:0:0:0:
160,128,26810,1,0,0:0:0:0:
352,128,26954,1,8,0:0:0:0:
160,128,27098,1,0,0:0:0:0:
352,128,27243,1,8,0:0:0:0:
160,128,27387,1,0,0:0:0:0:
352,128,27531,1,8,0:0:0:0:
160,256,27819,1,4,0:0:0:0:
352,128,28108,1,8,0:0:0:0:
160,128,28396,1,0,0:0:0:0:
160,128,28685,1,0,0:0:0:0:
160,128,29117,1,0,0:0:0:0:
352,128,29262,1,8,0:0:0:0:
160,128,29406,1,0,0:0:0:0:
160,128,29694,1,0,0:0:0:0:
352,128,29983,1,8,0:0:0:0:
160,128,30127,1,0,0:0:0:0:
160,128,30271,1,0,0:0:0:0:
352,128,30415,1,8,0:0:0:0:
160,128,30704,1,0,0:0:0:0:
160,128,30992,1,0,0:0:0:0:
160,128,31425,1,0,0:0:0:0:
352,128,31569,1,8,0:0:0:0:
160,128,31713,1,0,0:0:0:0:
160,128,32002,1,0,0:0:0:0:
352,128,32146,1,8,0:0:0:0:
160,128,32434,1,0,0:0:0:0:
352,128,32723,1,8,0:0:0:0:
160,128,33011,1,0,0:0:0:0:
160,128,33300,1,0,0:0:0:0:
352,128,33444,1,8,0:0:0:0:
160,128,33732,1,0,0:0:0:0:
352,128,33877,1,8,0:0:0:0:
160,128,34021,1,0,0:0:0:0:
160,128,34309,1,0,0:0:0:0:
352,128,34598,1,8,0:0:0:0:
160,128,34742,1,0,0:0:0:0:
160,128,34886,1,0,0:0:0:0:
352,128,35030,1,8,0:0:0:0:
160,128,35319,1,0,0:0:0:0:
160,128,35607,1,0,0:0:0:0:
352,128,35751,1,8,0:0:0:0:
160,128,36040,1,0,0:0:0:0:
352,128,36184,1,8,0:0:0:0:
160,128,36328,1,0,0:0:0:0:
160,128,36617,1,0,0:0:0:0:
352,128,36761,1,8,0:0:0:0:
160,256,37049,1,4,0:0:0:0:
352,128,37338,1,8,0:0:0:0:
160,128,37626,1,0,0:0:0:0:
160,128,37915,1,0,0:0:0:0:
352,128,38059,1,8,0:0:0:0:
352,128,38492,1,8,0:0:0:0:
160,128,38636,1,0,0:0:0:0:
160,128,38924,1,0,0:0:0:0:
352,128,39213,1,8,0:0:0:0:
160,128,39357,1,0,0:0:0:0:
160,128,39501,1,0,0:0:0:0:
352,128,39645,1,8,0:0:0:0:
160,128,39934,1,0,0:0:0:0:
160,128,40222,1,0,0:0:0:0:
352,128,40366,1,8,0:0:0:0:
352,128,40799,1,8,0:0:0:0:
160,128,41087,1,0,0:0:0:0:
160,128,41232,1,0,0:0:0:0:
352,128,41376,1,8,0:0:0:0:
160,128,41664,1,0,0:0:0:0:
352,128,41953,1,8,0:0:0:0:
160,128,42241,1,0,0:0:0:0:
160,128,42530,1,0,0:0:0:0:
352,128,42674,1,8,0:0:0:0:
352,128,43107,1,8,0:0:0:0:
160,128,43251,1,0,0:0:0:0:
160,128,43539,1,0,0:0:0:0:
352,128,43828,1,8,0:0:0:0:
160,128,43972,1,0,0:0:0:0:
160,128,44116,1,0,0:0:0:0:
352,128,44260,1,8,0:0:0:0:
160,128,44549,1,0,0:0:0:0:
160,128,44837,1,0,0:0:0:0:
352,128,44981,1,8,0:0:0:0:
352,128,45414,1,8,0:0:0:0:
160,128,45702,1,0,0:0:0:0:
160,128,45847,1,0,0:0:0:0:
352,128,45991,1,8,0:0:0:0:
160,256,46279,1,4,0:0:0:0:
352,128,46568,1,8,0:0:0:0:
160,128,47000,1,0,0:0:0:0:
352,128,47145,1,8,0:0:0:0:
160,128,47289,1,0,0:0:0:0:
160,128,47577,1,0,0:0:0:0:
352,128,47722,1,8,0:0:0:0:
160,128,48010,1,0,0:0:0:0:
160,128,48154,1,0,0:0:0:0:
352,128,48298,1,8,0:0:0:0:
160,128,48587,1,0,0:0:0:0:
352,128,48875,1,8,0:0:0:0:
160,128,49308,1,0,0:0:0:0:
352,128,49452,1,8,0:0:0:0:
160,128,49596,1,0,0:0:0:0:
160,128,49885,1,0,0:0:0:0:
352,128,50029,1,8,0:0:0:0:
352,128,50173,1,8,0:0:0:0:
352,128,50245,1,8,0:0:0:0:
352,128,50317,1,8,0:0:0:0:
352,128,50462,1,8,0:0:0:0:
352,128,50606,1,8,0:0:0:0:
160,256,50894,1,4,0:0:0:0:
352,128,51183,1,8,0:0:0:0:
160,128,51471,1,0,0:0:0:0:
160,128,51760,1,0,0:0:0:0:
352,128,51904,1,8,0:0:0:0:
352,128,52337,1,8,0:0:0:0:
352,128,52481,1,8,0:0:0:0:
160,128,52625,1,0,0:0:0:0:
352,128,52769,1,8,0:0:0:0:
352,128,53058,1,8,0:0:0:0:
160,128,53202,1,0,0:0:0:0:
160,128,53346,1,0,0:0:0:0:
352,128,53490,1,8,0:0:0:0:
160,128,53779,1,0,0:0:0:0:
160,128,54067,1,0,0:0:0:0:
352,128,54211,1,8,0:0:0:0:
352,128,54644,1,8,0:0:0:0:
352,128,54788,1,8,0:0:0:0:
160,128,54932,1,0,0:0:0:0:
160,128,55077,1,0,0:0:0:0:
352,128,55221,1,8,0:0:0:0:
160,128,55509,1,0,0:0:0:0:
352,128,55798,1,8,0:0:0:0:
160,128,56086,1,0,0:0:0:0:
160,128,56375,1,0,0:0:0:0:
352,128,56519,1,8,0:0:0:0:
352,128,56952,1,8,0:0:0:0:
160,128,57096,1,0,0:0:0:0:
352,128,57384,1,8,0:0:0:0:
352,128,57673,1,8,0:0:0:0:
160,128,57817,1,0,0:0:0:0:
160,128,57961,1,0,0:0:0:0:
352,128,58105,1,8,0:0:0:0:
160,128,58394,1,0,0:0:0:0:
160,128,58682,1,0,0:0:0:0:
352,128,58826,1,8,0:0:0:0:
352,128,59259,1,8,0:0:0:0:
352,128,59403,1,8,0:0:0:0:
160,128,59547,1,0,0:0:0:0:
160,128,59692,1,0,0:0:0:0:
352,128,59836,1,8,0:0:0:0:
160,256,60124,1,4,0:0:0:0:
352,128,60413,1,8,0:0:0:0:
160,128,60845,1,0,0:0:0:0:
352,128,60990,1,8,0:0:0:0:
160,128,61134,1,0,0:0:0:0:
160,128,61422,1,0,0:0:0:0:
352,128,61566,1,8,0:0:0:0:
352,128,61711,1,8,0:0:0:0:
160,128,61855,1,0,0:0:0:0:
160,128,61999,1,0,0:0:0:0:
352,128,62143,1,8,0:0:0:0:
160,128,62432,1,0,0:0:0:0:
352,128,62720,1,8,0:0:0:0:
160,128,63153,1,0,0:0:0:0:
352,128,63297,1,8,0:0:0:0:
160,128,63441,1,0,0:0:0:0:
160,128,63730,1,0,0:0:0:0:
352,128,63874,1,8,0:0:0:0:
352,128,64018,1,8,0:0:0:0:
352,128,64090,1,8,0:0:0:0:
352,128,64162,1,8,0:0:0:0:
352,128,64307,1,8,0:0:0:0:
352,128,64451,1,8,0:0:0:0:
160,256,64739,1,4,0:0:0:0:
160,128,65172,1,0,0:0:0:0:
160,128,65460,1,0,0:0:0:0:
352,128,65749,1,8,0:0:0:0:
160,128,66037,1,0,0:0:0:0:
352,128,66181,1,8,0:0:0:0:
160,128,66470,1,0,0:0:0:0:
352,128,66758,1,8,0:0:0:0:
352,128,66903,1,8,0:0:0:0:
160,128,67047,1,0,0:0:0:0:
160,128,67479,1,0,0:0:0:0:
352,128,67768,1,8,0:0:0:0:
160,128,68056,1,0,0:0:0:0:
352,128,68345,1,8,0:0:0:0:
160,128,68489,1,0,0:0:0:0:
160,128,68633,1,0,0:0:0:0:
352,128,68777,1,8,0:0:0:0:
352,128,69066,1,8,0:0:0:0:
160,128,69354,1,0,0:0:0:0:
160,128,69787,1,0,0:0:0:0:
160,128,70075,1,0,0:0:0:0:
352,128,70364,1,8,0:0:0:0:
160,128,70652,1,0,0:0:0:0:
160,128,70796,1,0,0:0:0:0:
352,128,71085,1,8,0:0:0:0:
352,128,71373,1,8,0:0:0:0:
352,128,71518,1,8,0:0:0:0:
160,128,71662,1,0,0:0:0:0:
160,128,72094,1,0,0:0:0:0:
352,128,72383,1,8,0:0:0:0:
160,128,72671,1,0,0:0:0:0:
352,128,72960,1,8,0:0:0:0:
352,128,73104,1,8,0:0:0:0:
160,128,73248,1,0,0:0:0:0:
352,128,73392,1,8,0:0:0:0:
352,128,73537,1,8,0:0:0:0:
352,128,73681,1,8,0:0:0:0:
160,256,73969,1,4,0:0:0:0:
352,128,74258,1,8,0:0:0:0:
160,128,74402,1,0,0:0:0:0:
352,128,74546,1,8,0:0:0:0:
160,128,74690,1,0,0:0:0:0:
352,128,74835,1,8,0:0:0:0:
160,128,74979,1,0,0:0:0:0:
352,128,75123,1,8,0:0:0:0:
352,128,75411,1,8,0:0:0:0:
160,128,75556,1,0,0:0:0:0:
352,128,75700,1,8,0:0:0:0:
352,128,75772,1,8,0:0:0:0:
352,128,75844,1,8,0:0:0:0:
352,128,75988,1,8,0:0:0:0:
352,128,76133,1,8,0:0:0:0:
160,128,76277,1,0,0:0:0:0:
352,128,76565,1,8,0:0:0:0:
160,128,76709,1,0,0:0:0:0:
352,128,76854,1,8,0:0:0:0:
160,128,76998,1,0,0:0:0:0:
352,128,77142,1,8,0:0:0:0:
160,128,77286,1,0,0:0:0:0:
352,128,77431,1,8,0:0:0:0:
352,128,77719,1,8,0:0:0:0:
352,128,77863,1,8,0:0:0:0:
352,128,77935,1,8,0:0:0:0:
352,128,78007,1,8,0:0:0:0:
352,128,78152,1,8,0:0:0:0:
160,128,78296,1,0,0:0:0:0:
160,256,78584,1,4,0:0:0:0:
352,128,79161,1,8,0:0:0:0:
352,128,79594,1,8,0:0:0:0:
160,128,79738,1,0,0:0:0:0:
352,128,79882,1,8,0:0:0:0:
160,128,80026,1,0,0:0:0:0:
160,128,80315,1,0,0:0:0:0:
160,128,80459,1,0,0:0:0:0:
352,256,80603,1,12,0:0:0:0:
160,256,80892,1,4,0:0:0:0:
352,128,81180,1,8,0:0:0:0:
160,128,81324,1,0,0:0:0:0:
160,128,81397,1,0,0:0:0:0:
160,128,81469,1,0,0:0:0:0:
160,128,81757,1,0,0:0:0:0:
352,128,81901,1,8,0:0:0:0:
352,128,81973,1,8,0:0:0:0:
352,128,82045,1,8,0:0:0:0:
352,128,82334,1,8,0:0:0:0:
352,128,82478,1,8,0:0:0:0:
352,128,82550,1,8,0:0:0:0:
352,128,82622,1,8,0:0:0:0:
352,128,82911,1,8,0:0:0:0:
352,128,83055,1,8,0:0:0:0:
160,256,83199,1,4,0:0:0:0:
352,128,83488,1,8,0:0:0:0:
160,128,83920,1,0,0:0:0:0:
352,128,84065,1,8,0:0:0:0:
160,128,84353,1,0,0:0:0:0:
352,128,84641,1,8,0:0:0:0:
160,128,84786,1,0,0:0:0:0:
160,128,84930,1,0,0:0:0:0:
160,128,85002,1,0,0:0:0:0:
160,128,85074,1,0,0:0:0:0:
352,128,85218,1,8,0:0:0:0:
160,256,85507,1,4,0:0:0:0:
352,128,85795,1,8,0:0:0:0:
352,128,85867,1,8,0:0:0:0:
352,128,85939,1,8,0:0:0:0:
160,128,86084,1,0,0:0:0:0:
160,128,86228,1,0,0:0:0:0:
352,128,86372,1,8,0:0:0:0:
352,128,86516,1,8,0:0:0:0:
160,128,86660,1,0,0:0:0:0:
160,128,86733,1,0,0:0:0:0:
160,128,86805,1,0,0:0:0:0:
352,128,86949,1,8,0:0:0:0:
352,128,87021,1,8,0:0:0:0:
352,128,87093,1,8,0:0:0:0:
160,128,87237,1,0,0:0:0:0:
160,256,87814,1,4,0:0:0:0:
352,128,88103,1,8,0:0:0:0:
160,128,88391,1,0,0:0:0:0:
160,128,88535,1,0,0:0:0:0:
352,128,88680,1,8,0:0:0:0:
160,256,88824,1,4,0:0:0:0:
352,128,89256,1,8,0:0:0:0:
352,128,89401,1,8,0:0:0:0:
160,128,89545,1,0,0:0:0:0:
160,128,89617,1,0,0:0:0:0:
160,128,89689,1,0,0:0:0:0:
352,128,89833,1,8,0:0:0:0:
160,128,90122,1,0,0:0:0:0:
352,128,90410,1,8,0:0:0:0:
160,128,90554,1,0,0:0:0:0:
160,128,90699,1,0,0:0:0:0:
160,128,90771,1,0,0:0:0:0:
160,128,90843,1,0,0:0:0:0:
352,128,90987,1,8,0:0:0:0:
160,128,91131,1,0,0:0:0:0:
352,128,91420,1,8,0:0:0:0:
352,128,91492,1,8,0:0:0:0:
352,128,91564,1,8,0:0:0:0:
352,128,91708,1,8,0:0:0:0:
160,128,91852,1,0,0:0:0:0:
160,128,91997,1,0,0:0:0:0:
352,128,92141,1,8,0:0:0:0:
160,256,92429,1,4,0:0:0:0:
352,128,92718,1,8,0:0:0:0:
160,128,93006,1,0,0:0:0:0:
160,128,93150,1,0,0:0:0:0:
352,128,93295,1,8,0:0:0:0:
160,256,93439,1,4,0:0:0:0:
352,128,93871,1,8,0:0:0:0:
160,128,94016,1,0,0:0:0:0:
352,128,94160,1,8,0:0:0:0:
352,128,94232,1,8,0:0:0:0:
352,128,94304,1,8,0:0:0:0:
352,128,94448,1,8,0:0:0:0:
352,256,94737,1,12,0:0:0:0:
352,128,95025,1,8,0:0:0:0:
352,128,95169,1,8,0:0:0:0:
160,128,95314,1,0,0:0:0:0:
160,128,95386,1,0,0:0:0:0:
160,128,95458,1,0,0:0:0:0:
352,128,95602,1,8,0:0:0:0:
160,256,95746,1,4,0:0:0:0:
352,128,96035,1,8,0:0:0:0:
352,128,96179,1,8,0:0:0:0:
352,128,96467,1,8,0:0:0:0:
352,128,96539,1,8,0:0:0:0:
352,128,96612,1,8,0:0:0:0:
352,128,96756,1,8,0:0:0:0:
352,128,96900,1,8,0:0:0:0:
160,256,97044,1,4,0:0:0:0:
352,128,97333,1,8,0:0:0:0:
160,128,97621,1,0,0:0:0:0:
160,128,97765,1,0,0:0:0:0:
352,128,97909,1,8,0:0:0:0:
160,128,98054,1,0,0:0:0:0:
352,128,98486,1,8,0:0:0:0:
160,128,98631,1,0,0:0:0:0:
352,128,98775,1,8,0:0:0:0:
352,128,98847,1,8,0:0:0:0:
352,128,98919,1,8,0:0:0:0:
352,128,99063,1,8,0:0:0:0:
160,128,99352,1,0,0:0:0:0:
352,128,99640,1,8,0:0:0:0:
160,128,99784,1,0,0:0:0:0:
160,128,99929,1,0,0:0:0:0:
160,128,100001,1,0,0:0:0:0:
160,128,100073,1,0,0:0:0:0:
352,128,100217,1,8,0:0:0:0:
160,256,100361,1,4,0:0:0:0:
160,128,100650,1,0,0:0:0:0:
352,128,100794,1,8,0:0:0:0:
352,128,100866,1,8,0:0:0:0:
352,128,100938,1,8,0:0:0:0:
160,128,101082,1,0,0:0:0:0:
160,128,101227,1,0,0:0:0:0:
352,128,101371,1,8,0:0:0:0:
160,256,101659,1,4,0:0:0:0:
352,128,101948,1,8,0:0:0:0:
160,128,102236,1,0,0:0:0:0:
160,128,102308,1,0,0:0:0:0:
160,128,102380,1,0,0:0:0:0:
352,128,102524,1,8,0:0:0:0:
352,128,102669,1,8,0:0:0:0:
160,128,102813,1,0,0:0:0:0:
352,128,103101,1,8,0:0:0:0:
160,128,103390,1,0,0:0:0:0:
160,128,103462,1,0,0:0:0:0:
160,128,103534,1,0,0:0:0:0:
352,128,103678,1,8,0:0:0:0:
352,128,103822,1,8,0:0:0:0:
160,128,103967,1,0,0:0:0:0:
352,128,104544,1,8,0:0:0:0:
352,128,104616,1,8,0:0:0:0:
352,128,104688,1,8,0:0:0:0:
352,128,104832,1,8,0:0:0:0:
352,128,104976,1,8,0:0:0:0:
160,128,105120,1,0,0:0:0:0:
160,128,105265,1,0,0:0:0:0:
352,128,105409,1,8,0:0:0:0:
352,128,105553,1,8,0:0:0:0:
160,128,105697,1,0,0:0:0:0:
160,128,105769,1,0,0:0:0:0:
160,128,105842,1,0,0:0:0:0:
352,128,105986,1,8,0:0:0:0:
352,256,106274,1,12,0:0:0:0:
352,128,106563,1,8,0:0:0:0:
160,128,106707,1,0,0:0:0:0:
352,128,106851,1,8,0:0:0:0:
160,128,106995,1,0,0:0:0:0:
160,128,107067,1,0,0:0:0:0:
160,128,107139,1,0,0:0:0:0:
160,128,107284,1,0,0:0:0:0:
352,128,107428,1,8,0:0:0:0:
352,128,107716,1,8,0:0:0:0:
160,128,107861,1,0,0:0:0:0:
352,128,108005,1,8,0:0:0:0:
352,128,108149,1,8,0:0:0:0:
352,128,108221,1,8,0:0:0:0:
352,128,108293,1,8,0:0:0:0:
160,128,108437,1,0,0:0:0:0:
352,128,108582,1,8,0:0:0:0:
352,128,108870,1,8,0:0:0:0:
160,128,109014,1,0,0:0:0:0:
352,128,109159,1,8,0:0:0:0:
160,128,109303,1,0,0:0:0:0:
352,128,109447,1,8,0:0:0:0:
160,256,109591,1,4,0:0:0:0:
352,128,110601,1,8,0:0:0:0:
160,256,110889,1,4,0:0:0:0:
352,128,111178,1,8,0:0:0:0:
160,128,111322,1,0,0:0:0:0:
352,128,111466,1,8,0:0:0:0:
160,128,111610,1,0,0:0:0:0:
352,128,111899,1,8,0:0:0:0:
352,128,112331,1,8,0:0:0:0:
160,128,112476,1,0,0:0:0:0:
160,128,112548,1,0,0:0:0:0:
160,128,112620,1,0,0:0:0:0:
160,128,112764,1,0,0:0:0:0:
352,128,112908,1,8,0:0:0:0:
160,128,113197,1,0,0:0:0:0:
352,128,113485,1,8,0:0:0:0:
160,128,113629,1,0,0:0:0:0:
352,128,113774,1,8,0:0:0:0:
160,128,113918,1,0,0:0:0:0:
352,128,114206,1,8,0:0:0:0:
352,128,114639,1,8,0:0:0:0:
352,128,114783,1,8,0:0:0:0:
352,128,114855,1,8,0:0:0:0:
352,128,114927,1,8,0:0:0:0:
160,128,115071,1,0,0:0:0:0:
352,128,115216,1,8,0:0:0:0:
160,256,115504,1,4,0:0:0:0:
352,128,115793,1,8,0:0:0:0:
160,128,115937,1,0,0:0:0:0:
352,128,116081,1,8,0:0:0:0:
160,128,116225,1,0,0:0:0:0:
352,128,116514,1,8,0:0:0:0:
352,128,116946,1,8,0:0:0:0:
160,128,117091,1,0,0:0:0:0:
160,128,117163,1,0,0:0:0:0:
160,128,117235,1,0,0:0:0:0:
160,128,117379,1,0,0:0:0:0:
352,128,117523,1,8,0:0:0:0:
160,128,117812,1,0,0:0:0:0:
352,128,118100,1,8,0:0:0:0:
160,128,118244,1,0,0:0:0:0:
352,128,118388,1,8,0:0:0:0:
160,128,118533,1,0,0:0:0:0:
352,128,118821,1,8,0:0:0:0:
352,256,119254,1,12,0:0:0:0:
160,128,119398,1,0,0:0:0:0:
160,128,119470,1,0,0:0:0:0:
160,128,119542,1,0,0:0:0:0:
352,128,119686,1,8,0:0:0:0:
160,128,119831,1,0,0:0:0:0:
160,256,120119,1,4,0:0:0:0:
160,128,120696,1,0,0:0:0:0:
160,128,120984,1,0,0:0:0:0:
352,128,121129,1,8,0:0:0:0:
160,128,121273,1,0,0:0:0:0:
160,128,121561,1,0,0:0:0:0:
352,128,121850,1,8,0:0:0:0:
352,128,122138,1,8,0:0:0:0:
160,128,122715,1,0,0:0:0:0:
160,128,123003,1,0,0:0:0:0:
160,128,123292,1,0,0:0:0:0:
352,128,123436,1,8,0:0:0:0:
160,128,123580,1,0,0:0:0:0:
160,128,123869,1,0,0:0:0:0:
352,128,124157,1,8,0:0:0:0:
352,128,124446,1,8,0:0:0:0:
160,256,124734,1,4,0:0:0:0:
160,128,125311,1,0,0:0:0:0:
160,128,125599,1,0,0:0:0:0:
352,128,125744,1,8,0:0:0:0:
160,128,125888,1,0,0:0:0:0:
160,128,126176,1,0,0:0:0:0:
160,128,126465,1,0,0:0:0:0:
352,128,126753,1,8,0:0:0:0:
352,128,127330,1,8,0:0:0:0:
160,128,127618,1,0,0:0:0:0:
160,128,127907,1,0,0:0:0:0:
352,128,128051,1,8,0:0:0:0:
160,128,128195,1,0,0:0:0:0:
160,128,128484,1,0,0:0:0:0:
352,128,128628,1,8,0:0:0:0:
160,128,128772,1,0,0:0:0:0:
160,128,128916,1,0,0:0:0:0:
352,128,129061,1,8,0:0:0:0:
160,256,129349,1,4,0:0:0:0:
160,128,129926,1,0,0:0:0:0:
160,128,130214,1,0,0:0:0:0:
352,128,130503,1,8,0:0:0:0:
352,128,130791,1,8,0:0:0:0:
352,128,131080,1,8,0:0:0:0:
352,128,131368,1,8,0:0:0:0:
352,256,131657,1,12,0:0:0:0:
160,128,132233,1,0,0:0:0:0:
160,128,132522,1,0,0:0:0:0:
352,128,132666,1,8,0:0:0:0:
160,128,132810,1,0,0:0:0:0:
352,128,133099,1,8,0:0:0:0:
160,128,133387,1,0,0:0:0:0:
160,128,133531,1,0,0:0:0:0:
352,128,133676,1,8,0:0:0:0:
160,256,133964,1,4,0:0:0:0:
352,128,134253,1,8,0:0:0:0:
160,128,134541,1,0,0:0:0:0:
160,128,134685,1,0,0:0:0:0:
352,128,134829,1,8,0:0:0:0:
352,128,134974,1,8,0:0:0:0:
352,128,135406,1,8,0:0:0:0:
160,128,135550,1,0,0:0:0:0:
160,128,135623,1,0,0:0:0:0:
160,128,135695,1,0,0:0:0:0:
160,128,135839,1,0,0:0:0:0:
352,128,135983,1,8,0:0:0:0:
160,128,136272,1,0,0:0:0:0:
352,128,136560,1,8,0:0:0:0:
160,128,136848,1,0,0:0:0:0:
160,128,136993,1,0,0:0:0:0:
352,128,137137,1,8,0:0:0:0:
352,128,137281,1,8,0:0:0:0:
160,128,137570,1,0,0:0:0:0:
352,128,137714,1,8,0:0:0:0:
160,128,137858,1,0,0:0:0:0:
160,128,138002,1,0,0:0:0:0:
160,128,138146,1,0,0:0:0:0:
352,128,138291,1,8,0:0:0:0:
160,128,138435,1,0,0:0:0:0:
352,128,138579,1,8,0:0:0:0:
352,128,138867,1,8,0:0:0:0:
160,128,139156,1,0,0:0:0:0:
160,128,139300,1,0,0:0:0:0:
352,128,139444,1,8,0:0:0:0:
160,128,139589,1,0,0:0:0:0:
352,128,140021,1,8,0:0:0:0:
160,128,140165,1,0,0:0:0:0:
160,128,140238,1,0,0:0:0:0:
160,128,140310,1,0,0:0:0:0:
160,128,140454,1,0,0:0:0:0:
352,128,140598,1,8,0:0:0:0:
160,128,140887,1,0,0:0:0:0:
352,128,141175,1,8,0:0:0:0:
160,128,141463,1,0,0:0:0:0:
160,128,141608,1,0,0:0:0:0:
352,128,141752,1,8,0:0:0:0:
352,128,141896,1,8,0:0:0:0:
160,128,142185,1,0,0:0:0:0:
352,128,142329,1,8,0:0:0:0:
352,128,142473,1,8,0:0:0:0:
160,128,142617,1,0,0:0:0:0:
160,128,142761,1,0,0:0:0:0:
352,128,142906,1,8,0:0:0:0:
160,256,143194,1,4,0:0:0:0:
352,128,143482,1,8,0:0:0:0:
160,128,143771,1,0,0:0:0:0:
160,128,143915,1,0,0:0:0:0:
352,128,144059,1,8,0:0:0:0:
160,128,144204,1,0,0:0:0:0:
352,128,144636,1,8,0:0:0:0:
160,128,144925,1,0,0:0:0:0:
160,128,144997,1,0,0:0:0:0:
160,128,145069,1,0,0:0:0:0:
352,128,145213,1,8,0:0:0:0:
160,128,145502,1,0,0:0:0:0:
352,128,145790,1,8,0:0:0:0:
160,128,146078,1,0,0:0:0:0:
352,128,146367,1,8,0:0:0:0:
160,128,146511,1,0,0:0:0:0:
160,128,146655,1,0,0:0:0:0:
160,128,146727,1,0,0:0:0:0:
160,128,146799,1,0,0:0:0:0:
352,128,146944,1,8,0:0:0:0:
160,128,147232,1,0,0:0:0:0:
352,128,147376,1,8,0:0:0:0:
352,128,147448,1,8,0:0:0:0:
352,128,147521,1,8,0:0:0:0:
160,256,147809,1,4,0:0:0:0:
352,128,148097,1,8,0:0:0:0:
160,128,148386,1,0,0:0:0:0:
160,128,148530,1,0,0:0:0:0:
352,128,148674,1,8,0:0:0:0:
160,128,148819,1,0,0:0:0:0:
352,128,149251,1,8,0:0:0:0:
352,128,149540,1,8,0:0:0:0:
352,128,149828,1,8,0:0:0:0:
160,128,149972,1,0,0:0:0:0:
160,128,150044,1,0,0:0:0:0:
160,128,150117,1,0,0:0:0:0:
352,128,150405,1,8,0:0:0:0:
160,128,150693,1,0,0:0:0:0:
160,128,150838,1,0,0:0:0:0:
352,128,150982,1,8,0:0:0:0:
160,128,151126,1,0,0:0:0:0:
352,128,151270,1,8,0:0:0:0:
352,128,151342,1,8,0:0:0:0:
352,128,151414,1,8,0:0:0:0:
352,128,151559,1,8,0:0:0:0:
352,128,151847,1,8,0:0:0:0:
352,128,151991,1,8,0:0:0:0:
160,128,152136,1,0,0:0:0:0:
160,256,152424,1,4,0:0:0:0:
160,128,152712,1,0,0:0:0:0:
352,128,153001,1,12,0:0:0:0:
352,128,153434,1,8,0:0:0:0:
352,128,153722,1,8,0:0:0:0:
160,128,153866,1,0,0:0:0:0:
160,128,154010,1,0,0:0:0:0:
352,128,154155,1,8,0:0:0:0:
352,128,154443,1,8,0:0:0:0:
160,256,154732,1,4,0:0:0:0:
160,128,155020,1,0,0:0:0:0:
352,128,155308,1,8,0:0:0:0:
352,128,155597,1,8,0:0:0:0:
160,128,155741,1,0,0:0:0:0:
352,128,156029,1,8,0:0:0:0:
160,128,156318,1,0,0:0:0:0:
352,128,156462,1,8,0:0:0:0:
352,128,156751,1,8,0:0:0:0:
352,128,156895,1,8,0:0:0:0:
160,256,157039,1,4,0:0:0:0:
160,128,157327,1,0,0:0:0:0:
352,256,157616,1,12,0:0:0:0:
160,128,158049,1,0,0:0:0:0:
352,128,158337,1,8,0:0:0:0:
160,128,158481,1,0,0:0:0:0:
160,128,158625,1,0,0:0:0:0:
352,128,158770,1,8,0:0:0:0:
160,128,158914,1,0,0:0:0:0:
352,128,159058,1,8,0:0:0:0:
160,256,159346,1,4,0:0:0:0:
160,128,159635,1,0,0:0:0:0:
352,128,159923,1,8,0:0:0:0:
352,128,160212,1,8,0:0:0:0:
160,128,160356,1,0,0:0:0:0:
352,128,160644,1,8,0:0:0:0:
352,128,160933,1,8,0:0:0:0:
352,128,161077,1,8,0:0:0:0:
160,128,161221,1,0,0:0:0:0:
352,256,161366,1,12,0:0:0:0:
160,256,161654,1,4,0:0:0:0:
352,128,161942,1,8,0:0:0:0:
352,128,162231,1,8,0:0:0:0:
352,128,162519,1,8,0:0:0:0:
160,128,162664,1,0,0:0:0:0:
352,128,162808,1,8,0:0:0:0:
352,128,163096,1,8,0:0:0:0:
352,128,163240,1,8,0:0:0:0:
160,128,163529,1,0,0:0:0:0:
352,128,163673,1,8,0:0:0:0:
160,128,163817,1,0,0:0:0:0:
352,128,164250,1,8,0:0:0:0:
352,128,164538,1,8,0:0:0:0:
352,128,164827,1,8,0:0:0:0:
160,128,164971,1,0,0:0:0:0:
352,128,165115,1,8,0:0:0:0:
352,256,165404,1,12,0:0:0:0:
160,128,165692,1,0,0:0:0:0:
352,128,165836,1,8,0:0:0:0:
352,128,165908,1,8,0:0:0:0:
352,128,165981,1,8,0:0:0:0:
352,128,166125,1,8,0:0:0:0:
160,256,166269,1,4,0:0:0:0:
352,128,166557,1,8,0:0:0:0:
160,128,166990,1,0,0:0:0:0:
352,128,167134,1,8,0:0:0:0:
160,128,167423,1,0,0:0:0:0:
352,128,167711,1,8,0:0:0:0:
160,128,167855,1,0,0:0:0:0:
352,128,168000,1,8,0:0:0:0:
352,128,168072,1,8,0:0:0:0:
352,128,168144,1,8,0:0:0:0:
352,128,168288,1,8,0:0:0:0:
160,128,168576,1,0,0:0:0:0:
352,128,168865,1,8,0:0:0:0:
160,128,169298,1,0,0:0:0:0:
352,128,169442,1,8,0:0:0:0:
160,128,169730,1,0,0:0:0:0:
352,128,170019,1,8,0:0:0:0:
160,128,170163,1,0,0:0:0:0:
160,128,170307,1,0,0:0:0:0:
160,128,170379,1,0,0:0:0:0:
160,128,170451,1,0,0:0:0:0:
352,128,170596,1,8,0:0:0:0:
160,256,170884,1,4,0:0:0:0:
352,128,171172,1,8,0:0:0:0:
352,128,171244,1,8,0:0:0:0:
352,128,171317,1,8,0:0:0:0:
160,128,171461,1,0,0:0:0:0:
352,128,171605,1,8,0:0:0:0:
160,128,171749,1,0,0:0:0:0:
352,128,171893,1,8,0:0:0:0:
160,128,172038,1,0,0:0:0:0:
160,128,172110,1,0,0:0:0:0:
160,128,172182,1,0,0:0:0:0:
352,128,172326,1,8,0:0:0:0:
352,128,172398,1,8,0:0:0:0:
352,128,172470,1,8,0:0:0:0:
160,128,172615,1,0,0:0:0:0:
160,256,173191,1,4,0:0:0:0:
352,128,173480,1,8,0:0:0:0:
160,128,173768,1,0,0:0:0:0:
160,128,173913,1,0,0:0:0:0:
352,128,174057,1,8,0:0:0:0:
160,128,174201,1,0,0:0:0:0:
352,128,174634,1,8,0:0:0:0:
160,128,174778,1,0,0:0:0:0:
352,128,174922,1,8,0:0:0:0:
160,128,175066,1,0,0:0:0:0:
352,128,175211,1,8,0:0:0:0:
160,128,175499,1,0,0:0:0:0:
352,128,175643,1,8,0:0:0:0:
352,128,175787,1,8,0:0:0:0:
160,128,176076,1,0,0:0:0:0:
160,128,176148,1,0,0:0:0:0:
160,128,176220,1,0,0:0:0:0:
352,128,176364,1,8,0:0:0:0:
160,128,176508,1,0,0:0:0:0:
352,128,176797,1,8,0:0:0:0:
352,128,176869,1,8,0:0:0:0:
352,128,176941,1,8,0:0:0:0:
352,128,177085,1,8,0:0:0:0:
160,128,177230,1,0,0:0:0:0:
160,128,177374,1,0,0:0:0:0:
352,128,177518,1,8,0:0:0:0:
160,256,177806,1,4,0:0:0:0:
352,128,178095,1,8,0:0:0:0:
160,128,178383,1,0,0:0:0:0:
160,128,178528,1,0,0:0:0:0:
352,128,178672,1,8,0:0:0:0:
160,128,178816,1,0,0:0:0:0:
352,128,179249,1,8,0:0:0:0:
160,128,179393,1,0,0:0:0:0:
352,128,179537,1,8,0:0:0:0:
352,128,179609,1,8,0:0:0:0:
352,128,179681,1,8,0:0:0:0:
352,128,179825,1,8,0:0:0:0:
352,128,180114,1,8,0:0:0:0:
352,128,180186,1,8,0:0:0:0:
352,128,180258,1,8,0:0:0:0:
352,128,180402,1,8,0:0:0:0:
160,128,180547,1,0,0:0:0:0:
352,128,180691,1,8,0:0:0:0:
160,128,180835,1,0,0:0:0:0:
352,128,180979,1,8,0:0:0:0:
160,256,181123,1,4,0:0:0:0:
160,128,181412,1,0,0:0:0:0:
352,128,181556,1,8,0:0:0:0:
160,128,181845,1,0,0:0:0:0:
160,128,181917,1,0,0:0:0:0:
160,128,181989,1,0,0:0:0:0:
352,128,182133,1,8,0:0:0:0:
352,128,182277,1,8,0:0:0:0:
160,256,182421,1,4,0:0:0:0:
352,128,182710,1,8,0:0:0:0:
160,128,182998,1,0,0:0:0:0:
160,128,183143,1,0,0:0:0:0:
352,128,183287,1,8,0:0:0:0:
160,128,183431,1,0,0:0:0:0:
352,128,183864,1,8,0:0:0:0:
352,128,184008,1,8,0:0:0:0:
160,128,184152,1,0,0:0:0:0:
160,128,184296,1,0,0:0:0:0:
352,128,184440,1,8,0:0:0:0:
160,128,184729,1,0,0:0:0:0:
352,128,185017,1,8,0:0:0:0:
352,128,185089,1,8,0:0:0:0:
352,128,185162,1,8,0:0:0:0:
160,128,185306,1,0,0:0:0:0:
160,128,185450,1,0,0:0:0:0:
352,128,185594,1,8,0:0:0:0:
160,128,185738,1,0,0:0:0:0:
160,128,186027,1,0,0:0:0:0:
352,128,186171,1,8,0:0:0:0:
352,128,186243,1,8,0:0:0:0:
352,128,186315,1,8,0:0:0:0:
160,128,186460,1,0,0:0:0:0:
160,128,186604,1,0,0:0:0:0:
352,128,186748,1,8,0:0:0:0:
160,256,187036,1,4,0:0:0:0:
352,128,187325,1,8,0:0:0:0:
160,128,187613,1,0,0:0:0:0:
160,128,187685,1,0,0:0:0:0:
160,128,187757,1,0,0:0:0:0:
352,128,187902,1,8,0:0:0:0:
352,128,188046,1,8,0:0:0:0:
160,128,188190,1,0,0:0:0:0:
352,128,188479,1,8,0:0:0:0:
160,128,188767,1,0,0:0:0:0:
160,128,188839,1,0,0:0:0:0:
160,128,188911,1,0,0:0:0:0:
352,128,189055,1,8,0:0:0:0:
352,128,189200,1,8,0:0:0:0:
160,128,189344,1,0,0:0:0:0:
352,128,189921,1,8,0:0:0:0:
352,128,189993,1,8,0:0:0:0:
352,128,190065,1,8,0:0:0:0:
352,128,190209,1,8,0:0:0:0:
352,128,190353,1,8,0:0:0:0:
160,128,190498,1,0,0:0:0:0:
160,128,190637,1,0,0:0:0:0:
352,128,190777,1,8,0:0:0:0:
352,128,191054,1,8,0:0:0:0:
160,128,191202,1,0,0:0:0:0:
352,128,191351,1,8,0:0:0:0:
160,256,191655,1,4,0:0:0:0:
256,192,191799,12,0,193962,0:0:0:0:
160,256,196269,5,4,0:0:0:0:
352,128,196558,1,8,0:0:0:0:
160,128,196702,1,0,0:0:0:0:
352,128,196846,1,8,0:0:0:0:
160,128,196991,1,0,0:0:0:0:
352,128,197279,1,8,0:0:0:0:
160,128,197567,1,0,0:0:0:0:
352,128,197712,1,8,0:0:0:0:
160,128,198000,1,0,0:0:0:0:
160,128,198144,1,0,0:0:0:0:
352,128,198289,1,8,0:0:0:0:
160,128,198577,1,0,0:0:0:0:
160,128,198721,1,0,0:0:0:0:
352,128,198865,1,8,0:0:0:0:
160,128,199010,1,0,0:0:0:0:
352,128,199154,1,8,0:0:0:0:
160,128,199298,1,0,0:0:0:0:
352,128,199587,1,8,0:0:0:0:
160,128,199875,1,0,0:0:0:0:
352,128,200019,1,8,0:0:0:0:
352,128,200308,1,8,0:0:0:0:
160,128,200452,1,0,0:0:0:0:
160,256,200884,1,4,0:0:0:0:
352,128,201173,1,8,0:0:0:0:
160,128,201461,1,0,0:0:0:0:
160,128,201606,1,0,0:0:0:0:
352,128,201750,1,8,0:0:0:0:
160,128,201894,1,0,0:0:0:0:
160,128,202182,1,0,0:0:0:0:
352,128,202327,1,8,0:0:0:0:
160,128,202471,1,0,0:0:0:0:
160,128,202615,1,0,0:0:0:0:
160,128,202687,1,0,0:0:0:0:
160,128,202759,1,0,0:0:0:0:
352,128,202904,1,8,0:0:0:0:
352,128,203048,1,8,0:0:0:0:
160,128,203192,1,0,0:0:0:0:
160,128,203625,1,0,0:0:0:0:
352,128,203769,1,8,0:0:0:0:
160,128,203913,1,0,0:0:0:0:
352,128,204057,1,8,0:0:0:0:
160,128,204201,1,0,0:0:0:0:
352,128,204490,1,8,0:0:0:0:
352,128,204634,1,8,0:0:0:0:
160,128,204778,1,0,0:0:0:0:
160,128,204850,1,0,0:0:0:0:
160,128,204923,1,0,0:0:0:0:
160,128,205067,1,0,0:0:0:0:
352,128,205211,1,8,0:0:0:0:
160,128,205499,1,0,0:0:0:0:
352,128,205788,1,8,0:0:0:0:
160,128,206076,1,0,0:0:0:0:
160,128,206221,1,0,0:0:0:0:
352,128,206365,1,8,0:0:0:0:
160,128,206509,1,0,0:0:0:0:
160,128,206797,1,0,0:0:0:0:
352,128,206942,1,8,0:0:0:0:
160,128,207086,1,0,0:0:0:0:
160,128,207230,1,0,0:0:0:0:
160,128,207374,1,0,0:0:0:0:
352,128,207519,1,8,0:0:0:0:
352,128,207591,1,8,0:0:0:0:
352,128,207663,1,8,0:0:0:0:
160,128,207807,1,0,0:0:0:0:
352,128,208240,1,8,0:0:0:0:
160,128,208384,1,0,0:0:0:0:
160,128,208528,1,0,0:0:0:0:
352,128,208672,1,8,0:0:0:0:
352,128,208816,1,8,0:0:0:0:
352,128,208889,1,8,0:0:0:0:
352,128,208961,1,8,0:0:0:0:
160,128,209105,1,0,0:0:0:0:
352,128,209249,1,8,0:0:0:0:
352,128,209393,1,8,0:0:0:0:
160,128,209538,1,0,0:0:0:0:
352,128,209826,1,8,0:0:0:0:
160,256,210114,1,4,0:0:0:0:
352,128,210403,1,8,0:0:0:0:
160,128,210547,1,0,0:0:0:0:
160,128,210619,1,0,0:0:0:0:
160,128,210691,1,0,0:0:0:0:
160,128,210836,1,0,0:0:0:0:
352,128,210980,1,8,0:0:0:0:
352,128,211268,1,8,0:0:0:0:
352,128,211557,1,8,0:0:0:0:
352,128,211701,1,8,0:0:0:0:
352,128,211773,1,8,0:0:0:0:
352,128,211845,1,8,0:0:0:0:
160,128,211989,1,0,0:0:0:0:
352,128,212133,1,8,0:0:0:0:
352,128,212566,1,8,0:0:0:0:
352,128,212710,1,8,0:0:0:0:
160,128,212855,1,0,0:0:0:0:
160,128,212999,1,0,0:0:0:0:
160,128,213071,1,0,0:0:0:0:
160,128,213143,1,0,0:0:0:0:
352,128,213287,1,8,0:0:0:0:
160,128,213431,1,0,0:0:0:0:
160,128,213720,1,0,0:0:0:0:
352,128,213864,1,8,0:0:0:0:
352,128,214008,1,8,0:0:0:0:
352,128,214080,1,8,0:0:0:0:
352,128,214153,1,8,0:0:0:0:
160,128,214297,1,0,0:0:0:0:
352,128,214441,1,8,0:0:0:0:
160,128,214729,1,0,0:0:0:0:
352,128,215018,1,8,0:0:0:0:
160,128,215162,1,0,0:0:0:0:
160,128,215234,1,0,0:0:0:0:
160,128,215306,1,0,0:0:0:0:
160,128,215451,1,0,0:0:0:0:
352,128,215595,1,8,0:0:0:0:
352,128,216027,1,8,0:0:0:0:
352,128,216172,1,8,0:0:0:0:
160,128,216316,1,0,0:0:0:0:
352,128,216460,1,8,0:0:0:0:
352,128,216532,1,8,0:0:0:0:
352,128,216604,1,8,0:0:0:0:
352,128,216748,1,8,0:0:0:0:
160,128,216893,1,0,0:0:0:0:
160,128,217181,1,0,0:0:0:0:
352,128,217325,1,8,0:0:0:0:
160,128,217470,1,0,0:0:0:0:
160,128,217614,1,0,0:0:0:0:
352,128,217758,1,8,0:0:0:0:
160,128,217902,1,0,0:0:0:0:
352,128,218046,1,8,0:0:0:0:
352,128,218191,1,8,0:0:0:0:
160,128,218479,1,0,0:0:0:0:
352,128,218623,1,8,0:0:0:0:
352,128,218768,1,8,0:0:0:0:
352,128,218912,1,8,0:0:0:0:
160,128,219056,1,0,0:0:0:0:
160,256,219344,1,4,0:0:0:0:
160,128,219633,1,0,0:0:0:0:
352,256,219921,1,12,0:0:0:0:
160,128,220354,1,0,0:0:0:0:
352,128,220498,1,8,0:0:0:0:
160,128,220642,1,0,0:0:0:0:
352,128,220787,1,8,0:0:0:0:
352,256,221075,1,12,0:0:0:0:
352,128,221363,1,8,0:0:0:0:
160,256,221652,1,4,0:0:0:0:
160,128,221940,1,0,0:0:0:0:
352,256,222229,1,12,0:0:0:0:
160,128,222661,1,0,0:0:0:0:
352,128,222950,1,8,0:0:0:0:
160,128,223094,1,0,0:0:0:0:
352,256,223383,1,12,0:0:0:0:
352,128,223671,1,8,0:0:0:0:
160,256,223959,1,4,0:0:0:0:
160,128,224248,1,0,0:0:0:0:
352,256,224536,1,12,0:0:0:0:
352,128,224969,1,8,0:0:0:0:
160,128,225113,1,0,0:0:0:0:
352,128,225257,1,8,0:0:0:0:
160,128,225402,1,0,0:0:0:0:
352,256,225690,1,12,0:0:0:0:
352,128,225978,1,8,0:0:0:0:
160,256,226267,1,4,0:0:0:0:
160,128,226555,1,0,0:0:0:0:
352,256,226844,1,12,0:0:0:0:
160,128,227276,1,0,0:0:0:0:
352,128,227421,1,8,0:0:0:0:
160,128,227565,1,0,0:0:0:0:
352,128,227709,1,8,0:0:0:0:
352,128,227998,1,8,0:0:0:0:
352,128,228142,1,8,0:0:0:0:
352,128,228286,1,8,0:0:0:0:
352,128,228430,1,8,0:0:0:0:
160,256,228574,1,4,0:0:0:0:
160,128,228863,1,0,0:0:0:0:
352,256,229151,1,12,0:0:0:0:
160,128,229584,1,0,0:0:0:0:
352,128,229728,1,8,0:0:0:0:
160,128,229872,1,0,0:0:0:0:
352,128,230017,1,8,0:0:0:0:
352,256,230305,1,12,0:0:0:0:
352,128,230593,1,8,0:0:0:0:
160,256,230882,1,4,0:0:0:0:
160,128,231170,1,0,0:0:0:0:
352,256,231459,1,12,0:0:0:0:
160,128,231891,1,0,0:0:0:0:
352,128,232180,1,8,0:0:0:0:
160,128,232324,1,0,0:0:0:0:
352,128,232612,1,8,0:0:0:0:
160,128,232901,1,0,0:0:0:0:
160,256,233189,1,4,0:0:0:0:
160,128,233478,1,0,0:0:0:0:
352,256,233766,1,12,0:0:0:0:
352,128,234199,1,8,0:0:0:0:
160,128,234343,1,0,0:0:0:0:
352,128,234487,1,8,0:0:0:0:
160,128,234632,1,0,0:0:0:0:
352,128,234920,1,8,0:0:0:0:
352,128,235208,1,8,0:0:0:0:
160,256,235497,1,4,0:0:0:0:
160,128,235785,1,0,0:0:0:0:
352,256,236074,1,12,0:0:0:0:
160,128,236506,1,0,0:0:0:0:
352,128,236651,1,8,0:0:0:0:
160,128,236795,1,0,0:0:0:0:
352,128,236939,1,8,0:0:0:0:
160,128,237227,1,0,0:0:0:0:
160,128,237372,1,0,0:0:0:0:
352,256,237516,1,12,0:0:0:0:
160,256,237804,1,4,0:0:0:0:
352,128,238093,1,8,0:0:0:0:
352,128,238381,1,8,0:0:0:0:
160,128,238525,1,0,0:0:0:0:
352,128,238670,1,8,0:0:0:0:
352,128,238958,1,8,0:0:0:0:
352,128,239247,1,8,0:0:0:0:
352,128,239535,1,8,0:0:0:0:
160,128,239679,1,0,0:0:0:0:
352,128,239823,1,8,0:0:0:0:
160,128,239968,1,0,0:0:0:0:
352,128,240112,1,8,0:0:0:0:
352,128,240400,1,8,0:0:0:0:
352,128,240689,1,8,0:0:0:0:
160,128,240833,1,0,0:0:0:0:
352,128,240977,1,8,0:0:0:0:
352,128,241266,1,8,0:0:0:0:
160,128,241410,1,0,0:0:0:0:
160,128,241482,1,0,0:0:0:0:
160,128,241554,1,0,0:0:0:0:
160,128,241698,1,0,0:0:0:0:
352,128,241842,1,8,0:0:0:0:
160,128,241987,1,0,0:0:0:0:
352,128,242131,1,8,0:0:0:0:
352,256,242419,1,12,0:0:0:0:
352,128,242708,1,8,0:0:0:0:
352,128,242996,1,8,0:0:0:0:
160,128,243140,1,0,0:0:0:0:
352,128,243285,1,8,0:0:0:0:
352,128,243573,1,8,0:0:0:0:
352,128,243862,1,8,0:0:0:0:
352,128,244150,1,8,0:0:0:0:
160,128,244294,1,0,0:0:0:0:
352,128,244438,1,8,0:0:0:0:
160,128,244583,1,0,0:0:0:0:
352,128,244727,1,8,0:0:0:0:
352,128,245015,1,8,0:0:0:0:
352,128,245304,1,8,0:0:0:0:
160,128,245448,1,0,0:0:0:0:
352,256,245592,1,12,0:0:0:0:
160,128,245881,1,0,0:0:0:0:
160,128,245953,1,0,0:0:0:0:
160,128,246025,1,0,0:0:0:0:
352,128,246169,1,8,0:0:0:0:
352,128,246241,1,8,0:0:0:0:
352,128,246313,1,8,0:0:0:0:
160,128,246457,1,0,0:0:0:0:
160,256,247034,1,4,0:0:0:0:
352,128,247323,1,8,0:0:0:0:
160,128,247611,1,0,0:0:0:0:
160,128,247755,1,0,0:0:0:0:
352,128,247900,1,8,0:0:0:0:
160,256,248044,1,4,0:0:0:0:
352,128,248477,1,8,0:0:0:0:
352,128,248621,1,8,0:0:0:0:
160,128,248765,1,0,0:0:0:0:
160,128,248837,1,0,0:0:0:0:
160,128,248909,1,0,0:0:0:0:
352,128,249053,1,8,0:0:0:0:
160,256,249342,1,4,0:0:0:0:
352,128,249630,1,8,0:0:0:0:
160,128,249919,1,0,0:0:0:0:
160,128,250063,1,0,0:0:0:0:
352,128,250207,1,8,0:0:0:0:
160,256,250351,1,4,0:0:0:0:
352,128,250640,1,8,0:0:0:0:
352,128,250712,1,8,0:0:0:0:
352,128,250784,1,8,0:0:0:0:
352,128,250928,1,8,0:0:0:0:
160,128,251072,1,0,0:0:0:0:
160,128,251145,1,0,0:0:0:0:
160,128,251217,1,0,0:0:0:0:
352,128,251361,1,8,0:0:0:0:
160,256,251649,1,4,0:0:0:0:
352,128,251938,1,8,0:0:0:0:
160,128,252226,1,0,0:0:0:0:
160,128,252370,1,0,0:0:0:0:
352,128,252515,1,8,0:0:0:0:
160,256,252659,1,4,0:0:0:0:
352,128,253091,1,8,0:0:0:0:
160,128,253236,1,0,0:0:0:0:
352,128,253380,1,8,0:0:0:0:
352,128,253452,1,8,0:0:0:0:
352,128,253524,1,8,0:0:0:0:
352,128,253668,1,8,0:0:0:0:
352,256,253957,1,12,0:0:0:0:
352,128,254245,1,8,0:0:0:0:
352,128,254317,1,8,0:0:0:0:
352,128,254389,1,8,0:0:0:0:
352,128,254534,1,8,0:0:0:0:
160,128,254678,1,0,0:0:0:0:
352,128,254822,1,8,0:0:0:0:
160,256,254966,1,4,0:0:0:0:
160,128,255255,1,0,0:0:0:0:
352,128,255399,1,8,0:0:0:0:
160,128,255543,1,0,0:0:0:0:
160,128,255615,1,0,0:0:0:0:
160,128,255687,1,0,0:0:0:0:
352,128,255832,1,8,0:0:0:0:
352,128,255976,1,8,0:0:0:0:
352,128,256120,1,8,0:0:0:0:
160,256,256264,1,4,0:0:0:0:
352,128,256553,1,8,0:0:0:0:
160,128,256841,1,0,0:0:0:0:
160,128,256985,1,0,0:0:0:0:
352,128,257130,1,8,0:0:0:0:
160,256,257274,1,4,0:0:0:0:
352,128,257706,1,8,0:0:0:0:
160,128,257851,1,0,0:0:0:0:
352,128,257995,1,8,0:0:0:0:
352,128,258067,1,8,0:0:0:0:
352,128,258139,1,8,0:0:0:0:
352,128,258283,1,8,0:0:0:0:
160,256,258572,1,4,0:0:0:0:
352,128,258860,1,8,0:0:0:0:
160,128,259004,1,0,0:0:0:0:
352,128,259149,1,8,0:0:0:0:
352,128,259293,1,8,0:0:0:0:
160,128,259437,1,0,0:0:0:0:
160,256,259581,1,4,0:0:0:0:
160,128,259870,1,0,0:0:0:0:
352,128,260014,1,8,0:0:0:0:
352,128,260086,1,8,0:0:0:0:
352,128,260158,1,8,0:0:0:0:
160,128,260302,1,0,0:0:0:0:
160,128,260447,1,0,0:0:0:0:
352,128,260591,1,8,0:0:0:0:
160,256,260879,1,4,0:0:0:0:
352,128,261168,1,8,0:0:0:0:
160,128,261456,1,0,0:0:0:0:
160,128,261528,1,0,0:0:0:0:
160,128,261600,1,0,0:0:0:0:
352,128,261745,1,8,0:0:0:0:
352,128,261889,1,8,0:0:0:0:
160,128,262033,1,0,0:0:0:0:
352,128,262321,1,8,0:0:0:0:
160,128,262610,1,0,0:0:0:0:
160,128,262682,1,0,0:0:0:0:
160,128,262754,1,0,0:0:0:0:
352,128,262898,1,8,0:0:0:0:
352,128,263043,1,8,0:0:0:0:
160,128,263187,1,0,0:0:0:0:
352,128,263764,1,8,0:0:0:0:
352,128,264052,1,8,0:0:0:0:
160,128,264341,1,0,0:0:0:0:
160,128,264413,1,0,0:0:0:0:
160,128,264485,1,0,0:0:0:0:
352,128,264629,1,8,0:0:0:0:
352,128,264773,1,8,0:0:0:0:
160,128,264917,1,0,0:0:0:0:
160,128,264989,1,0,0:0:0:0:
160,128,265062,1,0,0:0:0:0:
352,128,265206,1,8,0:0:0:0:
352,256,265494,1,12,0:0:0:0:
352,128,265783,1,8,0:0:0:0:
160,128,265927,1,0,0:0:0:0:
352,128,266071,1,8,0:0:0:0:
160,128,266215,1,0,0:0:0:0:
352,128,266360,1,8,0:0:0:0:
352,128,266648,1,8,0:0:0:0:
160,128,266792,1,0,0:0:0:0:
160,128,266864,1,0,0:0:0:0:
160,128,266936,1,0,0:0:0:0:
160,128,267081,1,0,0:0:0:0:
352,128,267225,1,8,0:0:0:0:
160,128,267369,1,0,0:0:0:0:
352,128,267513,1,8,0:0:0:0:
352,128,267585,1,8,0:0:0:0:
352,128,267658,1,8,0:0:0:0:
352,128,267802,1,8,0:0:0:0:
352,128,268090,1,8,0:0:0:0:
160,128,268234,1,0,0:0:0:0:
352,128,268379,1,8,0:0:0:0:
160,128,268523,1,0,0:0:0:0:
352,128,268667,1,8,0:0:0:0:
160,256,268811,1,4,0:0:0:0:
352,128,269821,1,8,0:0:0:0:
160,256,270109,1,4,0:0:0:0:
352,128,270398,1,8,0:0:0:0:
160,128,270686,1,0,0:0:0:0:
160,128,270830,1,0,0:0:0:0:
352,128,270975,1,8,0:0:0:0:
352,128,271119,1,8,0:0:0:0:
352,128,271551,1,8,0:0:0:0:
160,128,271696,1,0,0:0:0:0:
160,128,271768,1,0,0:0:0:0:
160,128,271840,1,0,0:0:0:0:
160,128,271984,1,0,0:0:0:0:
352,128,272128,1,8,0:0:0:0:
160,128,272417,1,0,0:0:0:0:
352,128,272705,1,8,0:0:0:0:
160,128,272994,1,0,0:0:0:0:
160,128,273138,1,0,0:0:0:0:
352,128,273282,1,8,0:0:0:0:
352,128,273426,1,8,0:0:0:0:
160,128,273715,1,0,0:0:0:0:
352,128,273859,1,8,0:0:0:0:
352,128,274003,1,8,0:0:0:0:
352,128,274075,1,8,0:0:0:0:
352,128,274147,1,8,0:0:0:0:
160,128,274292,1,0,0:0:0:0:
352,128,274436,1,8,0:0:0:0:
160,128,274724,1,0,0:0:0:0:
352,128,275013,1,8,0:0:0:0:
160,128,275301,1,0,0:0:0:0:
160,128,275445,1,0,0:0:0:0:
352,128,275590,1,8,0:0:0:0:
160,128,275878,1,0,0:0:0:0:
352,128,276166,1,8,0:0:0:0:
160,128,276311,1,0,0:0:0:0:
160,128,276383,1,0,0:0:0:0:
160,128,276455,1,0,0:0:0:0:
160,128,276599,1,0,0:0:0:0:
352,128,276743,1,8,0:0:0:0:
160,128,277032,1,0,0:0:0:0:
160,128,277176,1,0,0:0:0:0:
352,128,277320,1,8,0:0:0:0:
160,128,277609,1,0,0:0:0:0:
352,128,277745,1,8,0:0:0:0:
160,128,278018,1,0,0:0:0:0:
352,128,278162,1,8,0:0:0:0:
160,128,278469,1,0,0:0:0:0:
352,128,278623,1,8,0:0:0:0:
160,128,278756,1,0,0:0:0:0:
352,128,278903,1,8,0:0:0:0:
352,128,279050,1,8,0:0:0:0:
160,256,279341,1,4,0:0:0:0:
256,192,279483,12,0,284761,0:0:0:0:
