osu file format v14

[General]
AudioFilename: audio.mp3
AudioLeadIn: 0
PreviewTime: 86565
Countdown: 0
SampleSet: Soft
StackLeniency: 0.7
Mode: 0
LetterboxInBreaks: 0
WidescreenStoryboard: 0

[Editor]
Bookmarks: 19485,27165,34845,42525,50205,54045,57885,71325,75165,90525,106845,122205,129885,137565,170205,208605,223965,239325,252765
DistanceSpacing: 0.7
BeatDivisor: 5
GridSize: 32
TimelineZoom: 1.8

[Metadata]
Title:Boatman
TitleUnicode:ボートマン
Artist:hitorie
ArtistUnicode:ヒトリエ
Creator:Kine
Version:Y
Source:
Tags:jrock japanese j-rock wowaka boatman Rock WONDER and WONDER
BeatmapID:3924244
BeatmapSetID:1903334

[Difficulty]
HPDrainRate:5
CircleSize:4
OverallDifficulty:9
ApproachRate:9.3
SliderMultiplier:2.3
SliderTickRate:1

[Events]
//Background and Video events
0,0,"a013d5a1afbdb0e56e96462de13e1b06c9b160ea_s2_n1.jpg",0,0
//Break Periods
//Storyboard Layer 0 (Background)
//Storyboard Layer 1 (Fail)
//Storyboard Layer 2 (Pass)
//Storyboard Layer 3 (Foreground)
//Storyboard Layer 4 (Overlay)
//Storyboard Sound Samples

[TimingPoints]
285,480,4,2,1,70,1,0
365,-100,4,2,1,5,0,0
765,-100,4,2,1,70,0,0
2285,-100,4,2,1,5,0,0
2685,-100,4,2,1,70,0,0
3725,-100,4,2,1,5,0,0
3765,-100,4,2,1,70,0,0
4125,480,4,2,1,70,1,0
4125,-66.6666666666667,4,2,1,70,0,0
4785,-66.6666666666667,4,2,1,5,0,0
4845,-66.6666666666667,4,2,1,70,0,0
6225,-66.6666666666667,4,2,1,5,0,0
6285,-66.6666666666667,4,2,1,70,0,0
6705,-66.6666666666667,4,2,1,5,0,0
6765,-66.6666666666667,4,2,1,70,0,0
7065,-66.6666666666667,4,2,1,5,0,0
7125,-66.6666666666667,4,2,1,70,0,0
8625,-66.6666666666667,4,2,1,5,0,0
8685,-66.6666666666667,4,2,1,70,0,0
8985,-66.6666666666667,4,2,1,5,0,0
9045,-66.6666666666667,4,2,1,70,0,0
10065,-66.6666666666667,4,2,1,5,0,0
10125,-66.6666666666667,4,2,1,70,0,0
10545,-66.6666666666667,4,2,1,5,0,0
10605,-66.6666666666667,4,2,1,70,0,0
10905,-66.6666666666667,4,2,1,5,0,0
10965,-66.6666666666667,4,2,1,70,0,0
12465,-66.6666666666667,4,2,1,5,0,0
12525,-66.6666666666667,4,2,1,70,0,0
13905,-66.6666666666667,4,2,1,5,0,0
13965,-66.6666666666667,4,2,1,70,0,0
14385,-66.6666666666667,4,2,1,5,0,0
14445,-66.6666666666667,4,2,1,70,0,0
14745,-66.6666666666667,4,2,1,5,0,0
14805,-66.6666666666667,4,2,1,70,0,0
16665,-66.6666666666667,4,2,1,5,0,0
16725,-66.6666666666667,4,2,1,70,0,0
17745,-66.6666666666667,4,2,1,5,0,0
17805,-66.6666666666667,4,2,1,70,0,0
18225,-66.6666666666667,4,2,1,5,0,0
18285,-66.6666666666667,4,2,1,70,0,0
18585,-66.6666666666667,4,2,1,5,0,0
18645,-66.6666666666667,4,2,1,70,0,0
18825,-66.6666666666667,4,2,1,5,0,0
18885,-66.6666666666667,4,2,1,70,0,0
19665,-66.6666666666667,4,2,1,5,0,0
19725,-66.6666666666667,4,2,1,70,0,0
20505,-66.6666666666667,4,2,1,5,0,0
20565,-66.6666666666667,4,2,1,70,0,0
21585,-66.6666666666667,4,2,1,5,0,0
21645,-66.6666666666667,4,2,1,70,0,0
22425,-66.6666666666667,4,2,1,5,0,0
22485,-66.6666666666667,4,2,1,70,0,0
23505,-66.6666666666667,4,2,1,5,0,0
23565,-66.6666666666667,4,2,1,70,0,0
23985,-66.6666666666667,4,2,1,5,0,0
24045,-66.6666666666667,4,2,1,70,0,0
24345,-66.6666666666667,4,2,1,5,0,0
24405,-66.6666666666667,4,2,1,70,0,0
25905,-66.6666666666667,4,2,1,5,0,0
25965,-66.6666666666667,4,2,1,70,0,0
26265,-66.6666666666667,4,2,1,5,0,0
26325,-66.6666666666667,4,2,1,70,0,0
27165,-33.3333333333333,4,2,1,70,0,0
27345,-66.6666666666667,4,2,1,5,0,0
27405,-50,4,2,1,70,0,0
27645,-40,4,2,1,70,0,0
27825,-66.6666666666667,4,2,1,5,0,0
27885,-40,4,2,1,70,0,0
28185,-66.6666666666667,4,2,1,5,0,0
28245,-66.6666666666667,4,2,1,70,0,0
28605,-66.6666666666667,4,2,1,70,0,0
29745,-66.6666666666667,4,2,1,5,0,0
29805,-66.6666666666667,4,2,1,70,0,0
30105,-66.6666666666667,4,2,1,5,0,0
30165,-66.6666666666667,4,2,1,70,0,0
31005,-40,4,2,1,70,0,0
31185,-66.6666666666667,4,2,1,5,0,0
31245,-50,4,2,1,70,0,0
31425,-66.6666666666667,4,2,1,5,0,0
31485,-40,4,2,1,70,0,0
31665,-66.6666666666667,4,2,1,5,0,0
31725,-40,4,2,1,70,0,0
31845,-50,4,2,1,70,0,0
32025,-66.6666666666667,4,2,1,5,0,0
32085,-66.6666666666667,4,2,1,70,0,0
32445,-52.6315789473684,4,2,1,70,0,0
33405,-66.6666666666667,4,2,1,70,0,0
33945,-66.6666666666667,4,2,1,5,0,0
34005,-66.6666666666667,4,2,1,70,0,0
34845,-50,4,2,1,70,0,0
35265,-66.6666666666667,4,2,1,5,0,0
35325,-50,4,2,1,70,0,0
35865,-66.6666666666667,4,2,1,5,0,0
35925,-50,4,2,1,70,0,0
37245,-40,4,2,1,70,0,0
37425,-66.6666666666667,4,2,1,5,0,0
37485,-50,4,2,1,70,0,0
37605,-50,4,2,1,70,0,0
37785,-66.6666666666667,4,2,1,5,0,0
37845,-50,4,2,1,70,0,0
38865,-66.6666666666667,4,2,1,5,0,0
38925,-50,4,2,1,70,0,0
39705,-66.6666666666667,4,2,1,5,0,0
39765,-50,4,2,1,70,0,0
40785,-66.6666666666667,4,2,1,5,0,0
40845,-50,4,2,1,70,0,0
41265,-66.6666666666667,4,2,1,5,0,0
41325,-50,4,2,1,70,0,0
41625,-66.6666666666667,4,2,1,5,0,0
41685,-50,4,2,1,70,0,0
42525,-66.6666666666667,4,2,1,70,0,0
42705,-66.6666666666667,4,2,1,5,0,0
42765,-66.6666666666667,4,2,1,70,0,0
43185,-66.6666666666667,4,2,1,5,0,0
43245,-66.6666666666667,4,2,1,70,0,0
43545,-66.6666666666667,4,2,1,5,0,0
43605,-66.6666666666667,4,2,1,70,0,0
44625,-66.6666666666667,4,2,1,5,0,0
44685,-66.6666666666667,4,2,1,70,0,0
45105,-66.6666666666667,4,2,1,5,0,0
45165,-66.6666666666667,4,2,1,70,0,0
45465,-66.6666666666667,4,2,1,5,0,0
45525,-66.6666666666667,4,2,1,70,0,0
46545,-66.6666666666667,4,2,1,5,0,0
46605,-66.6666666666667,4,2,1,70,0,0
47385,-66.6666666666667,4,2,1,5,0,0
47445,-66.6666666666667,4,2,1,70,0,0
50205,-50,4,2,1,70,0,0
50385,-66.6666666666667,4,2,1,5,0,0
50445,-50,4,2,1,70,0,0
50625,-50,4,2,1,5,0,0
50685,-50,4,2,1,70,0,0
50865,-40,4,2,1,5,0,0
50925,-40,4,2,1,70,0,0
51045,-50,4,2,1,70,0,0
51225,-66.6666666666667,4,2,1,5,0,0
51285,-50,4,2,1,70,0,0
51645,-50,4,2,1,70,0,0
52125,-66.6666666666667,4,2,1,70,0,0
52305,-66.6666666666667,4,2,1,5,0,0
52365,-66.6666666666667,4,2,1,70,0,0
52785,-66.6666666666667,4,2,1,5,0,0
52845,-66.6666666666667,4,2,1,70,0,0
53145,-66.6666666666667,4,2,1,5,0,0
53205,-66.6666666666667,4,2,1,70,0,0
54045,-50,4,2,1,70,0,0
54225,-50,4,2,1,5,0,0
54285,-33.3333333333333,4,2,1,70,0,0
54465,-50,4,2,1,5,0,0
54525,-50,4,2,1,70,0,0
54705,-66.6666666666667,4,2,1,5,0,0
54765,-50,4,2,1,70,0,0
55065,-66.6666666666667,4,2,1,5,0,0
55125,-66.6666666666667,4,2,1,70,0,0
56985,-66.6666666666667,4,2,1,5,0,0
57045,-66.6666666666667,4,2,1,70,0,0
57465,-66.6666666666667,4,2,1,5,0,0
57525,-66.6666666666667,4,2,1,70,0,0
58065,-66.6666666666667,4,2,1,5,0,0
58125,-66.6666666666667,4,2,1,70,0,0
58545,-66.6666666666667,4,2,1,5,0,0
58605,-66.6666666666667,4,2,1,70,0,0
59025,-66.6666666666667,4,2,1,5,0,0
59085,-66.6666666666667,4,2,1,70,0,0
59985,-66.6666666666667,4,2,1,5,0,0
60045,-66.6666666666667,4,2,1,70,0,0
60465,-66.6666666666667,4,2,1,5,0,0
60525,-66.6666666666667,4,2,1,70,0,0
61245,-133.333333333333,4,2,1,70,0,0
61605,-133.333333333333,4,2,1,5,0,0
61725,-66.6666666666667,4,2,1,70,0,0
61905,-66.6666666666667,4,2,1,5,0,0
61965,-66.6666666666667,4,2,1,70,0,0
62385,-66.6666666666667,4,2,1,5,0,0
62445,-66.6666666666667,4,2,1,70,0,0
63825,-66.6666666666667,4,2,1,5,0,0
63885,-66.6666666666667,4,2,1,70,0,0
64305,-66.6666666666667,4,2,1,5,0,0
64365,-66.6666666666667,4,2,1,70,0,0
65745,-66.6666666666667,4,2,1,5,0,0
65805,-66.6666666666667,4,2,1,70,0,0
66225,-66.6666666666667,4,2,1,5,0,0
66285,-66.6666666666667,4,2,1,70,0,0
67665,-66.6666666666667,4,2,1,5,0,0
67725,-66.6666666666667,4,2,1,70,0,0
68145,-66.6666666666667,4,2,1,5,0,0
68205,-66.6666666666667,4,2,1,70,0,0
68925,-133.333333333333,4,2,1,70,0,0
69285,-133.333333333333,4,2,1,5,0,0
69405,-66.6666666666667,4,2,1,70,0,0
69585,-66.6666666666667,4,2,1,5,0,0
69645,-66.6666666666667,4,2,1,70,0,0
70065,-66.6666666666667,4,2,1,5,0,0
70125,-66.6666666666667,4,2,1,70,0,0
71865,-66.6666666666667,4,2,1,5,0,0
71925,-66.6666666666667,4,2,1,70,0,0
72825,-66.6666666666667,4,2,1,5,0,0
72885,-66.6666666666667,4,2,1,70,0,0
74685,-133.333333333333,4,2,1,70,0,0
75045,-66.6666666666667,4,2,1,5,0,0
75165,480,4,2,1,70,1,0
75165,-133.333333333333,4,2,1,70,0,0
75225,-133.333333333333,4,2,1,5,0,0
75645,-133.333333333333,4,2,1,70,0,0
75705,-133.333333333333,4,2,1,5,0,0
76125,-133.333333333333,4,2,1,70,0,0
76185,-133.333333333333,4,2,1,5,0,0
76605,-133.333333333333,4,2,1,70,0,0
76665,-133.333333333333,4,2,1,5,0,0
77085,-133.333333333333,4,2,1,70,0,0
77145,-133.333333333333,4,2,1,5,0,0
77565,-133.333333333333,4,2,1,70,0,0
77625,-133.333333333333,4,2,1,5,0,0
78045,-133.333333333333,4,2,1,70,0,0
78105,-133.333333333333,4,2,1,5,0,0
78525,-133.333333333333,4,2,1,70,0,0
78585,-133.333333333333,4,2,1,5,0,0
79005,-133.333333333333,4,2,1,70,0,0
79065,-133.333333333333,4,2,1,5,0,0
79485,-133.333333333333,4,2,1,70,0,0
79545,-133.333333333333,4,2,1,5,0,0
79965,-133.333333333333,4,2,1,70,0,0
80025,-133.333333333333,4,2,1,5,0,0
80445,-133.333333333333,4,2,1,70,0,0
80505,-133.333333333333,4,2,1,5,0,0
80925,-133.333333333333,4,2,1,70,0,0
80985,-133.333333333333,4,2,1,5,0,0
81405,-133.333333333333,4,2,1,70,0,0
81465,-133.333333333333,4,2,1,5,0,0
81885,-133.333333333333,4,2,1,70,0,0
81945,-133.333333333333,4,2,1,5,0,0
82365,-133.333333333333,4,2,1,70,0,0
82425,-133.333333333333,4,2,1,5,0,0
82845,-133.333333333333,4,2,1,70,0,0
82905,-133.333333333333,4,2,1,5,0,0
83325,-133.333333333333,4,2,1,70,0,0
83385,-133.333333333333,4,2,1,5,0,0
83805,-133.333333333333,4,2,1,70,0,0
83865,-133.333333333333,4,2,1,5,0,0
84285,-133.333333333333,4,2,1,70,0,0
84345,-133.333333333333,4,2,1,5,0,0
84765,-133.333333333333,4,2,1,70,0,0
84825,-133.333333333333,4,2,1,5,0,0
85245,-133.333333333333,4,2,1,70,0,0
85305,-133.333333333333,4,2,1,5,0,0
85725,-133.333333333333,4,2,1,70,0,0
85785,-133.333333333333,4,2,1,5,0,0
86205,-133.333333333333,4,2,1,70,0,0
86265,-133.333333333333,4,2,1,5,0,0
86685,-133.333333333333,4,2,1,70,0,0
86745,-133.333333333333,4,2,1,5,0,0
87165,-133.333333333333,4,2,1,70,0,0
87225,-133.333333333333,4,2,1,5,0,0
87645,-133.333333333333,4,2,1,70,0,0
87705,-133.333333333333,4,2,1,5,0,0
88125,-133.333333333333,4,2,1,70,0,0
88185,-133.333333333333,4,2,1,5,0,0
88605,-133.333333333333,4,2,1,70,0,0
88665,-133.333333333333,4,2,1,5,0,0
89085,-133.333333333333,4,2,1,70,0,0
89145,-133.333333333333,4,2,1,5,0,0
89565,-133.333333333333,4,2,1,70,0,0
89625,-133.333333333333,4,2,1,5,0,0
89805,-133.333333333333,4,2,1,70,0,0
89865,-133.333333333333,4,2,1,5,0,0
90045,-133.333333333333,4,2,1,70,0,0
90105,-133.333333333333,4,2,1,5,0,0
90525,-50,4,2,2,85,0,1
90765,-66.6666666666667,4,2,1,85,0,1
91545,-66.6666666666667,4,2,1,5,0,1
91605,-66.6666666666667,4,2,1,85,0,1
92625,-66.6666666666667,4,2,1,5,0,1
92685,-66.6666666666667,4,2,1,85,0,1
93105,-66.6666666666667,4,2,1,5,0,1
93165,-66.6666666666667,4,2,1,85,0,1
94545,-66.6666666666667,4,2,1,5,0,1
94605,-66.6666666666667,4,2,1,85,0,1
96465,-66.6666666666667,4,2,1,5,0,1
96525,-66.6666666666667,4,2,1,85,0,1
96945,-66.6666666666667,4,2,1,5,0,1
97005,-66.6666666666667,4,2,1,85,0,1
99225,-66.6666666666667,4,2,1,5,0,1
99285,-66.6666666666667,4,2,1,85,0,1
100665,-66.6666666666667,4,2,1,5,0,1
100725,-66.6666666666667,4,2,1,85,0,1
102585,-66.6666666666667,4,2,1,5,0,1
102645,-66.6666666666667,4,2,1,85,0,1
103065,-66.6666666666667,4,2,1,5,0,1
103125,-66.6666666666667,4,2,1,85,0,1
105765,-66.6666666666667,4,2,1,70,0,0
106845,480,4,2,1,70,1,0
106845,-50,4,2,1,70,0,0
107265,-66.6666666666667,4,2,1,5,0,0
107325,-50,4,2,1,70,0,0
107865,-66.6666666666667,4,2,1,5,0,0
107925,-50,4,2,1,70,0,0
108945,-66.6666666666667,4,2,1,5,0,0
109005,-50,4,2,1,70,0,0
109245,-40,4,2,1,70,0,0
109605,-50,4,2,1,70,0,0
109785,-66.6666666666667,4,2,1,5,0,0
109845,-50,4,2,1,70,0,0
111105,-66.6666666666667,4,2,1,5,0,0
111165,-50,4,2,1,70,0,0
111705,-66.6666666666667,4,2,1,5,0,0
111765,-50,4,2,1,70,0,0
113265,-66.6666666666667,4,2,1,5,0,0
113325,-50,4,2,1,70,0,0
113625,-66.6666666666667,4,2,1,5,0,0
113685,-50,4,2,1,70,0,0
114705,-66.6666666666667,4,2,1,5,0,0
114765,-50,4,2,1,70,0,0
115545,-66.6666666666667,4,2,1,5,0,0
115605,-50,4,2,1,70,0,0
117465,-66.6666666666667,4,2,1,5,0,0
117525,-50,4,2,1,70,0,0
119385,-66.6666666666667,4,2,1,5,0,0
119445,-50,4,2,1,70,0,0
121305,-66.6666666666667,4,2,1,5,0,0
121365,-50,4,2,1,70,0,0
122205,-100,4,2,1,70,0,0
124125,-66.6666666666667,4,2,1,70,0,0
124305,-66.6666666666667,4,2,1,5,0,0
124365,-66.6666666666667,4,2,1,70,0,0
124785,-66.6666666666667,4,2,1,5,0,0
124845,-66.6666666666667,4,2,1,70,0,0
125145,-66.6666666666667,4,2,1,5,0,0
125205,-66.6666666666667,4,2,1,70,0,0
126225,-66.6666666666667,4,2,1,5,0,0
126285,-66.6666666666667,4,2,1,70,0,0
126705,-66.6666666666667,4,2,1,5,0,0
126765,-66.6666666666667,4,2,1,70,0,0
127065,-66.6666666666667,4,2,1,5,0,0
127125,-66.6666666666667,4,2,1,70,0,0
129405,-285.714285714284,4,2,1,70,0,0
129765,-285.714285714284,4,2,1,5,0,0
129885,-33.3333333333333,4,2,1,70,0,0
130065,-285.714285714284,4,2,1,5,0,0
130125,-50,4,2,1,70,0,0
130305,-285.714285714284,4,2,1,5,0,0
130365,-40,4,2,1,70,0,0
130545,-285.714285714284,4,2,1,5,0,0
130605,-40,4,2,1,70,0,0
130725,-50,4,2,1,70,0,0
130905,-285.714285714284,4,2,1,5,0,0
130965,-50,4,2,1,70,0,0
131565,-66.6666666666667,4,2,1,70,0,0
133725,-33.3333333333333,4,2,1,70,0,0
133905,-285.714285714284,4,2,1,5,0,0
133965,-50,4,2,1,70,0,0
134145,-285.714285714284,4,2,1,5,0,0
134205,-40,4,2,1,70,0,0
134385,-285.714285714284,4,2,1,5,0,0
134445,-40,4,2,1,70,0,0
134565,-50,4,2,1,70,0,0
134745,-285.714285714284,4,2,1,5,0,0
134805,-66.6666666666667,4,2,1,70,0,0
135165,-40,4,2,1,70,0,0
135645,-66.6666666666667,4,2,1,70,0,0
136125,-66.6666666666667,4,2,1,70,0,0
137565,-66.6666666666667,4,2,1,70,0,0
137745,-285.714285714284,4,2,1,5,0,0
137805,-66.6666666666667,4,2,1,70,0,0
138225,-285.714285714284,4,2,1,5,0,0
138285,-66.6666666666667,4,2,1,70,0,0
139665,-285.714285714284,4,2,1,5,0,0
139725,-66.6666666666667,4,2,1,70,0,0
140145,-285.714285714284,4,2,1,5,0,0
140205,-66.6666666666667,4,2,1,70,0,0
140925,-133.333333333333,4,2,1,70,0,0
141285,-133.333333333333,4,2,1,5,0,0
141405,-66.6666666666667,4,2,1,70,0,0
142065,-285.714285714284,4,2,1,5,0,0
142125,-66.6666666666667,4,2,1,70,0,0
143505,-285.714285714284,4,2,1,5,0,0
143565,-66.6666666666667,4,2,1,70,0,0
143985,-285.714285714284,4,2,1,5,0,0
144045,-66.6666666666667,4,2,1,70,0,0
145425,-285.714285714284,4,2,1,5,0,0
145485,-66.6666666666667,4,2,1,70,0,0
145905,-285.714285714284,4,2,1,5,0,0
145965,-66.6666666666667,4,2,1,70,0,0
147345,-285.714285714284,4,2,1,5,0,0
147405,-66.6666666666667,4,2,1,70,0,0
147825,-285.714285714284,4,2,1,5,0,0
147885,-66.6666666666667,4,2,1,70,0,0
148605,-133.333333333333,4,2,1,70,0,0
148965,-133.333333333333,4,2,1,5,0,0
149085,-66.6666666666667,4,2,1,70,0,0
149265,-285.714285714284,4,2,1,5,0,0
149325,-66.6666666666667,4,2,1,70,0,0
149745,-285.714285714284,4,2,1,5,0,0
149805,-66.6666666666667,4,2,1,70,0,0
151545,-285.714285714284,4,2,1,5,0,0
151605,-66.6666666666667,4,2,1,70,0,0
152505,-285.714285714284,4,2,1,5,0,0
152565,-66.6666666666667,4,2,1,70,0,0
154365,-133.333333333333,4,2,1,70,0,0
154845,480,4,2,1,70,1,0
154845,-133.333333333333,4,2,1,70,0,0
154905,-133.333333333333,4,2,1,5,0,0
155325,-133.333333333333,4,2,1,70,0,0
155385,-133.333333333333,4,2,1,5,0,0
155805,-133.333333333333,4,2,1,70,0,0
155865,-133.333333333333,4,2,1,5,0,0
156285,-133.333333333333,4,2,1,70,0,0
156345,-133.333333333333,4,2,1,5,0,0
156765,-133.333333333333,4,2,1,70,0,0
156825,-133.333333333333,4,2,1,5,0,0
157245,-133.333333333333,4,2,1,70,0,0
157305,-133.333333333333,4,2,1,5,0,0
157725,-133.333333333333,4,2,1,70,0,0
157785,-133.333333333333,4,2,1,5,0,0
158205,-133.333333333333,4,2,1,70,0,0
158265,-133.333333333333,4,2,1,5,0,0
158685,-133.333333333333,4,2,1,70,0,0
158745,-133.333333333333,4,2,1,5,0,0
159165,-133.333333333333,4,2,1,70,0,0
159225,-133.333333333333,4,2,1,5,0,0
159645,-133.333333333333,4,2,1,70,0,0
159705,-133.333333333333,4,2,1,5,0,0
160125,-133.333333333333,4,2,1,70,0,0
160185,-133.333333333333,4,2,1,5,0,0
160605,-133.333333333333,4,2,1,70,0,0
160665,-133.333333333333,4,2,1,5,0,0
161085,-133.333333333333,4,2,1,70,0,0
161145,-133.333333333333,4,2,1,5,0,0
161565,-133.333333333333,4,2,1,70,0,0
161625,-133.333333333333,4,2,1,5,0,0
162045,-133.333333333333,4,2,1,70,0,0
162105,-133.333333333333,4,2,1,5,0,0
162525,-133.333333333333,4,2,1,70,0,0
162585,-133.333333333333,4,2,1,5,0,0
163005,-133.333333333333,4,2,1,70,0,0
163065,-133.333333333333,4,2,1,5,0,0
163485,-133.333333333333,4,2,1,70,0,0
163545,-133.333333333333,4,2,1,5,0,0
163965,-133.333333333333,4,2,1,70,0,0
164025,-133.333333333333,4,2,1,5,0,0
164445,-133.333333333333,4,2,1,70,0,0
164505,-133.333333333333,4,2,1,5,0,0
164925,-133.333333333333,4,2,1,70,0,0
164985,-133.333333333333,4,2,1,5,0,0
165405,-133.333333333333,4,2,1,70,0,0
165465,-133.333333333333,4,2,1,5,0,0
165885,-133.333333333333,4,2,1,70,0,0
165945,-133.333333333333,4,2,1,5,0,0
166365,-133.333333333333,4,2,1,70,0,0
166425,-133.333333333333,4,2,1,5,0,0
166845,-133.333333333333,4,2,1,70,0,0
166905,-133.333333333333,4,2,1,5,0,0
167325,-133.333333333333,4,2,1,70,0,0
167385,-133.333333333333,4,2,1,5,0,0
167805,-133.333333333333,4,2,1,70,0,0
167865,-133.333333333333,4,2,1,5,0,0
168285,-133.333333333333,4,2,1,70,0,0
168345,-133.333333333333,4,2,1,5,0,0
168765,-133.333333333333,4,2,1,70,0,0
168825,-133.333333333333,4,2,1,5,0,0
169245,-133.333333333333,4,2,1,70,0,0
169305,-133.333333333333,4,2,1,5,0,0
169485,-133.333333333333,4,2,1,70,0,0
169545,-133.333333333333,4,2,1,5,0,0
169725,-133.333333333333,4,2,1,70,0,0
169785,-133.333333333333,4,2,1,5,0,0
170205,-50,4,2,2,85,0,1
170445,-66.6666666666667,4,2,1,85,0,1
171225,-66.6666666666667,4,2,1,5,0,1
171285,-66.6666666666667,4,2,1,85,0,1
172305,-66.6666666666667,4,2,1,5,0,1
172365,-66.6666666666667,4,2,1,85,0,1
172785,-66.6666666666667,4,2,1,5,0,1
172845,-66.6666666666667,4,2,1,85,0,1
173145,-66.6666666666667,4,2,1,5,0,1
173205,-66.6666666666667,4,2,1,85,0,1
174225,-66.6666666666667,4,2,1,5,0,1
174285,-66.6666666666667,4,2,1,85,0,1
174705,-66.6666666666667,4,2,1,5,0,1
174765,-66.6666666666667,4,2,1,85,0,1
175065,-66.6666666666667,4,2,1,5,0,1
175125,-66.6666666666667,4,2,1,85,0,1
176145,-66.6666666666667,4,2,1,5,0,1
176205,-66.6666666666667,4,2,1,85,0,1
176625,-66.6666666666667,4,2,1,5,0,1
176685,-66.6666666666667,4,2,1,85,0,1
176985,-66.6666666666667,4,2,1,5,0,1
177045,-66.6666666666667,4,2,1,85,0,1
178905,-66.6666666666667,4,2,1,5,0,1
178965,-66.6666666666667,4,2,1,85,0,1
180345,-66.6666666666667,4,2,1,5,0,1
180405,-66.6666666666667,4,2,1,85,0,1
180825,-66.6666666666667,4,2,1,5,0,1
180885,-66.6666666666667,4,2,1,85,0,1
182265,-66.6666666666667,4,2,1,5,0,1
182325,-66.6666666666667,4,2,1,85,0,1
182745,-66.6666666666667,4,2,1,5,0,1
182805,-66.6666666666667,4,2,1,85,0,1
185565,-66.6666666666667,4,2,1,70,0,0
192285,-66.6666666666667,4,2,1,5,0,0
192585,-66.6666666666667,4,2,1,70,0,0
193245,-100,4,2,1,70,0,0
193545,-100,4,2,1,5,0,0
193605,-100,4,2,1,70,0,0
197385,-100,4,2,1,5,0,0
197445,-100,4,2,1,70,0,0
197865,-100,4,2,1,5,0,0
197925,-100,4,2,1,70,0,0
201225,-100,4,2,1,5,0,0
201285,-100,4,2,1,70,0,0
201705,-100,4,2,1,5,0,0
201765,-100,4,2,1,70,0,0
207705,-100,4,2,1,5,0,0
207765,-100,4,2,1,70,0,0
207945,-100,4,2,1,5,0,0
208005,-100,4,2,1,70,0,0
208125,-66.6666666666667,4,2,1,70,0,0
208185,-66.6666666666667,4,2,1,5,0,0
208365,-66.6666666666667,4,2,1,70,0,0
208425,-66.6666666666667,4,2,1,5,0,0
208605,-100,4,2,1,70,0,0
239445,-100,4,2,1,5,0,0
240285,-100,4,2,1,70,0,0
240405,-100,4,2,1,5,0,0
241245,-100,4,2,1,70,0,0
241365,-100,4,2,1,5,0,0
242205,-100,4,2,1,70,0,0
242325,-100,4,2,1,5,0,0
243165,-100,4,2,1,70,0,0
243285,-100,4,2,1,5,0,0
244125,-100,4,2,1,70,0,0
244245,-100,4,2,1,5,0,0
245085,-100,4,2,1,70,0,0
245205,-100,4,2,1,5,0,0
246045,-100,4,2,1,70,0,0
246165,-100,4,2,1,5,0,0
247005,-100,4,2,1,70,0,0
247125,-100,4,2,1,5,0,0
247965,-100,4,2,1,70,0,0
248085,-100,4,2,1,5,0,0
248925,-100,4,2,1,70,0,0
249045,-100,4,2,1,5,0,0
249885,-100,4,2,1,70,0,0
250005,-100,4,2,1,5,0,0
250845,-100,4,2,1,70,0,0
250965,-100,4,2,1,5,0,0
251805,-100,4,2,1,70,0,0
251925,-100,4,2,1,5,0,0
252285,-100,4,2,1,45,0,0

[Colours]
Combo1 : 247,243,136
Combo2 : 255,138,138
Combo3 : 192,192,192
Combo4 : 116,139,134
Combo5 : 254,221,107

[HitObjects]
70,94,285,6,0,B|60:74|60:74|66:70|66:70|76:93,1,38.3333333333333,2|0,0:0|0:0,0:0:0:0:
75,106,2205,6,0,B|55:116|55:116|51:110|51:110|74:100,1,38.3333333333333,2|0,0:0|0:0,0:0:0:0:
80,118,2925,6,0,B|91:138|91:138|84:142|84:142|74:119,3,38.3333333333333,2|2|2|2,0:0|0:0|0:0|0:0,0:0:0:0:
80,118,3645,6,0,B|57:129|57:129|59:121|59:121|79:112,1,38.3333333333333,2|0,0:0|0:0,0:0:0:0:
88,138,3885,2,0,B|110:126|110:126|108:134|108:134|88:143,2,38.3333333333333,2|2|2,0:0|0:0|0:0,0:0:0:0:
161,190,4125,6,0,P|121:206|75:218,1,86.2500032901765,6|0,1:0|0:0,0:0:0:0:
124,357,4365,2,0,P|163:340|210:329,1,86.2500032901765,10|0,0:0|0:0,0:0:0:0:
35,146,4605,2,0,P|-2:190|8:261,1,129.375004935265,2|0,1:0|0:0,0:0:0:0:
15,267,4845,1,8,0:0:0:0:
277,284,4965,6,0,B|230:299|251:313|201:330,1,86.2500032901765,2|0,1:0|0:0,0:0:0:0:
134,276,5205,1,0,1:0:0:0:
325,215,5325,2,0,P|354:246|359:298,1,86.2500032901765,10|0,0:0|0:0,0:0:0:0:
399,384,5565,2,0,L|305:365,1,86.2500032901765,2|0,1:0|1:0,0:0:0:0:
428,215,5805,2,0,L|522:234,1,86.2500032901765,10|0,0:0|0:0,0:0:0:0:
331,47,6045,6,0,P|281:62|265:133,1,129.375004935265,2|0,1:0|0:0,0:0:0:0:
269,143,6285,2,0,P|308:126|355:129,1,86.2500032901765,10|0,0:0|0:0,0:0:0:0:
384,295,6525,2,0,P|322:314|258:309,1,129.375004935265,2|0,1:0|0:0,0:0:0:0:
247,305,6765,1,8,0:0:0:0:
107,121,6885,2,0,P|161:141|164:216,1,129.375004935265,2|0,1:0|0:0,0:0:0:0:
166,218,7125,1,0,1:0:0:0:
84,259,7245,2,0,P|42:249|-8:244,1,86.2500032901765,10|0,0:0|0:0,0:0:0:0:
123,342,7485,5,2,1:0:0:0:
188,383,7605,1,0,1:0:0:0:
248,334,7725,2,0,L|258:240,1,86.2500032901765,10|0,0:0|0:0,0:0:0:0:
320,22,7965,6,0,P|278:30|228:47,1,86.2500032901765,0|0,1:0|0:0,0:0:0:0:
266,157,8205,2,0,P|308:148|358:132,1,86.2500032901765,10|0,0:0|0:0,0:0:0:0:
164,0,8445,2,0,P|116:33|110:111,1,129.375004935265,2|0,1:0|0:0,0:0:0:0:
110,110,8685,1,8,0:0:0:0:
0,169,8805,6,0,B|70:183|33:217|118:230,1,129.375004935265,2|0,1:0|0:0,0:0:0:0:
122,229,9045,1,2,1:0:0:0:
41,286,9165,1,10,0:0:0:0:
94,367,9285,1,0,0:0:0:0:
187,341,9405,2,0,P|229:335|271:324,1,86.2500032901765,2|0,1:0|1:0,0:0:0:0:
420,267,9645,2,0,P|378:261|335:250,1,86.2500032901765,10|0,0:0|0:0,0:0:0:0:
197,175,9885,6,0,L|219:26,1,129.375004935265,2|0,1:0|0:0,0:0:0:0:
208,35,10125,2,0,P|239:64|292:67,1,86.2500032901765,10|0,0:0|0:0,0:0:0:0:
500,106,10365,2,0,P|438:116|360:140,1,129.375004935265,2|0,1:0|0:0,0:0:0:0:
363,141,10605,1,8,0:0:0:0:
197,175,10725,2,0,P|255:186|274:260,1,129.375004935265,2|0,1:0|0:0,0:0:0:0:
277,259,10965,1,0,1:0:0:0:
264,376,11085,2,0,P|235:346|190:341,1,86.2500032901765,10|0,0:0|0:0,0:0:0:0:
121,292,11325,5,2,1:0:0:0:
74,359,11445,1,0,1:0:0:0:
3,319,11565,2,0,P|9:277|14:230,1,86.2500032901765,10|0,0:0|0:0,0:0:0:0:
133,74,11805,6,0,P|174:82|201:128,1,86.2500032901765,4|0,1:0|0:0,0:0:0:0:
143,190,12045,2,0,P|102:182|75:136,1,86.2500032901765,10|0,0:0|0:0,0:0:0:0:
247,0,12285,2,0,P|310:21|388:38,1,129.375004935265,2|0,1:0|0:0,0:0:0:0:
384,38,12525,1,8,0:0:0:0:
512,102,12645,6,0,P|469:111|429:125,1,86.2500032901765,2|0,1:0|0:0,0:0:0:0:
390,205,12885,1,0,1:0:0:0:
313,251,13005,2,0,P|272:237|230:227,1,86.2500032901765,10|0,0:0|0:0,0:0:0:0:
390,205,13245,2,0,P|404:247|390:294,1,86.2500032901765,2|0,1:0|1:0,0:0:0:0:
149,264,13485,2,0,P|139:222|153:182,1,86.2500032901765,10|0,0:0|0:0,0:0:0:0:
311,19,13725,6,0,P|261:58|189:65,1,129.375004935265,2|0,1:0|0:0,0:0:0:0:
185,75,13965,2,0,P|161:39|171:-4,1,86.2500032901765,10|0,0:0|0:0,0:0:0:0:
413,65,14205,2,0,P|400:128|392:192,1,129.375004935265,2|0,1:0|0:0,0:0:0:0:
391,204,14445,1,8,0:0:0:0:
268,211,14565,6,0,B|340:244|285:262|372:293,1,129.375004935265,2|0,1:0|0:0,0:0:0:0:
376,297,14805,1,0,1:0:0:0:
325,371,14925,1,10,0:0:0:0:
231,298,15045,1,0,0:0:0:0:
172,360,15165,2,0,P|130:365|86:374,1,86.2500032901765,2|0,1:0|1:0,0:0:0:0:
305,276,15405,1,10,0:0:0:0:
268,211,15525,1,0,0:0:0:0:
305,146,15645,6,0,P|345:133|395:125,1,86.2500032901765,0|0,1:0|0:0,0:0:0:0:
354,0,15885,2,0,P|314:13|264:21,1,86.2500032901765,10|0,0:0|0:0,0:0:0:0:
98,75,16125,1,2,1:0:0:0:
80,71,16245,1,0,0:0:0:0:
112,0,16365,1,8,0:0:0:0:
171,49,16485,6,0,P|190:109|191:187,1,129.375004935265,2|0,1:0|0:0,0:0:0:0:
191,187,16725,1,0,1:0:0:0:
230,111,16845,2,0,P|271:121|318:125,1,86.2500032901765,10|0,0:0|0:0,0:0:0:0:
434,173,17085,1,2,1:0:0:0:
480,235,17205,1,0,1:0:0:0:
432,296,17325,2,0,P|391:286|344:282,1,86.2500032901765,10|0,0:0|0:0,0:0:0:0:
231,384,17565,6,0,L|210:242,1,129.375004935265,2|0,1:0|0:0,0:0:0:0:
209,244,17805,2,0,P|173:267|128:280,1,86.2500032901765,10|0,0:0|0:0,0:0:0:0:
40,225,18045,2,0,P|36:162|100:191,1,129.375004935265,2|0,1:0|0:0,0:0:0:0:
98,174,18285,1,8,0:0:0:0:
180,165,18405,6,0,P|191:105|190:31,1,129.375004935265,2|0,1:0|0:0,0:0:0:0:
187,25,18645,1,0,1:0:0:0:
296,106,18765,2,0,P|288:125|285:153,1,43.1250016450883,10|0,0:0|0:0,0:0:0:0:
340,228,18885,1,8,0:0:0:0:
352,231,18945,1,8,0:0:0:0:
364,234,19005,5,10,0:0:0:0:
405,299,19125,1,8,0:0:0:0:
302,327,19245,1,10,0:0:0:0:
470,217,19365,1,8,0:0:0:0:
246,384,19485,6,0,P|201:375|144:366,1,86.2500032901765,6|0,1:0|0:0,0:0:0:0:
302,327,19725,2,0,P|344:335|399:343,1,86.2500032901765,10|0,0:0|0:0,0:0:0:0:
246,384,19965,1,2,1:0:0:0:
214,313,20085,1,2,0:0:0:0:
266,256,20205,1,10,0:0:0:0:
235,138,20325,6,0,P|173:156|99:171,1,129.375004935265,2|0,1:0|0:0,0:0:0:0:
97,173,20565,1,2,1:0:0:0:
263,62,20685,2,0,P|301:76|315:116,1,86.2500032901765,10|0,0:0|0:0,0:0:0:0:
338,202,20925,1,2,1:0:0:0:
407,237,21045,1,0,1:0:0:0:
479,207,21165,2,0,P|482:163|488:117,1,86.2500032901765,8|0,0:0|0:0,0:0:0:0:
398,347,21405,6,0,P|359:303|288:307,1,129.375004935265,2|0,1:0|0:0,0:0:0:0:
252,235,21645,2,0,P|217:261|213:304,1,86.2500032901765,10|2,0:0|0:0,0:0:0:0:
326,374,21885,2,0,L|337:222,1,129.375004935265,2|0,1:0|0:0,0:0:0:0:
336,232,22125,1,10,0:0:0:0:
307,73,22245,6,0,B|235:81|269:119|189:135,1,129.375004935265,2|0,1:0|0:0,0:0:0:0:
184,136,22485,1,2,1:0:0:0:
115,98,22605,1,10,0:0:0:0:
139,24,22725,1,2,0:0:0:0:
216,27,22845,1,2,1:0:0:0:
117,174,22965,1,0,1:0:0:0:
104,185,23085,2,0,P|60:177|13:173,1,86.2500032901765,8|0,0:0|0:0,0:0:0:0:
197,384,23325,6,0,P|230:340|214:263,1,129.375004935265,2|0,1:0|0:0,0:0:0:0:
209,261,23565,2,0,P|166:263|164:314,1,86.2500032901765,10|0,0:0|0:0,0:0:0:0:
308,279,23805,2,0,P|295:225|231:181,1,129.375004935265,2|0,1:0|0:0,0:0:0:0:
226,177,24045,1,10,0:0:0:0:
309,363,24165,6,0,P|371:349|452:342,1,129.375004935265,2|0,1:0|0:0,0:0:0:0:
447,341,24405,1,2,1:0:0:0:
501,285,24525,1,10,0:0:0:0:
462,217,24645,1,2,0:0:0:0:
387,238,24765,1,2,1:0:0:0:
385,251,24885,1,0,1:0:0:0:
462,217,25005,2,0,P|466:172|480:114,1,86.2500032901765,8|0,0:0|0:0,0:0:0:0:
390,0,25245,5,2,1:0:0:0:
337,57,25365,1,2,0:0:0:0:
262,36,25485,1,10,0:0:0:0:
254,23,25605,1,2,0:0:0:0:
341,69,25725,2,0,P|329:134|321:204,1,129.375004935265,2|0,1:0|0:0,0:0:0:0:
321,211,25965,1,10,0:0:0:0:
164,99,26085,2,0,P|219:111|222:184,1,129.375004935265,2|0,1:0|0:0,0:0:0:0:
221,187,26325,5,2,1:0:0:0:
144,174,26445,1,10,0:0:0:0:
94,207,26565,1,0,0:0:0:0:
44,190,26685,1,2,1:0:0:0:
11,218,26805,1,0,1:0:0:0:
96,319,26925,2,0,P|98:275|107:219,1,86.2500032901765,8|0,0:0|0:0,0:0:0:0:
224,81,27165,6,0,B|211:4|294:-24|351:27|329:96|329:96|307:102|289:121,1,258.75000987053,6|0,1:0|0:0,0:0:0:0:
261,183,27405,2,0,P|218:203|201:142,1,115,10|0,0:0|3:0,0:0:0:0:
133,108,27645,2,0,L|358:171,1,215.625,2|0,1:0|0:0,0:0:0:0:
352,170,27885,1,10,0:0:0:0:
471,281,28005,6,0,B|443:231|451:174|451:174|439:230|391:268,1,215.625,2|0,1:0|0:0,0:0:0:0:
389,272,28245,1,2,1:0:0:0:
324,329,28365,1,10,0:0:0:0:
259,271,28485,1,2,0:0:0:0:
255,254,28605,5,2,1:0:0:0:
330,204,28725,1,0,1:0:0:0:
249,349,28845,2,0,P|207:340|161:336,1,86.2500032901765,8|0,0:0|0:0,0:0:0:0:
0,324,29085,2,0,P|-5:278|33:250,1,86.2500032901765,2|0,1:0|0:0,0:0:0:0:
110,262,29325,1,10,0:0:0:0:
76,181,29445,1,2,0:0:0:0:
116,277,29565,6,0,P|178:262|250:255,1,129.375004935265,2|0,1:0|0:0,0:0:0:0:
255,254,29805,1,10,0:0:0:0:
244,91,29925,2,0,P|297:103|311:172,1,129.375004935265,2|0,1:0|0:0,0:0:0:0:
311,184,30165,1,2,1:0:0:0:
154,187,30285,2,0,P|161:146|167:96,1,86.2500032901765,10|2,0:0|0:0,0:0:0:0:
195,26,30525,1,2,1:0:0:0:
195,26,30645,1,0,1:0:0:0:
329,102,30765,2,0,P|371:92|423:87,1,86.2500032901765,8|0,0:0|0:0,0:0:0:0:
448,248,31005,6,0,P|438:298|352:279,1,143.75,6|0,1:0|0:0,3:0:0:0:
237,327,31245,2,0,P|259:266|362:308,1,172.5,14|0,0:0|0:0,0:0:0:0:
350,384,31485,2,0,L|374:165,1,215.625,6|0,1:0|0:0,0:0:0:0:
375,157,31725,1,10,0:0:0:0:
237,327,31845,6,0,P|259:266|362:308,1,172.5,6|0,1:0|0:0,0:0:0:0:
358,293,32085,1,2,1:0:0:0:
271,233,32205,2,0,L|282:123,1,86.2500032901765,14|2,0:0|1:0,0:0:0:0:
375,157,32445,2,0,L|350:392,1,218.499994165421,6|8,1:0|0:0,0:0:0:0:
185,384,32925,5,2,1:0:0:0:
126,341,33045,1,2,0:0:0:0:
62,374,33165,1,10,0:0:0:0:
1,335,33285,1,2,0:0:0:0:
9,233,33405,2,0,P|50:234|78:267,1,86.2500032901765,2|2,1:0|0:0,0:0:0:0:
126,341,33645,1,10,0:0:0:0:
284,207,33765,6,0,B|255:197|229:218|242:246|216:271|175:264,1,129.375004935265,2|0,1:0|0:0,0:0:0:0:
168,262,34005,1,2,1:0:0:0:
124,197,34125,1,10,0:0:0:0:
172,136,34245,1,2,0:0:0:0:
53,170,34365,5,10,0:0:0:0:
49,148,34425,1,8,0:0:0:0:
46,126,34485,2,0,L|39:73,2,43.1250016450883,8|8|8,0:0|0:0|0:0,0:0:0:0:
254,150,34845,6,0,B|231:113|231:113|201:141|201:141|164:134,1,115,6|0,1:0|0:0,0:0:0:0:
285,229,35085,2,0,B|324:211|337:169|337:169|389:213|389:213|367:243,1,172.5,10|0,0:0|0:0,0:0:0:0:
368,240,35325,1,2,1:0:0:0:
317,308,35445,1,0,0:0:0:0:
400,318,35565,1,8,0:0:0:0:
203,216,35685,2,0,B|188:247|188:247|221:343|221:343|200:376,1,172.5,2|0,1:0|0:0,0:0:0:0:
193,383,35925,5,0,1:0:0:0:
129,333,36045,1,10,0:0:0:0:
62,378,36165,1,0,0:0:0:0:
45,367,36285,2,0,B|24:343|24:343|60:315|57:265,1,115,2|0,1:0|1:0,0:0:0:0:
0,132,36525,2,0,B|27:149|26:182|26:182|61:183|80:158,1,115,10|0,0:0|0:0,0:0:0:0:
180,0,36765,6,0,B|160:13|160:13|186:109,1,115,2|0,1:0|0:0,0:0:0:0:
171,225,37005,2,0,B|196:184|196:184|211:181|211:181|262:219,1,115,10|0,0:0|0:0,0:0:0:0:
343,384,37245,2,0,B|363:354|363:354|332:213|332:213|356:180,1,215.625,2|0,1:0|0:0,0:0:0:0:
360,174,37485,1,8,0:0:0:0:
485,74,37605,6,0,B|477:54|453:46|453:46|379:89|379:89|403:93|418:112,1,172.5,2|0,1:0|0:0,0:0:0:0:
421,121,37845,1,0,1:0:0:0:
391,288,37965,2,0,B|386:267|386:267|338:276|285:243,1,115,10|0,0:0|0:0,0:0:0:0:
203,262,38205,1,2,1:0:0:0:
203,262,38325,1,0,1:0:0:0:
177,138,38445,2,0,B|116:170|116:170|98:160|98:160|91:136,1,115,10|0,0:0|0:0,0:0:0:0:
191,0,38685,6,0,B|253:21|253:21|323:10|323:10|354:48,1,172.5,0|0,1:0|0:0,0:0:0:0:
461,63,38925,2,0,B|429:70|429:70|404:112|404:112|369:122,1,115,10|0,0:0|0:0,0:0:0:0:
288,101,39165,1,2,1:0:0:0:
247,170,39285,1,0,0:0:0:0:
302,228,39405,1,8,0:0:0:0:
437,250,39525,6,0,B|373:269|373:269|355:297|355:297|278:322,1,172.5,2|0,1:0|0:0,0:0:0:0:
274,323,39765,1,0,1:0:0:0:
388,377,39885,2,0,B|416:359|422:331|422:331|418:360|436:388,1,115,10|0,0:0|0:0,0:0:0:0:
217,384,40125,1,2,1:0:0:0:
165,322,40245,1,0,1:0:0:0:
91,355,40365,2,0,B|16:340|16:340|-12:375,1,115,10|0,0:0|0:0,0:0:0:0:
246,310,40605,6,0,B|262:278|262:278|242:127,1,172.5,2|0,1:0|0:0,0:0:0:0:
242,130,40845,2,0,B|206:116|206:116|249:108,2,57.5,10|0|0,0:0|0:0|0:0,0:0:0:0:
230,26,41085,6,0,P|296:22|330:116,1,172.5,0|0,1:0|0:0,0:0:0:0:
328,121,41325,1,8,0:0:0:0:
329,209,41445,2,0,P|243:220|151:242,1,172.5,2|0,1:0|0:0,0:0:0:0:
149,246,41685,1,0,1:0:0:0:
391,273,41805,2,0,P|418:220|404:159,1,115,10|0,0:0|0:0,0:0:0:0:
230,26,42045,5,10,0:0:0:0:
150,36,42165,1,8,0:0:0:0:
92,94,42285,1,10,0:0:0:0:
12,84,42405,1,8,0:0:0:0:
150,152,42525,6,0,B|228:160|187:194|287:209,1,129.375004935265,6|0,1:0|0:0,0:0:0:0:
149,246,42765,2,0,L|55:257,1,86.2500032901765,10|0,0:0|0:0,0:0:0:0:
302,276,43005,2,0,P|342:237|330:157,1,129.375004935265,2|0,1:0|0:0,0:0:0:0:
330,157,43245,1,10,0:0:0:0:
220,349,43365,2,0,P|284:359|352:376,1,129.375004935265,2|0,1:0|0:0,0:0:0:0:
359,378,43605,1,2,1:0:0:0:
425,337,43725,1,10,0:0:0:0:
491,376,43845,1,2,0:0:0:0:
378,275,43965,5,2,1:0:0:0:
380,263,44085,1,0,1:0:0:0:
439,202,44205,2,0,P|456:211|485:218,2,43.1250016450883,8|0|0,0:0|0:0|0:0,0:0:0:0:
330,157,44445,6,0,P|264:151|220:195,1,129.375004935265,2|0,1:0|0:0,0:0:0:0:
219,205,44685,1,10,0:0:0:0:
304,264,44805,1,2,0:0:0:0:
118,163,44925,2,0,P|133:226|146:306,1,129.375004935265,2|0,1:0|0:0,0:0:0:0:
146,302,45165,1,8,0:0:0:0:
38,126,45285,2,0,P|78:81|154:85,1,129.375004935265,2|0,1:0|0:0,0:0:0:0:
154,87,45525,1,2,1:0:0:0:
229,163,45645,2,0,P|222:182|218:208,2,43.1250016450883,10|0|2,0:0|0:0|0:0,0:0:0:0:
317,106,45885,5,2,1:0:0:0:
308,75,46005,1,0,1:0:0:0:
228,30,46125,1,8,0:0:0:0:
237,0,46245,1,2,0:0:0:0:
399,92,46365,6,0,P|393:150|332:185,1,129.375004935265,2|0,1:0|0:0,0:0:0:0:
238,240,46605,2,0,P|220:213|231:158,1,86.2500032901765,10|0,0:0|0:0,0:0:0:0:
317,106,46845,2,0,L|336:278,1,172.500006580353,2|10,1:0|0:0,0:0:0:0:
462,317,47205,6,0,B|391:341|425:366|346:383,1,129.375004935265,2|0,1:0|0:0,0:0:0:0:
340,384,47445,1,2,1:0:0:0:
254,333,47565,1,10,0:0:0:0:
335,277,47685,1,2,0:0:0:0:
169,384,47805,1,2,1:0:0:0:
169,384,47925,1,0,1:0:0:0:
100,334,48045,2,0,P|109:291|116:245,1,86.2500032901765,8|0,0:0|0:0,0:0:0:0:
93,152,48285,5,2,1:0:0:0:
122,80,48405,1,2,0:0:0:0:
199,76,48525,1,10,0:0:0:0:
232,145,48645,1,2,0:0:0:0:
233,163,48765,2,0,P|274:152|317:147,1,86.2500032901765,2|0,1:0|0:0,0:0:0:0:
115,249,49005,2,0,P|73:259|30:264,1,86.2500032901765,10|2,0:0|1:0,0:0:0:0:
262,254,49245,5,8,0:0:0:0:
286,345,49365,1,2,1:0:0:0:
115,249,49485,5,10,0:0:0:0:
139,158,49605,1,2,1:0:0:0:
352,279,49725,5,10,0:0:0:0:
352,279,50205,6,0,B|397:305|404:344|404:344|400:304|443:257,1,172.500006580353,6|0,1:0|0:0,0:0:0:0:
425,185,50445,2,0,B|379:158|373:120|373:120|376:159|333:206,1,172.500006580353,10|0,0:0|0:0,0:0:0:0:
302,244,50685,2,0,L|516:215,1,172.5,2|0,1:0|0:0,0:0:0:0:
488,218,50925,1,10,0:0:0:0:
275,151,51045,6,0,P|214:172|192:276,1,172.5,2|0,1:0|0:0,0:0:0:0:
193,281,51285,1,2,1:0:0:0:
272,341,51405,2,0,L|388:325,1,115,10|2,0:0|0:0,0:0:0:0:
506,215,51645,2,0,L|278:247,1,230,2|8,1:0|0:0,0:0:0:0:
104,384,52125,6,0,P|74:333|7:349,1,129.375004935265,2|0,1:0|0:0,0:0:0:0:
4,352,52365,1,10,0:0:0:0:
75,304,52485,1,2,0:0:0:0:
8,187,52605,2,0,B|59:198|59:198|70:218|70:218|146:234,1,129.375004935265,2|0,1:0|0:0,0:0:0:0:
135,232,52845,1,10,0:0:0:0:
272,105,52965,6,0,P|216:130|211:195,1,129.375004935265,2|0,1:0|0:0,0:0:0:0:
213,203,53205,1,2,1:0:0:0:
253,278,53325,2,0,P|295:269|348:262,1,86.2500032901765,10|2,0:0|0:0,0:0:0:0:
477,277,53565,1,2,1:0:0:0:
470,255,53685,1,0,1:0:0:0:
403,200,53805,2,0,P|411:158|416:108,1,86.2500032901765,8|0,0:0|0:0,0:0:0:0:
364,0,54045,6,0,L|192:35,1,172.5,6|0,1:0|0:0,0:0:0:0:
76,102,54285,2,0,B|41:46|125:-35|190:40|175:100|175:100|154:105|143:125,1,258.75000987053,14|0,0:0|0:0,0:0:0:0:
0,169,54525,2,0,B|106:166|56:228|173:220,1,172.5,6|0,1:0|0:0,0:0:0:0:
171,220,54765,1,10,0:0:0:0:
329,84,54885,6,0,P|281:89|242:197,1,172.5,6|0,1:0|0:0,0:0:0:0:
245,205,55125,1,6,1:0:0:0:
389,131,55245,2,0,P|379:90|341:72,1,86.2500032901765,10|2,0:0|1:0,0:0:0:0:
245,205,55485,2,0,B|351:202|301:264|418:256,1,172.5,6|8,1:0|0:0,0:0:0:0:
235,359,55965,5,2,1:0:0:0:
168,319,56085,1,2,0:0:0:0:
97,351,56205,1,10,0:0:0:0:
84,343,56325,1,2,0:0:0:0:
26,209,56445,2,0,P|74:180|99:270,1,172.500006580353,2|10,1:0|0:0,0:0:0:0:
286,246,56805,2,0,B|219:266|252:297|179:317,1,129.375004935265,2|0,1:0|0:0,0:0:0:0:
168,319,57045,1,2,1:0:0:0:
106,263,57165,1,10,0:0:0:0:
308,328,57285,5,10,0:0:0:0:
329,323,57345,1,8,0:0:0:0:
350,319,57405,2,0,L|359:271,1,43.1250016450883,10|0,0:0|0:0,0:0:0:0:
375,169,57525,1,8,0:0:0:0:
444,366,57645,1,8,0:0:0:0:
286,246,57765,1,8,0:0:0:0:
372,87,57885,6,0,P|419:85|455:154,1,129.375004935265,6|0,1:0|0:0,0:0:0:0:
375,169,58125,2,0,P|332:160|278:155,1,86.2500032901765,10|0,0:0|0:0,0:0:0:0:
211,130,58365,2,0,P|225:85|302:74,1,129.375004935265,2|0,1:0|0:0,0:0:0:0:
302,83,58605,1,10,0:0:0:0:
218,44,58725,1,0,1:0:0:0:
116,278,58845,6,0,P|155:259|166:202,1,86.2500032901765,2|0,1:0|1:0,0:0:0:0:
121,117,59085,2,0,P|83:139|77:197,1,86.2500032901765,10|0,0:0|0:0,0:0:0:0:
52,359,59325,1,2,1:0:0:0:
52,359,59445,1,0,1:0:0:0:
116,278,59565,2,0,P|158:289|214:297,1,86.2500032901765,10|0,0:0|0:0,0:0:0:0:
249,116,59805,6,0,L|273:245,1,129.375004935265,2|0,1:0|0:0,0:0:0:0:
351,204,60045,2,0,L|335:119,1,86.2500032901765,10|0,0:0|0:0,0:0:0:0:
512,217,60285,6,0,L|488:346,1,129.375004935265,2|0,1:0|0:0,0:0:0:0:
410,305,60525,1,10,0:0:0:0:
512,284,60645,1,0,1:0:0:0:
351,204,60765,6,0,P|310:214|290:252,1,86.2500032901765,2|0,0:0|1:0,0:0:0:0:
324,333,61005,1,10,0:0:0:0:
194,207,61125,1,0,1:0:0:0:
188,201,61245,2,0,P|201:266|209:336,1,129.375004935265,6|0,1:0|0:0,0:0:0:0:
57,384,61725,6,0,P|13:352|29:279,1,129.375004935265,2|0,1:0|0:0,0:0:0:0:
18,204,61965,2,0,P|57:206|90:240,1,86.2500032901765,10|0,0:0|0:0,0:0:0:0:
320,132,62205,2,0,P|323:186|257:220,1,129.375004935265,2|0,1:0|0:0,0:0:0:0:
187,200,62445,1,10,0:0:0:0:
228,118,62565,1,0,1:0:0:0:
339,209,62685,5,2,0:0:0:0:
339,209,62805,1,0,1:0:0:0:
229,33,62925,2,0,P|185:37|158:76,1,86.2500032901765,10|0,0:0|0:0,0:0:0:0:
102,149,63165,1,2,1:0:0:0:
102,149,63285,1,0,1:0:0:0:
221,203,63405,2,0,L|228:114,1,86.2500032901765,10|0,0:0|0:0,0:0:0:0:
357,0,63645,6,0,P|416:13|422:94,1,129.375004935265,2|0,1:0|0:0,0:0:0:0:
427,84,63885,2,0,P|383:100|355:69,1,86.2500032901765,10|0,0:0|0:0,0:0:0:0:
297,201,64125,2,0,P|238:188|232:107,1,129.375004935265,2|0,1:0|0:0,0:0:0:0:
227,117,64365,1,10,0:0:0:0:
369,175,64485,1,0,1:0:0:0:
156,219,64605,6,0,P|148:176|136:135,1,86.2500032901765,2|0,0:0|1:0,0:0:0:0:
349,91,64845,2,0,P|357:134|369:175,1,86.2500032901765,10|0,0:0|1:0,0:0:0:0:
84,245,65085,2,0,P|76:202|64:161,1,86.2500032901765,10|0,0:0|1:0,0:0:0:0:
277,117,65325,2,0,P|285:160|297:201,1,86.2500032901765,8|0,0:0|0:0,0:0:0:0:
298,357,65565,6,0,P|336:315|421:329,1,129.375004935265,6|0,1:0|0:0,0:0:0:0:
293,369,65805,2,0,P|236:365|216:339,1,86.2500032901765,10|0,0:0|0:0,0:0:0:0:
119,314,66045,6,0,P|129:250|139:174,1,129.375004935265,2|0,1:0|0:0,0:0:0:0:
213,187,66285,2,0,P|207:229|200:272,1,86.2500032901765,10|0,0:0|1:0,0:0:0:0:
50,214,66525,1,2,0:0:0:0:
50,214,66645,1,0,1:0:0:0:
68,125,66765,2,0,P|101:98|145:94,1,86.2500032901765,10|0,0:0|0:0,0:0:0:0:
253,9,67005,1,2,1:0:0:0:
227,84,67125,1,0,1:0:0:0:
293,127,67245,2,0,L|387:108,1,86.2500032901765,10|0,0:0|0:0,0:0:0:0:
512,184,67485,6,0,P|451:191|423:249,1,129.375004935265,2|0,1:0|0:0,0:0:0:0:
422,261,67725,2,0,P|465:264|506:282,1,86.2500032901765,10|0,0:0|0:0,0:0:0:0:
342,240,67965,2,0,P|289:272|288:336,1,129.375004935265,2|0,1:0|0:0,0:0:0:0:
292,347,68205,2,0,P|332:331|377:330,1,86.2500032901765,10|0,0:0|1:0,0:0:0:0:
216,384,68445,5,2,1:0:0:0:
216,384,68565,1,0,1:0:0:0:
152,330,68685,2,0,P|158:286|165:233,1,86.2500032901765,10|0,0:0|1:0,0:0:0:0:
102,98,68925,2,0,B|177:107|140:147|223:150,1,129.375004935265,14|0,0:0|0:0,0:0:0:0:
395,73,69405,6,0,P|387:15|321:1,1,129.375004935265,2|0,1:0|0:0,0:0:0:0:
258,30,69645,2,0,P|273:69|282:114,1,86.2500032901765,10|0,0:0|0:0,0:0:0:0:
169,253,69885,2,0,P|177:195|243:181,1,129.375004935265,2|0,1:0|0:0,0:0:0:0:
306,210,70125,1,10,0:0:0:0:
160,173,70245,1,0,1:0:0:0:
365,149,70365,6,0,P|391:184|384:235,1,86.2500032901765,2|0,0:0|1:0,0:0:0:0:
266,335,70605,2,0,P|292:301|333:292,1,86.2500032901765,10|0,0:0|0:0,0:0:0:0:
421,306,70845,1,2,1:0:0:0:
492,345,70965,1,0,1:0:0:0:
266,335,71085,2,0,P|273:293|279:244,1,86.2500032901765,10|0,0:0|0:0,0:0:0:0:
286,111,71325,5,6,1:0:0:0:
213,158,71445,1,2,0:0:0:0:
130,134,71565,1,10,0:0:0:0:
301,27,71685,6,0,B|377:44|328:72|416:88,1,129.375004935265,6|0,1:0|0:0,0:0:0:0:
423,89,71925,1,2,1:0:0:0:
227,235,72045,2,0,P|204:189|216:152,1,86.2500032901765,10|0,0:0|0:0,0:0:0:0:
445,13,72285,5,6,1:0:0:0:
509,70,72405,1,2,0:0:0:0:
482,152,72525,1,10,0:0:0:0:
284,168,72645,2,0,P|295:104|302:24,1,129.375004935265,6|0,1:0|0:0,0:0:0:0:
301,27,72885,1,2,1:0:0:0:
202,86,73005,2,0,B|155:94|173:116|121:127,1,86.2500032901765,10|8,0:0|0:0,0:0:0:0:
37,133,73185,1,8,0:0:0:0:
37,133,73245,6,0,P|29:89|19:47,2,86.2500032901765,10|2|2,0:0|1:0|0:0,0:0:0:0:
90,205,73605,5,2,1:0:0:0:
147,257,73725,1,0,1:0:0:0:
126,331,73845,1,2,1:0:0:0:
49,344,73965,1,10,0:0:0:0:
2,281,74085,1,2,1:0:0:0:
135,340,74205,5,10,0:0:0:0:
164,297,74285,5,8,0:0:0:0:
220,285,74365,5,10,0:0:0:0:
278,309,74445,5,8,0:0:0:0:
309,369,74525,5,10,0:0:0:0:
377,374,74605,5,8,0:0:0:0:
382,361,74685,6,0,B|383:310|383:310|394:292|394:292|397:232,1,129.375004935265,2|0,1:0|0:0,0:0:0:0:
368,123,75165,6,0,L|349:131,1,21.5625008225441,6|0,1:0|0:0,0:0:0:0:
255,87,75645,2,0,L|236:95,1,21.5625008225441,10|0,0:0|0:0,0:0:0:0:
251,195,76125,2,0,L|232:203,1,21.5625008225441,10|0,0:0|0:0,0:0:0:0:
138,159,76605,2,0,L|119:167,1,21.5625008225441,10|0,0:0|0:0,0:0:0:0:
473,336,77085,6,0,P|478:321|480:301,1,21.5625008225441,10|0,0:0|0:0,0:0:0:0:
380,249,77565,2,0,P|382:238|386:228,1,21.5625008225441,10|0,0:0|0:0,0:0:0:0:
506,187,78045,2,0,P|511:172|513:152,1,21.5625008225441,10|0,0:0|0:0,0:0:0:0:
413,100,78525,2,0,P|415:89|419:79,1,21.5625008225441,10|0,0:0|0:0,0:0:0:0:
206,0,79005,6,0,P|195:6|179:12,1,21.5625008225441,10|0,0:0|0:0,0:0:0:0:
83,62,79485,2,0,P|73:57|63:52,1,21.5625008225441,10|0,0:0|0:0,0:0:0:0:
233,124,79965,2,0,P|222:130|206:136,1,21.5625008225441,10|0,0:0|0:0,0:0:0:0:
110,186,80445,2,0,P|100:181|90:176,1,21.5625008225441,10|0,0:0|0:0,0:0:0:0:
226,384,80925,6,0,L|230:349,1,21.5625008225441,10|0,0:0|0:0,0:0:0:0:
366,289,81405,2,0,L|370:254,1,21.5625008225441,10|0,0:0|0:0,0:0:0:0:
239,255,81885,2,0,L|243:220,1,21.5625008225441,10|0,0:0|0:0,0:0:0:0:
379,160,82365,2,0,L|383:125,1,21.5625008225441,10|0,0:0|0:0,0:0:0:0:
10,12,82845,6,0,L|5:41,1,21.5625008225441,14|0,0:0|0:0,0:0:0:0:
128,67,83325,2,0,L|123:96,1,21.5625008225441,10|0,0:0|0:0,0:0:0:0:
14,160,83805,2,0,L|9:189,1,21.5625008225441,10|0,0:0|0:0,0:0:0:0:
132,215,84285,2,0,L|127:244,1,21.5625008225441,10|0,0:0|0:0,0:0:0:0:
502,372,84765,6,0,L|507:343,1,21.5625008225441,10|0,0:0|0:0,0:0:0:0:
384,317,85245,2,0,L|389:288,1,21.5625008225441,10|0,0:0|0:0,0:0:0:0:
498,224,85725,2,0,L|503:195,1,21.5625008225441,10|0,0:0|0:0,0:0:0:0:
380,169,86205,2,0,L|385:140,1,21.5625008225441,10|0,0:0|0:0,0:0:0:0:
301,0,86685,6,0,L|269:13,1,21.5625008225441,10|0,0:0|0:0,0:0:0:0:
140,91,87165,2,0,L|172:104,1,21.5625008225441,10|0,0:0|0:0,0:0:0:0:
301,182,87645,2,0,L|269:195,1,21.5625008225441,10|0,0:0|0:0,0:0:0:0:
140,273,88125,2,0,L|172:286,1,21.5625008225441,10|0,0:0|0:0,0:0:0:0:
275,362,88605,6,0,P|276:347|281:328,1,21.5625008225441,10|0,0:0|0:0,0:0:0:0:
137,194,89085,2,0,P|135:179|131:160,1,21.5625008225441,10|0,0:0|0:0,0:0:0:0:
275,26,89565,6,0,P|276:11|281:-8,1,21.5625008225441,2|0,1:0|0:0,0:0:0:0:
384,46,89805,2,0,P|377:54|372:64,1,21.5625008225441,0|0,1:0|0:0,0:0:0:0:
478,105,90045,2,0,P|479:94|481:84,1,21.5625008225441,12|0,0:0|0:0,0:0:0:0:
187,10,90525,6,0,P|109:14|86:99,1,172.5,6|0,1:0|0:0,0:0:0:0:
89,105,90765,1,8,0:0:0:0:
186,105,90885,1,0,0:0:0:0:
15,162,91005,2,0,P|9:118|-1:75,1,86.2500032901765,2|0,1:0|0:0,0:0:0:0:
102,197,91245,1,8,0:0:0:0:
285,149,91365,6,0,P|271:84|264:9,1,129.375004935265,2|0,1:0|0:0,0:0:0:0:
263,6,91605,1,0,1:0:0:0:
432,0,91725,2,0,P|395:9|378:55,1,86.2500032901765,10|0,0:0|0:0,0:0:0:0:
377,143,91965,1,2,1:0:0:0:
473,106,92085,1,0,1:0:0:0:
512,212,92205,2,0,P|468:216|415:230,1,86.2500032901765,10|0,0:0|0:0,0:0:0:0:
251,225,92445,6,0,P|306:229|329:306,1,129.375004935265,2|0,1:0|0:0,0:0:0:0:
333,375,92685,2,0,P|289:375|242:383,1,86.2500032901765,10|0,0:0|0:0,0:0:0:0:
117,367,92925,2,0,P|133:305|152:217,1,129.375004935265,2|0,1:0|0:0,0:0:0:0:
150,229,93165,1,10,0:0:0:0:
101,98,93285,6,0,P|57:111|47:154,1,86.2500032901765,0|2,1:0|0:0,0:0:0:0:
57,231,93525,1,0,1:0:0:0:
210,157,93645,2,0,P|201:112|197:63,1,86.2500032901765,10|0,0:0|0:0,0:0:0:0:
272,0,93885,1,2,1:0:0:0:
342,75,94005,1,0,1:0:0:0:
426,14,94125,2,0,P|466:25|516:31,1,86.2500032901765,10|0,0:0|0:0,0:0:0:0:
459,294,94365,6,0,P|399:277|326:269,1,129.375004935265,2|0,1:0|0:0,0:0:0:0:
336,348,94605,2,0,P|378:353|420:365,1,86.2500032901765,8|0,0:0|0:0,0:0:0:0:
213,359,94845,1,2,1:0:0:0:
172,265,94965,1,0,0:0:0:0:
254,206,95085,1,8,0:0:0:0:
332,269,95205,1,2,1:0:0:0:
150,261,95325,6,0,P|96:246|34:240,1,86.2500032901765,2|0,0:0|1:0,0:0:0:0:
0,89,95565,2,0,P|41:100|89:105,1,86.2500032901765,10|0,0:0|0:0,0:0:0:0:
208,126,95805,1,2,1:0:0:0:
255,64,95925,1,0,1:0:0:0:
203,6,96045,1,10,0:0:0:0:
135,186,96165,1,0,0:0:0:0:
141,197,96285,6,0,P|201:203|283:219,1,129.375004935265,2|0,1:0|0:0,0:0:0:0:
336,264,96525,2,0,P|358:220|338:176,1,86.2500032901765,10|0,0:0|0:0,0:0:0:0:
255,64,96765,2,0,P|315:70|397:86,1,129.375004935265,2|0,1:0|0:0,0:0:0:0:
450,131,97005,2,0,P|472:87|452:43,1,86.2500032901765,10|0,0:0|1:0,0:0:0:0:
387,0,97245,1,2,0:0:0:0:
372,5,97365,1,0,1:0:0:0:
270,69,97485,1,10,0:0:0:0:
255,64,97605,1,0,0:0:0:0:
135,0,97725,5,2,1:0:0:0:
176,85,97845,1,0,1:0:0:0:
105,148,97965,2,0,P|63:152|17:163,1,86.2500032901765,8|0,0:0|0:0,0:0:0:0:
0,274,98205,5,6,1:0:0:0:
83,290,98325,1,2,0:0:0:0:
113,369,98445,1,10,0:0:0:0:
196,384,98565,2,0,P|242:373|293:366,1,86.2500032901765,2|0,0:0|1:0,0:0:0:0:
405,258,98805,2,0,P|447:263|489:273,1,86.2500032901765,2|8,0:0|0:0,0:0:0:0:
350,324,99045,6,0,P|322:266|348:190,1,129.375004935265,2|0,1:0|0:0,0:0:0:0:
342,193,99285,1,2,1:0:0:0:
433,99,99405,1,10,0:0:0:0:
496,143,99525,1,2,0:0:0:0:
358,114,99645,1,2,1:0:0:0:
351,93,99765,1,2,1:0:0:0:
290,26,99885,1,10,0:0:0:0:
283,47,100005,1,0,0:0:0:0:
248,127,100125,6,0,P|203:134|155:149,1,86.2500032901765,2|2,1:0|0:0,0:0:0:0:
87,115,100365,1,10,0:0:0:0:
283,47,100485,2,0,P|328:87|326:164,1,129.375004935265,2|0,0:0|0:0,0:0:0:0:
328,165,100725,1,2,0:0:0:0:
213,274,100845,1,8,0:0:0:0:
301,266,100965,2,0,P|220:249|129:238,1,172.500006580353,2|2,1:0|1:0,0:0:0:0:
36,223,101325,5,10,0:0:0:0:
0,310,101445,1,2,0:0:0:0:
74,368,101565,1,2,1:0:0:0:
87,337,101685,1,2,1:0:0:0:
174,271,101805,1,10,0:0:0:0:
187,301,101925,1,0,0:0:0:0:
252,367,102045,6,0,P|303:361|353:358,1,86.2500032901765,2|0,1:0|0:0,0:0:0:0:
438,384,102285,1,10,0:0:0:0:
512,207,102405,2,0,B|444:221|491:263|398:287,1,129.375004935265,2|0,0:0|0:0,0:0:0:0:
401,286,102645,1,2,0:0:0:0:
274,243,102765,1,10,0:0:0:0:
263,145,102885,6,0,B|311:157|311:157|327:181|327:181|393:197,1,129.375004935265,2|0,1:0|0:0,0:0:0:0:
389,196,103125,1,2,1:0:0:0:
202,204,103245,2,0,P|181:168|185:121,1,86.2500032901765,10|0,0:0|0:0,0:0:0:0:
246,52,103485,1,2,1:0:0:0:
321,0,103605,1,0,1:0:0:0:
397,50,103725,1,10,0:0:0:0:
108,209,103965,5,2,1:0:0:0:
74,85,104085,2,0,P|82:45|88:-2,1,86.2500032901765,14|0,0:0|0:0,0:0:0:0:
205,253,104325,1,2,1:0:0:0:
239,129,104445,2,0,P|230:89|225:42,1,86.2500032901765,14|0,0:0|0:0,0:0:0:0:
302,297,104685,1,2,1:0:0:0:
404,85,104805,2,0,P|408:42|417:0,1,86.2500032901765,14|0,0:0|0:0,0:0:0:0:
493,148,105045,5,10,0:0:0:0:
498,164,105105,1,8,0:0:0:0:
502,180,105165,1,10,0:0:0:0:
460,255,105285,1,10,0:0:0:0:
375,238,105405,1,10,0:0:0:0:
353,154,105525,1,8,0:0:0:0:
269,130,105645,1,10,0:0:0:0:
199,181,105765,1,8,0:0:0:0:
199,181,106605,6,0,B|171:177|171:177|185:191|185:191|200:194,2,57.500002193451,2|2|2,0:0|0:0|0:0,0:0:0:0:
135,101,106845,6,0,B|94:120|94:120|92:141|92:141|39:167,1,115,6|0,1:0|0:0,0:0:0:0:
266,246,107085,2,0,B|313:175|313:175|256:102,1,172.5,10|0,0:0|0:0,0:0:0:0:
250,96,107325,1,2,1:0:0:0:
199,181,107445,1,0,0:0:0:0:
342,170,107565,1,8,0:0:0:0:
363,329,107685,6,0,B|311:339|311:339|280:324|280:324|256:345|256:345|190:355,1,172.5,2|0,1:0|0:0,0:0:0:0:
191,354,107925,1,0,1:0:0:0:
131,299,108045,1,10,0:0:0:0:
116,303,108165,1,0,0:0:0:0:
61,363,108285,1,2,1:0:0:0:
46,359,108405,1,0,1:0:0:0:
191,354,108525,1,10,0:0:0:0:
214,277,108645,1,0,0:0:0:0:
190,151,108765,6,0,B|139:140|139:140|93:172|93:172|96:185|96:185|42:211,1,172.5,2|0,1:0|0:0,0:0:0:0:
39,213,109005,2,0,B|36:186|36:186|17:148,2,57.5,8|2|2,0:0|0:0|0:0,0:0:0:0:
63,70,109245,5,2,1:0:0:0:
133,101,109365,1,0,0:0:0:0:
183,42,109485,1,8,0:0:0:0:
299,80,109605,6,0,B|331:79|331:79|353:60|353:60|327:130|327:130|336:182,1,172.5,2|0,1:0|0:0,0:0:0:0:
336,181,109845,1,0,1:0:0:0:
431,203,109965,1,10,0:0:0:0:
424,176,110085,1,0,0:0:0:0:
370,257,110205,5,2,1:0:0:0:
453,283,110325,1,0,1:0:0:0:
427,366,110445,1,10,0:0:0:0:
344,340,110565,1,0,0:0:0:0:
250,224,110685,6,0,B|277:176|277:176|308:185|308:185|349:178,1,115,2|0,1:0|0:0,0:0:0:0:
256,317,110925,2,0,B|222:322|198:305|198:305|159:331|159:331|138:305|91:305,1,172.5,10|0,0:0|0:0,0:0:0:0:
91,311,111165,1,2,1:0:0:0:
158,368,111285,1,0,0:0:0:0:
29,364,111405,1,8,0:0:0:0:
23,355,111525,6,0,B|1:313|17:280|17:280|6:267|6:267|20:227|-1:187,1,172.5,2|0,1:0|0:0,0:0:0:0:
0,180,111765,1,0,1:0:0:0:
0,83,111885,2,0,B|55:77|55:77|71:106|101:130,1,115,10|0,0:0|0:0,0:0:0:0:
153,176,112125,1,2,1:0:0:0:
231,160,112245,1,0,1:0:0:0:
247,81,112365,1,10,0:0:0:0:
238,68,112485,1,0,0:0:0:0:
242,173,112605,6,0,P|297:180|361:194,1,115,2|0,1:0|0:0,0:0:0:0:
451,166,112845,2,0,B|449:155|449:155|466:110,2,57.5,8|2|2,0:0|0:0|0:0,0:0:0:0:
512,294,113085,2,0,B|482:262|482:262|416:235|356:291,1,172.5,2|0,1:0|0:0,0:0:0:0:
340,299,113325,1,8,0:0:0:0:
259,327,113445,6,0,B|277:345|277:368|277:368|321:345|319:292|284:257,1,172.5,2|0,1:0|0:0,0:0:0:0:
280,253,113685,1,0,1:0:0:0:
276,119,113805,2,0,B|255:116|255:116|187:150|187:150|163:147,1,115,10|0,0:0|0:0,0:0:0:0:
56,186,114045,5,2,1:0:0:0:
4,247,114165,1,0,1:0:0:0:
23,325,114285,1,10,0:0:0:0:
95,359,114405,1,0,0:0:0:0:
158,308,114525,6,0,B|152:230|152:230|137:211|137:211|147:171|127:138,1,172.5,6|0,1:0|0:0,0:0:0:0:
125,132,114765,1,10,0:0:0:0:
174,203,114885,1,0,0:0:0:0:
254,179,115005,2,0,B|272:94|272:94|253:63,1,115,2|0,1:0|0:0,0:0:0:0:
187,0,115245,1,8,0:0:0:0:
295,94,115365,6,0,B|338:76|375:110|361:126|347:140|390:182|434:161,1,172.5,2|0,1:0|0:0,0:0:0:0:
441,158,115605,1,0,1:0:0:0:
512,260,115725,2,0,P|456:259|421:305,1,115,10|0,0:0|0:0,0:0:0:0:
394,378,115965,1,2,1:0:0:0:
317,351,116085,1,0,1:0:0:0:
344,275,116205,1,10,0:0:0:0:
421,302,116325,1,0,0:0:0:0:
242,384,116445,6,0,B|229:307|229:307|195:284,1,115,2|0,1:0|0:0,0:0:0:0:
110,251,116685,2,0,B|103:262|103:262|58:279,2,57.5,8|2|2,0:0|0:0|0:0,0:0:0:0:
151,128,116925,2,0,B|187:119|207:144|207:144|189:170|175:215,1,115,2|0,1:0|0:0,0:0:0:0:
198,286,117165,1,8,0:0:0:0:
421,154,117285,6,0,B|365:133|330:178|330:178|318:223|273:225,1,172.5,2|0,1:0|0:0,0:0:0:0:
270,224,117525,1,0,1:0:0:0:
403,246,117645,2,0,B|436:253|468:238|468:238|479:265|515:281,1,115,10|0,0:0|0:0,0:0:0:0:
365,368,117885,1,2,1:0:0:0:
356,342,118005,1,0,1:0:0:0:
273,312,118125,1,10,0:0:0:0:
264,338,118245,1,0,0:0:0:0:
184,384,118365,6,0,B|168:362|141:346|141:346|113:361|68:359,1,115,4|0,1:0|0:0,0:0:0:0:
7,316,118605,2,0,B|15:298|29:287|29:287|4:213,1,115,10|0,0:0|0:0,0:0:0:0:
0,123,118845,1,2,1:0:0:0:
68,166,118965,1,0,0:0:0:0:
141,133,119085,1,8,0:0:0:0:
251,22,119205,6,0,B|216:38|216:38|236:92|247:179,1,172.5,2|0,1:0|0:0,0:0:0:0:
247,180,119445,1,0,1:0:0:0:
352,159,119565,2,0,P|341:105|334:43,1,115,10|0,0:0|0:0,0:0:0:0:
316,239,119805,1,2,1:0:0:0:
298,253,119925,1,0,1:0:0:0:
256,321,120045,1,10,0:0:0:0:
238,307,120165,1,0,0:0:0:0:
352,159,120285,6,0,B|405:168|405:168|413:233,1,115,2|0,1:0|0:0,0:0:0:0:
407,318,120525,2,0,B|417:331|417:331|470:335,2,57.5,8|2|2,0:0|0:0|0:0,0:0:0:0:
298,253,120765,2,0,P|247:226|188:241,1,115,2|0,1:0|0:0,0:0:0:0:
151,309,121005,1,8,0:0:0:0:
257,124,121125,6,0,B|252:211|252:211|245:218|245:218|239:302,1,172.5,2|0,1:0|0:0,0:0:0:0:
238,307,121365,1,0,1:0:0:0:
110,384,121485,2,0,P|68:346|71:286,1,115,10|0,0:0|0:0,0:0:0:0:
130,197,121725,5,2,1:0:0:0:
83,138,121845,1,0,1:0:0:0:
10,153,121965,1,10,0:0:0:0:
158,128,122085,1,0,0:0:0:0:
154,115,122205,6,0,B|180:98|203:116|203:116|226:147|263:133,2,115,6|2|2,1:0|0:0|0:0,0:0:0:0:
202,180,122925,1,2,0:0:0:0:
210,178,123045,2,0,B|230:110|198:135|220:56,2,115,2|2|2,0:0|0:0|0:0,0:0:0:0:
257,135,123645,2,0,B|226:147|203:116|203:116|180:98|154:115,1,115,2|2,0:0|0:0,0:0:0:0:
472,344,124125,6,0,P|424:305|360:311,1,129.375004935265,6|0,1:0|0:0,0:0:0:0:
351,318,124365,1,10,0:0:0:0:
399,384,124485,1,2,0:0:0:0:
336,239,124605,2,0,B|265:259|302:289|226:311,1,129.375004935265,2|0,1:0|0:0,0:0:0:0:
219,312,124845,1,10,0:0:0:0:
321,159,124965,6,0,P|377:166|415:225,1,129.375004935265,2|0,1:0|0:0,0:0:0:0:
415,235,125205,1,2,1:0:0:0:
219,312,125325,2,0,P|213:269|205:227,1,86.2500032901765,10|2,0:0|0:0,0:0:0:0:
163,140,125565,1,2,1:0:0:0:
163,140,125685,1,0,1:0:0:0:
117,216,125805,2,0,B|66:218|85:240|33:246,1,86.2500032901765,8|0,0:0|0:0,0:0:0:0:
117,73,126045,6,0,B|136:46|137:12|137:12|148:44|177:61,1,129.375004935265,2|0,1:0|0:0,0:0:0:0:
299,62,126285,2,0,P|258:74|239:116,1,86.2500032901765,10|0,0:0|0:0,0:0:0:0:
207,220,126525,2,0,P|270:229|354:252,1,129.375004935265,2|0,1:0|0:0,0:0:0:0:
345,249,126765,1,10,0:0:0:0:
415,193,126885,6,0,P|415:141|350:157,1,129.375004935265,2|0,1:0|0:0,0:0:0:0:
348,160,127125,1,2,1:0:0:0:
433,281,127245,1,10,0:0:0:0:
370,325,127365,1,2,0:0:0:0:
422,381,127485,2,0,P|464:371|506:365,1,86.2500032901765,2|0,1:0|1:0,0:0:0:0:
348,160,127725,2,0,P|305:169|263:175,1,86.2500032901765,8|0,0:0|0:0,0:0:0:0:
175,144,127965,5,2,1:0:0:0:
133,209,128085,1,2,0:0:0:0:
57,211,128205,1,10,0:0:0:0:
99,276,128325,1,2,0:0:0:0:
83,351,128445,2,0,P|40:357|-5:372,1,86.2500032901765,2|0,1:0|0:0,0:0:0:0:
174,273,128685,2,0,P|216:266|262:252,1,86.2500032901765,10|2,0:0|1:0,0:0:0:0:
355,189,128925,5,8,0:0:0:0:
270,166,129045,1,2,1:0:0:0:
477,202,129165,5,10,0:0:0:0:
348,276,129285,1,0,0:0:0:0:
332,101,129405,6,0,L|341:39,1,60.3749981575013,2|0,1:0|0:0,0:0:0:0:
285,162,129885,6,0,B|227:115|220:49|220:49|215:116|163:163,1,258.75000987053,6|0,1:0|0:0,0:0:0:0:
21,168,130125,2,0,B|70:150|104:193|67:219|113:260|169:239,1,172.5,10|0,0:0|0:0,0:0:0:0:
266,252,130365,2,0,B|224:289|220:344|220:344|214:290|167:251,1,215.625,2|0,1:0|0:0,0:0:0:0:
156,244,130605,1,10,0:0:0:0:
128,75,130725,6,0,P|214:68|299:49,1,172.5,2|0,1:0|0:0,0:0:0:0:
309,44,130965,1,2,1:0:0:0:
221,94,131085,1,10,0:0:0:0:
312,146,131205,1,2,0:0:0:0:
158,162,131325,1,2,1:0:0:0:
158,162,131445,1,0,1:0:0:0:
387,204,131565,2,0,P|393:161|403:118,1,86.2500032901765,8|0,0:0|0:0,0:0:0:0:
350,280,131805,6,0,L|291:265,2,43.1250016450883,2|0|0,1:0|0:0|0:0,0:0:0:0:
403,347,132045,2,0,P|434:318|437:277,1,86.2500032901765,10|0,0:0|0:0,0:0:0:0:
247,217,132285,6,0,P|234:233|229:257,3,43.1250016450883,2|0|0|0,1:0|0:0|0:0|0:0,0:0:0:0:
228,269,132525,1,10,0:0:0:0:
268,347,132645,1,2,1:0:0:0:
180,340,132765,6,0,P|161:332|133:326,3,43.1250016450883,2|0|2|0,0:0|0:0|1:0|0:0,0:0:0:0:
78,384,133005,2,0,P|59:345|64:296,1,86.2500032901765,10|2,0:0|0:0,0:0:0:0:
59,180,133245,5,2,1:0:0:0:
59,180,133365,1,0,1:0:0:0:
163,237,133485,2,0,P|203:222|252:216,1,86.2500032901765,8|0,0:0|0:0,0:0:0:0:
453,44,133725,6,0,P|353:75|352:218,1,258.75000987053,6|0,1:0|0:0,0:0:0:0:
426,184,133965,2,0,P|469:150|411:176,1,172.5,14|0,0:0|0:0,0:0:0:0:
323,309,134205,2,0,B|383:330|415:279|405:263|408:265|393:246|441:200|493:234,1,215.625,6|0,1:0|0:0,0:0:0:0:
502,239,134445,1,14,0:0:0:0:
251,384,134565,6,0,P|239:298|221:210,1,172.5,6|0,1:0|0:0,0:0:0:0:
219,202,134805,1,6,1:0:0:0:
199,109,134925,2,0,P|158:117|136:155,1,86.2500032901765,14|2,0:0|1:0,0:0:0:0:
143,338,135165,2,0,B|183:274|135:198|33:216|35:303|35:303|55:316|58:337,1,287.5,6|8,1:0|0:0,0:0:0:0:
376,384,135645,6,0,L|384:332,2,43.1250016450883,2|0|2,1:0|0:0|0:0,0:0:0:0:
333,276,135885,2,0,P|292:288|246:292,1,86.2500032901765,10|2,0:0|0:0,0:0:0:0:
177,230,136125,6,0,P|190:212|192:227,3,43.1250016450883,2|0|2|0,1:0|0:0|0:0|0:0,0:0:0:0:
235,293,136365,1,10,0:0:0:0:
76,201,136485,2,0,P|98:199|87:210,3,43.1250016450883,2|0|0|0,1:0|0:0|0:0|0:0,0:0:0:0:
65,283,136725,1,2,1:0:0:0:
0,169,136845,6,0,P|6:125|12:77,1,86.2500032901765,10|10,0:0|0:0,0:0:0:0:
13,71,137025,1,8,0:0:0:0:
13,71,137085,1,10,0:0:0:0:
85,116,137205,1,8,0:0:0:0:
170,106,137325,1,8,0:0:0:0:
216,33,137445,1,8,0:0:0:0:
137,185,137565,6,0,P|201:197|268:216,1,129.375004935265,6|0,1:0|0:0,0:0:0:0:
274,218,137805,2,0,P|285:258|255:298,1,86.2500032901765,10|0,0:0|0:0,0:0:0:0:
213,384,138045,2,0,P|275:367|338:354,1,129.375004935265,2|0,1:0|0:0,0:0:0:0:
351,352,138285,1,10,0:0:0:0:
262,293,138405,1,0,1:0:0:0:
435,339,138525,6,0,P|457:296|442:252,1,86.2500032901765,2|0,0:0|0:0,0:0:0:0:
485,177,138765,2,0,P|437:166|399:192,1,86.2500032901765,10|0,0:0|0:0,0:0:0:0:
361,259,139005,1,2,1:0:0:0:
286,209,139125,1,0,1:0:0:0:
262,293,139245,2,0,P|226:315|184:311,1,86.2500032901765,10|0,0:0|0:0,0:0:0:0:
64,274,139485,6,0,P|76:210|87:132,1,129.375004935265,2|0,1:0|0:0,0:0:0:0:
0,178,139725,2,0,P|8:135|15:83,1,86.2500032901765,10|0,0:0|0:0,0:0:0:0:
109,9,139965,2,0,P|168:10|201:76,1,129.375004935265,2|0,1:0|0:0,0:0:0:0:
203,78,140205,1,10,0:0:0:0:
109,104,140325,1,0,1:0:0:0:
278,133,140445,6,0,P|282:88|292:45,1,86.2500032901765,2|0,0:0|1:0,0:0:0:0:
359,0,140685,1,10,0:0:0:0:
277,211,140805,1,0,1:0:0:0:
289,212,140925,2,0,B|362:207|322:157|413:156,1,129.375004935265,6|0,1:0|0:0,0:0:0:0:
512,204,141405,6,0,P|503:245|494:303,1,86.2500032901765,6|0,1:0|0:0,0:0:0:0:
384,384,141645,2,0,P|392:342|402:285,1,86.2500032901765,10|0,0:0|0:0,0:0:0:0:
289,212,141885,2,0,P|240:214|207:284,1,129.375004935265,2|0,1:0|0:0,0:0:0:0:
209,293,142125,1,10,0:0:0:0:
301,304,142245,1,0,1:0:0:0:
188,201,142365,5,2,0:0:0:0:
188,201,142485,1,0,1:0:0:0:
279,112,142605,2,0,P|315:130|363:137,1,86.2500032901765,10|0,0:0|0:0,0:0:0:0:
226,29,142845,1,2,1:0:0:0:
226,29,142965,1,0,1:0:0:0:
135,0,143085,2,0,P|93:2|63:34,1,86.2500032901765,10|0,0:0|0:0,0:0:0:0:
0,141,143325,6,0,P|56:136|107:199,1,129.375004935265,2|0,1:0|0:0,0:0:0:0:
107,198,143565,2,0,P|73:221|25:205,1,86.2500032901765,10|0,0:0|0:0,0:0:0:0:
14,343,143805,2,0,P|78:326|150:316,1,129.375004935265,2|0,1:0|0:0,0:0:0:0:
154,316,144045,1,10,0:0:0:0:
45,249,144165,1,0,1:0:0:0:
208,250,144285,6,0,P|237:282|240:324,1,86.2500032901765,2|0,0:0|1:0,0:0:0:0:
333,384,144525,2,0,P|336:341|365:310,1,86.2500032901765,10|0,0:0|1:0,0:0:0:0:
494,233,144765,2,0,P|501:190|512:149,1,86.2500032901765,10|0,0:0|1:0,0:0:0:0:
299,99,145005,2,0,P|292:142|282:184,1,86.2500032901765,8|0,0:0|0:0,0:0:0:0:
177,9,145245,6,0,P|122:1|77:61,1,129.375004935265,6|0,1:0|0:0,0:0:0:0:
4,48,145485,2,0,P|10:89|47:118,1,86.2500032901765,10|0,0:0|0:0,0:0:0:0:
33,223,145725,2,0,P|94:208|165:200,1,129.375004935265,2|0,1:0|0:0,0:0:0:0:
159,277,145965,2,0,P|116:282|74:292,1,86.2500032901765,10|0,0:0|1:0,0:0:0:0:
227,240,146205,5,2,0:0:0:0:
227,240,146325,1,0,1:0:0:0:
300,271,146445,2,0,P|305:224|288:188,1,86.2500032901765,10|0,0:0|0:0,0:0:0:0:
240,96,146685,1,2,1:0:0:0:
171,58,146805,1,0,1:0:0:0:
127,122,146925,2,0,P|86:136|44:131,1,86.2500032901765,10|0,0:0|0:0,0:0:0:0:
270,16,147165,6,0,P|314:33|326:111,1,129.375004935265,2|0,1:0|0:0,0:0:0:0:
316,116,147405,2,0,P|272:120|236:89,1,86.2500032901765,10|0,0:0|0:0,0:0:0:0:
80,222,147645,2,0,P|64:177|116:118,1,129.375004935265,2|0,1:0|0:0,0:0:0:0:
127,122,147885,2,0,P|158:153|157:200,1,86.2500032901765,10|0,0:0|1:0,0:0:0:0:
148,276,148125,5,2,1:0:0:0:
148,276,148245,1,0,1:0:0:0:
191,348,148365,2,0,P|235:341|276:336,1,86.2500032901765,10|0,0:0|1:0,0:0:0:0:
380,384,148605,2,0,P|376:325|365:254,1,129.375004935265,14|0,0:0|0:0,0:0:0:0:
363,115,149085,6,0,P|316:161|250:152,1,129.375004935265,6|0,1:0|0:0,0:0:0:0:
245,149,149325,2,0,P|244:109|284:83,1,86.2500032901765,10|0,0:0|0:0,0:0:0:0:
155,118,149565,2,0,P|109:71|118:4,1,129.375004935265,2|0,1:0|0:0,0:0:0:0:
121,0,149805,2,0,P|161:-1|187:39,1,86.2500032901765,10|0,0:0|1:0,0:0:0:0:
171,209,150045,6,0,P|127:216|80:234,1,86.2500032901765,2|0,0:0|1:0,0:0:0:0:
118,346,150285,2,0,P|161:338|209:321,1,86.2500032901765,10|0,0:0|0:0,0:0:0:0:
287,246,150525,1,2,1:0:0:0:
313,365,150645,1,0,1:0:0:0:
273,235,150765,2,0,P|280:193|286:144,1,86.2500032901765,10|0,0:0|0:0,0:0:0:0:
268,48,151005,5,6,1:0:0:0:
343,29,151125,1,2,0:0:0:0:
404,76,151245,1,10,0:0:0:0:
192,140,151365,2,0,P|185:79|172:9,1,129.375004935265,6|0,1:0|0:0,0:0:0:0:
169,0,151605,1,2,1:0:0:0:
95,201,151725,2,0,B|146:205|120:229|190:234,1,86.2500032901765,10|0,0:0|0:0,0:0:0:0:
356,366,151965,5,6,1:0:0:0:
404,305,152085,1,2,0:0:0:0:
369,235,152205,1,10,0:0:0:0:
308,69,152325,2,0,B|261:90|261:90|254:111|254:111|188:141,1,129.375004935265,6|0,1:0|0:0,0:0:0:0:
192,140,152565,1,2,1:0:0:0:
16,158,152685,2,0,P|59:162|93:193,1,86.2500032901765,10|8,0:0|0:0,0:0:0:0:
95,201,152865,1,8,0:0:0:0:
95,201,152925,5,10,0:0:0:0:
170,282,153045,2,0,P|210:268|258:260,1,86.2500032901765,2|2,1:0|0:0,0:0:0:0:
429,186,153285,1,2,1:0:0:0:
369,235,153405,5,0,1:0:0:0:
441,263,153525,1,2,1:0:0:0:
354,156,153645,2,0,P|313:169|270:177,1,86.2500032901765,10|2,0:0|1:0,0:0:0:0:
158,35,153885,5,10,0:0:0:0:
163,51,153945,1,10,0:0:0:0:
110,122,154065,2,0,L|60:108,2,43.1250016450883,10|10|8,0:0|0:0|0:0,0:0:0:0:
179,174,154305,1,8,0:0:0:0:
174,190,154365,1,10,0:0:0:0:
476,88,154845,6,0,L|482:52,1,21.5625008225441,6|0,1:0|0:0,0:0:0:0:
363,121,155325,2,0,L|369:85,1,21.5625008225441,10|0,0:0|0:0,0:0:0:0:
250,154,155805,2,0,L|256:118,1,21.5625008225441,10|0,0:0|0:0,0:0:0:0:
137,187,156285,2,0,L|143:151,1,21.5625008225441,10|0,0:0|0:0,0:0:0:0:
3,256,156765,6,0,L|-3:220,1,21.5625008225441,10|0,0:0|0:0,0:0:0:0:
116,289,157245,2,0,L|110:253,1,21.5625008225441,10|0,0:0|0:0,0:0:0:0:
229,322,157725,2,0,L|223:286,1,21.5625008225441,10|0,0:0|0:0,0:0:0:0:
342,355,158205,2,0,L|336:319,1,21.5625008225441,10|0,0:0|0:0,0:0:0:0:
67,48,158685,6,0,P|58:58|52:79,1,21.5625008225441,10|0,0:0|0:0,0:0:0:0:
55,175,159165,2,0,P|65:184|86:190,1,21.5625008225441,10|0,0:0|0:0,0:0:0:0:
182,187,159645,2,0,P|191:177|197:156,1,21.5625008225441,10|0,0:0|0:0,0:0:0:0:
194,60,160125,2,0,P|184:51|163:45,1,21.5625008225441,10|0,0:0|0:0,0:0:0:0:
435,230,160605,6,0,P|444:240|450:261,1,21.5625008225441,10|0,0:0|0:0,0:0:0:0:
447,357,161085,2,0,P|437:366|416:372,1,21.5625008225441,10|0,0:0|0:0,0:0:0:0:
320,369,161565,2,0,P|311:359|305:338,1,21.5625008225441,10|0,0:0|0:0,0:0:0:0:
308,242,162045,2,0,P|318:233|339:227,1,21.5625008225441,10|0,0:0|0:0,0:0:0:0:
12,323,162525,6,0,L|0:292,1,21.5625008225441,14|0,0:0|0:0,0:0:0:0:
156,254,163005,2,0,L|144:223,1,21.5625008225441,10|0,0:0|0:0,0:0:0:0:
300,185,163485,2,0,L|288:154,1,21.5625008225441,10|0,0:0|0:0,0:0:0:0:
444,116,163965,2,0,L|432:85,1,21.5625008225441,10|0,0:0|0:0,0:0:0:0:
75,95,164445,6,0,L|68:116,1,21.5625008225441,10|0,0:0|0:0,0:0:0:0:
219,164,164924,2,0,L|212:185,1,21.5625008225441,10|0,0:0|0:0,0:0:0:0:
363,233,165404,2,0,L|356:254,1,21.5625008225441,10|0,0:0|0:0,0:0:0:0:
507,302,165885,2,0,L|500:323,1,21.5625008225441,10|0,0:0|0:0,0:0:0:0:
192,375,166365,6,0,L|168:387,1,21.5625008225441,10|0,0:0|0:0,0:0:0:0:
309,268,166845,2,0,L|333:280,1,21.5625008225441,10|0,0:0|0:0,0:0:0:0:
192,161,167325,2,0,L|168:173,1,21.5625008225441,10|0,0:0|0:0,0:0:0:0:
309,54,167805,2,0,L|333:66,1,21.5625008225441,10|0,0:0|0:0,0:0:0:0:
170,283,168285,6,0,L|160:248,1,21.5625008225441,10|0,0:0|0:0,0:0:0:0:
301,161,168765,2,0,L|295:181,1,21.5625008225441,10|0,0:0|0:0,0:0:0:0:
237,26,169245,6,0,P|236:11|231:-8,1,21.5625008225441,2|0,1:0|0:0,0:0:0:0:
128,46,169485,2,0,P|135:54|140:64,1,21.5625008225441,0|0,1:0|0:0,0:0:0:0:
34,105,169725,2,0,P|33:94|31:84,1,21.5625008225441,12|0,0:0|0:0,0:0:0:0:
294,161,170205,6,0,P|367:171|384:259,1,172.5,6|0,1:0|0:0,0:0:0:0:
380,267,170445,1,8,0:0:0:0:
281,260,170565,1,0,0:0:0:0:
398,165,170685,2,0,P|440:162|502:152,1,86.2500032901765,2|0,1:0|0:0,0:0:0:0:
327,328,170925,1,8,0:0:0:0:
200,200,171045,6,0,P|137:216|69:227,1,129.375004935265,2|0,1:0|0:0,0:0:0:0:
62,228,171285,1,0,1:0:0:0:
3,153,171405,2,0,P|-3:112|18:75,1,86.2500032901765,10|0,0:0|0:0,0:0:0:0:
118,0,171645,1,2,1:0:0:0:
151,109,171765,1,0,1:0:0:0:
245,47,171885,2,0,P|290:42|344:31,1,86.2500032901765,10|0,0:0|0:0,0:0:0:0:
352,261,172125,6,0,P|289:267|218:282,1,129.375004935265,2|0,1:0|0:0,0:0:0:0:
258,353,172365,2,0,P|300:344|343:340,1,86.2500032901765,10|0,0:0|0:0,0:0:0:0:
198,197,172605,2,0,P|152:230|140:299,1,129.375004935265,2|0,1:0|0:0,0:0:0:0:
141,311,172845,1,10,0:0:0:0:
445,309,172965,6,0,P|434:246|426:176,1,129.375004935265,0|0,1:0|0:0,0:0:0:0:
425,167,173205,1,0,1:0:0:0:
419,19,173325,2,0,P|377:20|340:51,1,86.2500032901765,10|0,0:0|0:0,0:0:0:0:
117,175,173565,2,0,P|109:133|95:88,1,86.2500032901765,2|0,1:0|1:0,0:0:0:0:
238,53,173805,2,0,P|245:94|260:140,1,86.2500032901765,10|0,0:0|0:0,0:0:0:0:
231,363,174045,6,0,P|185:322|120:327,1,129.375004935265,2|0,1:0|0:0,0:0:0:0:
93,244,174285,2,0,P|57:265|37:304,1,86.2500032901765,8|0,0:0|0:0,0:0:0:0:
318,384,174525,2,0,P|324:324|334:248,1,129.375004935265,2|0,1:0|0:0,0:0:0:0:
335,243,174765,1,8,0:0:0:0:
386,92,174885,6,0,B|459:102|422:142|502:150,1,129.375004935265,2|0,1:0|0:0,0:0:0:0:
509,151,175125,1,0,1:0:0:0:
270,137,175245,2,0,P|265:94|257:50,1,86.2500032901765,10|0,0:0|0:0,0:0:0:0:
147,0,175485,1,2,1:0:0:0:
96,70,175605,1,0,1:0:0:0:
17,33,175725,1,10,0:0:0:0:
71,170,175845,1,0,0:0:0:0:
77,180,175965,6,0,B|128:168|128:168|151:179|151:179|210:168,1,129.375004935265,2|0,1:0|0:0,0:0:0:0:
281,211,176205,2,0,P|293:172|284:128,1,86.2500032901765,10|0,0:0|0:0,0:0:0:0:
5,111,176445,2,0,P|-8:173|10:235,1,129.375004935265,2|0,1:0|0:0,0:0:0:0:
17,246,176685,1,10,0:0:0:0:
19,384,176805,6,0,P|76:360|152:352,1,129.375004935265,0|0,1:0|0:0,0:0:0:0:
155,350,177045,1,0,1:0:0:0:
237,308,177165,2,0,P|222:269|181:258,1,86.2500032901765,10|0,0:0|0:0,0:0:0:0:
321,383,177405,1,2,1:0:0:0:
398,317,177525,1,0,1:0:0:0:
488,365,177645,1,8,0:0:0:0:
321,265,177765,1,0,0:0:0:0:
316,251,177885,6,0,P|323:207|328:158,1,86.2500032901765,6|2,1:0|0:0,0:0:0:0:
266,0,178125,1,10,0:0:0:0:
248,83,178245,2,0,P|209:96|161:107,1,86.2500032901765,2|0,0:0|1:0,0:0:0:0:
0,167,178485,2,0,P|41:176|82:190,1,86.2500032901765,2|8,0:0|0:0,0:0:0:0:
305,223,178725,6,0,P|247:223|211:281,1,129.375004935265,2|0,1:0|0:0,0:0:0:0:
210,291,178965,1,2,1:0:0:0:
301,345,179085,1,10,0:0:0:0:
306,322,179205,1,2,0:0:0:0:
390,268,179325,5,2,1:0:0:0:
477,318,179445,1,2,1:0:0:0:
305,223,179565,1,10,0:0:0:0:
300,200,179685,1,0,0:0:0:0:
254,76,179805,6,0,P|214:91|170:105,1,86.2500032901765,2|2,1:0|0:0,0:0:0:0:
77,81,180045,1,10,0:0:0:0:
277,0,180165,2,0,P|327:28|332:97,1,129.375004935265,2|0,0:0|0:0,0:0:0:0:
415,109,180405,2,0,P|399:148|358:172,1,86.2500032901765,2|8,0:0|0:0,0:0:0:0:
154,246,180645,6,0,P|163:185|172:103,1,129.375004935265,2|0,1:0|0:0,0:0:0:0:
172,104,180885,1,2,1:0:0:0:
259,146,181005,2,0,P|252:188|247:231,1,86.2500032901765,10|2,0:0|0:0,0:0:0:0:
217,315,181245,5,2,1:0:0:0:
305,368,181365,1,2,1:0:0:0:
392,313,181485,1,10,0:0:0:0:
162,255,181605,1,0,0:0:0:0:
154,246,181725,6,0,P|114:259|67:267,1,86.2500032901765,2|0,1:0|0:0,0:0:0:0:
259,146,181965,1,10,0:0:0:0:
292,51,182085,2,0,P|342:68|361:141,1,129.375004935265,2|0,0:0|0:0,0:0:0:0:
359,148,182325,1,2,0:0:0:0:
427,40,182445,1,10,0:0:0:0:
416,228,182565,6,0,P|352:237|288:255,1,129.375004935265,2|0,1:0|0:0,0:0:0:0:
278,260,182805,1,2,1:0:0:0:
193,335,182925,2,0,P|166:302|166:258,1,86.2500032901765,10|0,0:0|0:0,0:0:0:0:
170,149,183165,1,2,1:0:0:0:
259,146,183285,1,0,1:0:0:0:
87,122,183405,2,0,P|105:83|145:64,1,86.2500032901765,10|0,0:0|0:0,0:0:0:0:
339,106,183645,5,2,1:0:0:0:
189,232,183765,2,0,P|181:190|167:141,1,86.2500032901765,14|0,0:0|0:0,0:0:0:0:
334,192,184005,1,2,1:0:0:0:
103,210,184125,2,0,P|94:252|83:293,1,86.2500032901765,14|0,0:0|0:0,0:0:0:0:
259,146,184365,1,2,1:0:0:0:
19,235,184485,2,0,P|7:193|0:151,1,86.2500032901765,14|0,0:0|0:0,0:0:0:0:
0,57,184725,5,10,0:0:0:0:
2,47,184785,1,8,0:0:0:0:
4,37,184845,1,10,0:0:0:0:
82,0,184965,1,10,0:0:0:0:
138,65,185085,1,10,0:0:0:0:
88,135,185205,5,8,0:0:0:0:
143,222,185325,1,10,0:0:0:0:
244,203,185445,1,8,0:0:0:0:
74,136,185565,5,4,1:0:0:0:
256,192,185685,12,0,192285,0:0:0:0:
407,70,192585,6,0,L|464:58,3,43.1250016450883,0|0|0|0,1:0|1:0|1:0|1:0,0:0:0:0:
219,0,193125,5,0,1:0:0:0:
222,12,193185,1,0,1:0:0:0:
225,24,193245,2,0,P|151:45|77:58,1,143.75,6|0,1:0|0:0,0:0:0:0:
74,61,193605,1,2,0:0:0:0:
173,124,193725,1,2,0:0:0:0:
90,202,193965,1,0,1:0:0:0:
185,127,194205,6,0,P|239:142|317:148,2,115,10|2|2,0:0|0:0|0:0,0:0:0:0:
219,0,194925,1,0,1:0:0:0:
370,185,195165,2,0,P|374:155|386:106,1,57.5,0|0,0:0|0:0,0:0:0:0:
145,58,195405,6,0,P|113:99|118:167,1,115,2|0,1:0|0:0,0:0:0:0:
40,243,195765,2,0,P|63:196|127:172,1,115,2|0,1:0|3:0,0:0:0:0:
225,183,196125,2,0,P|108:171|-5:137,1,230,10|0,0:0|0:0,0:0:0:0:
0,60,196845,1,0,1:0:0:0:
314,87,197085,6,0,B|301:150|301:150|311:171|311:171|297:247,1,143.75,4|0,1:0|0:0,0:0:0:0:
298,239,197445,1,2,0:0:0:0:
225,183,197565,1,2,0:0:0:0:
387,172,197805,2,0,L|434:162,1,28.75,2|0,1:0|0:0,0:0:0:0:
512,282,198045,6,0,P|402:301|286:330,1,230,10|0,0:0|0:0,0:0:0:0:
226,384,198765,1,0,1:0:0:0:
144,303,199005,1,0,0:0:0:0:
156,167,199245,6,0,P|210:173|247:221,1,115,2|0,1:0|0:0,0:0:0:0:
335,173,199605,2,0,P|306:219|247:232,1,115,2|0,1:0|0:0,3:0:0:0:
239,322,199965,2,0,P|251:211|260:91,1,230,10|2,0:0|0:0,0:0:0:0:
228,10,200685,1,2,1:0:0:0:
136,100,200925,6,0,B|53:111|93:153|-1:170,1,143.75,6|0,1:0|0:0,0:0:0:0:
0,171,201285,1,2,0:0:0:0:
49,252,201405,1,2,0:0:0:0:
172,207,201645,2,0,L|173:179,1,28.75,0|0,1:0|0:0,0:0:0:0:
230,98,201885,2,0,P|334:94|458:61,1,230,10|2,0:0|0:0,0:0:0:0:
512,134,202605,1,0,1:0:0:0:
455,62,202845,1,0,0:0:0:0:
348,117,203085,6,0,P|297:139|292:205,1,115,2|0,1:0|0:0,0:0:0:0:
309,327,203445,2,0,P|360:305|365:239,1,115,2|0,1:0|0:0,0:0:0:0:
210,227,203805,2,0,P|317:221|444:182,1,230,10|2,0:0|0:0,0:0:0:0:
436,102,204525,1,2,1:0:0:0:
193,130,204765,6,0,B|101:152|146:198|52:220,1,172.5,6|0,1:0|0:0,0:0:0:0:
0,156,205245,1,2,0:0:0:0:
116,287,205485,1,2,1:0:0:0:
274,159,205725,2,0,P|277:103|241:58,3,115,10|2|2|2,0:0|0:0|0:0|1:0,0:0:0:0:
206,236,206685,6,0,P|262:246|324:262,1,115,0|2,0:0|1:0,0:0:0:0:
427,323,207165,1,2,0:0:0:0:
407,237,207285,2,0,P|410:195|419:136,1,86.25,2|0,1:0|0:0,0:0:0:0:
284,23,207645,6,0,L|291:77,1,28.75,8|0,0:0|0:0,0:0:0:0:
210,63,207885,2,0,L|206:34,1,28.75,2|0,1:0|0:0,0:0:0:0:
127,38,208125,2,0,L|132:80,1,43.1250016450883,2|0,1:0|0:0,0:0:0:0:
53,96,208365,2,0,L|47:53,1,43.1250016450883,2|0,1:0|0:0,0:0:0:0:
366,24,208605,6,0,P|397:132|399:260,1,230,6|0,1:0|0:0,0:0:0:0:
400,248,209325,2,0,P|370:250|324:263,1,57.5,2|0,1:0|0:0,0:0:0:0:
153,269,209565,2,0,B|291:282|212:353|359:372,1,230,14|2,0:0|0:0,0:0:0:0:
70,384,210285,1,2,1:0:0:0:
70,384,210525,1,0,0:0:0:0:
152,268,210765,2,0,P|127:216|106:163,1,115,2|0,1:0|0:0,0:0:0:0:
220,112,211125,2,0,P|245:163|266:217,1,115,2|0,1:0|0:0,0:0:0:0:
124,351,211485,5,10,0:0:0:0:
152,268,211725,1,2,0:0:0:0:
214,335,211965,1,2,0:0:0:0:
248,251,212205,1,2,1:0:0:0:
367,124,212445,6,0,B|284:95|284:95|234:115|234:115|142:82,1,230,4|0,1:0|0:0,0:0:0:0:
150,85,213165,2,0,L|163:25,1,57.5,2|0,1:0|0:0,0:0:0:0:
373,13,213405,2,0,P|453:79|435:214,1,230,14|2,0:0|0:0,0:0:0:0:
346,358,214125,1,0,1:0:0:0:
282,283,214365,1,0,0:0:0:0:
282,283,214605,2,0,P|293:230|303:166,1,115,2|2,1:0|0:0,0:0:0:0:
447,196,214965,2,0,P|435:248|426:313,1,115,0|0,1:0|0:0,0:0:0:0:
341,384,215325,5,10,0:0:0:0:
250,365,215565,1,2,0:0:0:0:
282,283,215805,1,2,0:0:0:0:
196,249,216045,1,0,1:0:0:0:
194,80,216285,6,0,B|269:23|336:85|336:85|322:117|315:160,1,230,6|0,1:0|0:0,0:0:0:0:
315,154,217005,2,0,P|343:158|379:171,1,57.5,2|0,1:0|0:0,0:0:0:0:
282,283,217245,2,0,P|166:278|51:258,1,230,14|2,0:0|0:0,0:0:0:0:
4,181,217965,1,2,1:0:0:0:
143,0,218205,1,0,0:0:0:0:
143,0,218445,6,0,P|197:11|226:61,1,115,2|2,1:0|0:0,0:0:0:0:
318,62,218805,2,0,P|307:116|257:145,1,115,0|0,1:0|0:0,0:0:0:0:
172,131,219165,1,10,0:0:0:0:
204,217,219405,1,2,0:0:0:0:
162,299,219645,1,2,0:0:0:0:
210,377,219885,1,0,1:0:0:0:
488,384,220125,6,0,B|529:336|471:256|404:289|404:289|402:316|390:351,1,230,4|0,1:0|0:0,0:0:0:0:
393,341,220845,2,0,P|364:339|325:342,1,57.5,2|0,1:0|0:0,0:0:0:0:
120,342,221085,2,0,P|92:277|205:292,1,230,14|2,0:0|0:0,0:0:0:0:
210,377,221805,1,2,1:0:0:0:
240,215,222045,1,0,0:0:0:0:
240,215,222285,6,0,P|187:232|111:243,1,115,2|2,1:0|0:0,0:0:0:0:
95,121,222645,2,0,P|148:104|224:93,1,115,0|0,1:0|0:0,0:0:0:0:
330,127,223005,2,0,L|349:3,2,115,10|2|2,0:0|0:0|0:0,0:0:0:0:
242,0,223725,1,0,1:0:0:0:
512,140,223965,1,4,1:0:0:0:
281,122,224205,5,2,0:0:0:0:
346,186,224445,1,2,0:0:0:0:
303,267,224685,1,2,1:0:0:0:
206,212,224925,2,0,P|121:223|27:242,1,172.5,14|0,0:0|0:0,0:0:0:0:
24,243,225405,5,2,0:0:0:0:
281,379,225645,2,0,P|288:328|303:263,1,115,2|0,1:0|0:0,0:0:0:0:
291,84,226125,2,0,P|350:107|364:155,1,115,2|0,1:0|0:0,0:0:0:0:
457,171,226485,2,0,P|434:230|386:244,1,115,0|0,1:0|0:0,0:0:0:0:
305,217,226845,5,10,0:0:0:0:
231,161,227085,1,2,0:0:0:0:
316,125,227325,1,2,0:0:0:0:
221,247,227565,1,2,1:0:0:0:
121,78,227805,1,4,1:0:0:0:
0,192,228045,5,2,0:0:0:0:
88,166,228285,1,2,0:0:0:0:
150,233,228525,1,2,1:0:0:0:
127,322,228765,2,0,P|71:331|8:350,1,115,14|2,0:0|0:0,0:0:0:0:
201,379,229245,1,2,0:0:0:0:
271,319,229485,6,0,P|331:315|385:348,1,115,2|0,1:0|0:0,0:0:0:0:
479,271,229965,2,0,P|456:216|440:159,1,115,2|2,1:0|0:0,0:0:0:0:
400,0,230325,2,0,P|383:55|361:108,1,115,0|0,1:0|0:0,0:0:0:0:
269,132,230685,5,10,0:0:0:0:
200,70,230925,1,2,0:0:0:0:
368,303,231165,2,0,P|418:287|509:263,1,115,2|0,0:0|1:0,0:0:0:0:
269,132,231645,1,4,1:0:0:0:
226,297,231885,5,2,0:0:0:0:
165,227,232125,1,2,0:0:0:0:
77,255,232365,1,2,1:0:0:0:
63,345,232605,2,0,P|117:353|184:368,1,115,14|0,0:0|0:0,0:0:0:0:
267,373,233085,1,2,0:0:0:0:
351,302,233325,6,0,P|362:247|370:181,1,115,2|0,1:0|0:0,0:0:0:0:
294,0,233805,2,0,P|236:17|219:66,1,115,2|2,1:0|0:0,0:0:0:0:
128,78,234165,2,0,P|145:136|194:153,1,115,0|0,1:0|0:0,0:0:0:0:
281,127,234525,5,10,0:0:0:0:
353,70,234765,1,2,0:0:0:0:
425,127,235005,1,2,0:0:0:0:
356,188,235245,1,0,1:0:0:0:
218,64,235485,1,4,1:0:0:0:
122,162,235725,6,0,P|133:218|149:277,2,115,2|2|2,0:0|0:0|1:0,0:0:0:0:
46,7,236445,2,0,B|149:10|95:65|245:66,1,172.5,14|0,0:0|0:0,0:0:0:0:
218,64,236925,1,2,0:0:0:0:
357,46,237165,6,0,P|337:97|324:157,1,115,2|0,1:0|0:0,0:0:0:0:
437,238,237645,2,0,P|375:252|351:297,1,115,2|2,1:0|0:0,0:0:0:0:
258,293,238005,2,0,P|272:355|317:379,1,115,0|0,1:0|0:0,0:0:0:0:
406,368,238365,1,10,0:0:0:0:
351,293,238605,1,2,0:0:0:0:
442,282,238845,1,2,0:0:0:0:
406,368,239085,1,2,1:0:0:0:
256,192,239325,6,0,L|267:132,1,57.5,2|0,1:0|0:0,0:0:0:0:
366,0,240285,2,0,L|355:56,1,57.5,2|0,1:0|0:0,0:0:0:0:
409,154,241245,2,0,L|349:143,1,57.5,2|0,1:0|0:0,0:0:0:0:
217,44,242205,2,0,L|273:54,1,57.5,2|0,1:0|0:0,0:0:0:0:
412,286,243165,6,0,L|334:271,1,57.5,2|0,1:0|0:0,0:0:0:0:
162,142,244125,2,0,L|235:155,1,57.5,2|0,1:0|0:0,0:0:0:0:
362,87,245085,2,0,L|347:165,1,57.5,2|0,1:0|0:0,0:0:0:0:
219,336,246045,2,0,L|232:262,1,57.5,2|0,1:0|0:0,0:0:0:0:
52,75,247005,6,0,L|153:93,1,57.5,2|0,1:0|0:0,0:0:0:0:
377,262,247965,2,0,L|281:244,1,57.5,2|0,1:0|0:0,0:0:0:0:
116,333,248925,2,0,L|134:231,1,57.5,2|0,1:0|0:0,0:0:0:0:
302,9,249885,2,0,L|284:104,1,57.5,2|0,1:0|0:0,0:0:0:0:
437,296,250845,6,0,L|325:276,1,57.5,2|0,1:0|0:0,0:0:0:0:
80,90,251805,2,0,L|185:110,1,57.5,2|0,1:0|0:0,0:0:0:0:
256,192,252285,5,2,0:0:0:0:
347,183,252525,1,2,0:0:0:0:
438,176,252765,1,2,0:0:0:0:
