osu file format v14

[General]
AudioFilename: audio.mp3
AudioLeadIn: 0
PreviewTime: 86565
Countdown: 0
SampleSet: Soft
StackLeniency: 0.7
Mode: 0
LetterboxInBreaks: 0
WidescreenStoryboard: 1

[Editor]
Bookmarks: 19485,27165,34845,42525,50205,54045,57885,71325,75165,90525,106845,122205,129885,137565,170205,208605,223965,239325,252765
DistanceSpacing: 0.8
BeatDivisor: 8
GridSize: 32
TimelineZoom: 1.8

[Metadata]
Title:Boatman
TitleUnicode:ボートマン
Artist:hitorie
ArtistUnicode:ヒトリエ
Creator:Kine
Version:Insane
Source:
Tags:jrock japanese j-rock wowaka boatman Rock WONDER and WONDER
BeatmapID:3943194
BeatmapSetID:1903334

[Difficulty]
HPDrainRate:5
CircleSize:4
OverallDifficulty:8
ApproachRate:9
SliderMultiplier:1.8
SliderTickRate:1

[Events]
//Background and Video events
0,0,"a013d5a1afbdb0e56e96462de13e1b06c9b160ea_s2_n1.jpg",0,0
//Break Periods
//Storyboard Layer 0 (Background)
//Storyboard Layer 1 (Fail)
//Storyboard Layer 2 (Pass)
//Storyboard Layer 3 (Foreground)
//Storyboard Layer 4 (Overlay)
//Storyboard Sound Samples

[TimingPoints]
285,480,4,2,1,70,1,0
365,-100,4,2,1,5,0,0
765,-100,4,2,1,70,0,0
2285,-100,4,2,1,5,0,0
2685,-100,4,2,1,70,0,0
3725,-100,4,2,1,5,0,0
3765,-100,4,2,1,70,0,0
4125,480,4,2,1,70,1,0
4125,-66.6666666666667,4,2,1,70,0,0
4785,-66.6666666666667,4,2,1,5,0,0
4845,-66.6666666666667,4,2,1,70,0,0
6225,-66.6666666666667,4,2,1,5,0,0
6285,-66.6666666666667,4,2,1,70,0,0
6705,-66.6666666666667,4,2,1,5,0,0
6765,-66.6666666666667,4,2,1,70,0,0
7065,-66.6666666666667,4,2,1,5,0,0
7125,-66.6666666666667,4,2,1,70,0,0
8625,-66.6666666666667,4,2,1,5,0,0
8685,-66.6666666666667,4,2,1,70,0,0
8985,-66.6666666666667,4,2,1,5,0,0
9045,-66.6666666666667,4,2,1,70,0,0
10065,-66.6666666666667,4,2,1,5,0,0
10125,-66.6666666666667,4,2,1,70,0,0
10545,-66.6666666666667,4,2,1,5,0,0
10605,-66.6666666666667,4,2,1,70,0,0
10905,-66.6666666666667,4,2,1,5,0,0
10965,-66.6666666666667,4,2,1,70,0,0
12465,-66.6666666666667,4,2,1,5,0,0
12525,-66.6666666666667,4,2,1,70,0,0
13905,-66.6666666666667,4,2,1,5,0,0
13965,-66.6666666666667,4,2,1,70,0,0
14385,-66.6666666666667,4,2,1,5,0,0
14445,-66.6666666666667,4,2,1,70,0,0
14745,-66.6666666666667,4,2,1,5,0,0
14805,-66.6666666666667,4,2,1,70,0,0
16665,-66.6666666666667,4,2,1,5,0,0
16725,-66.6666666666667,4,2,1,70,0,0
17745,-66.6666666666667,4,2,1,5,0,0
17805,-66.6666666666667,4,2,1,70,0,0
18225,-66.6666666666667,4,2,1,5,0,0
18285,-66.6666666666667,4,2,1,70,0,0
18585,-66.6666666666667,4,2,1,5,0,0
18645,-66.6666666666667,4,2,1,70,0,0
18825,-66.6666666666667,4,2,1,5,0,0
18885,-66.6666666666667,4,2,1,70,0,0
19665,-66.6666666666667,4,2,1,5,0,0
19725,-66.6666666666667,4,2,1,70,0,0
20505,-66.6666666666667,4,2,1,5,0,0
20565,-66.6666666666667,4,2,1,70,0,0
21585,-66.6666666666667,4,2,1,5,0,0
21645,-66.6666666666667,4,2,1,70,0,0
22425,-66.6666666666667,4,2,1,5,0,0
22485,-66.6666666666667,4,2,1,70,0,0
23505,-66.6666666666667,4,2,1,5,0,0
23565,-66.6666666666667,4,2,1,70,0,0
23985,-66.6666666666667,4,2,1,5,0,0
24045,-66.6666666666667,4,2,1,70,0,0
24345,-66.6666666666667,4,2,1,5,0,0
24405,-66.6666666666667,4,2,1,70,0,0
25905,-66.6666666666667,4,2,1,5,0,0
25965,-66.6666666666667,4,2,1,70,0,0
26265,-66.6666666666667,4,2,1,5,0,0
26325,-66.6666666666667,4,2,1,70,0,0
27165,-62.5,4,2,1,70,0,0
27345,-62.5,4,2,1,5,0,0
27405,-62.5,4,2,1,70,0,0
27645,-62.5,4,2,1,70,0,0
27825,-62.5,4,2,1,5,0,0
27885,-62.5,4,2,1,70,0,0
28185,-66.6666666666667,4,2,1,5,0,0
28245,-66.6666666666667,4,2,1,70,0,0
28605,-66.6666666666667,4,2,1,70,0,0
29745,-66.6666666666667,4,2,1,5,0,0
29805,-66.6666666666667,4,2,1,70,0,0
30105,-66.6666666666667,4,2,1,5,0,0
30165,-66.6666666666667,4,2,1,70,0,0
31005,-62.5,4,2,1,70,0,0
31185,-62.5,4,2,1,5,0,0
31245,-62.5,4,2,1,70,0,0
31425,-62.5,4,2,1,5,0,0
31485,-62.5,4,2,1,70,0,0
31665,-62.5,4,2,1,5,0,0
31725,-62.5,4,2,1,70,0,0
31845,-62.5,4,2,1,70,0,0
32025,-66.6666666666667,4,2,1,5,0,0
32085,-66.6666666666667,4,2,1,70,0,0
32445,-52.6315789473684,4,2,1,70,0,0
33405,-66.6666666666667,4,2,1,70,0,0
33945,-66.6666666666667,4,2,1,5,0,0
34005,-66.6666666666667,4,2,1,70,0,0
34845,-66.6666666666667,4,2,1,70,0,0
35265,-66.6666666666667,4,2,1,5,0,0
35325,-50,4,2,1,70,0,0
35865,-66.6666666666667,4,2,1,5,0,0
35925,-66.6666666666667,4,2,1,70,0,0
36765,-66.6666666666667,4,2,1,70,0,0
37245,-66.6666666666667,4,2,1,70,0,0
37425,-66.6666666666667,4,2,1,5,0,0
37485,-50,4,2,1,70,0,0
37605,-50,4,2,1,70,0,0
37785,-66.6666666666667,4,2,1,5,0,0
37845,-66.6666666666667,4,2,1,70,0,0
38865,-66.6666666666667,4,2,1,5,0,0
38925,-66.6666666666667,4,2,1,70,0,0
39705,-66.6666666666667,4,2,1,5,0,0
39765,-66.6666666666667,4,2,1,70,0,0
40785,-66.6666666666667,4,2,1,5,0,0
40845,-66.6666666666667,4,2,1,70,0,0
41265,-66.6666666666667,4,2,1,5,0,0
41325,-66.6666666666667,4,2,1,70,0,0
41625,-66.6666666666667,4,2,1,5,0,0
41685,-66.6666666666667,4,2,1,70,0,0
42525,-66.6666666666667,4,2,1,70,0,0
42705,-66.6666666666667,4,2,1,5,0,0
42765,-66.6666666666667,4,2,1,70,0,0
43185,-66.6666666666667,4,2,1,5,0,0
43245,-66.6666666666667,4,2,1,70,0,0
43545,-66.6666666666667,4,2,1,5,0,0
43605,-66.6666666666667,4,2,1,70,0,0
44625,-66.6666666666667,4,2,1,5,0,0
44685,-66.6666666666667,4,2,1,70,0,0
45105,-66.6666666666667,4,2,1,5,0,0
45165,-66.6666666666667,4,2,1,70,0,0
45465,-66.6666666666667,4,2,1,5,0,0
45525,-66.6666666666667,4,2,1,70,0,0
46545,-66.6666666666667,4,2,1,5,0,0
46605,-66.6666666666667,4,2,1,70,0,0
47385,-66.6666666666667,4,2,1,5,0,0
47445,-66.6666666666667,4,2,1,70,0,0
50205,-66.6666666666667,4,2,1,70,0,0
50385,-66.6666666666667,4,2,1,5,0,0
50445,-66.6666666666667,4,2,1,70,0,0
50625,-66.6666666666667,4,2,1,5,0,0
50685,-66.6666666666667,4,2,1,70,0,0
50865,-66.6666666666667,4,2,1,5,0,0
50925,-66.6666666666667,4,2,1,70,0,0
51045,-66.6666666666667,4,2,1,70,0,0
51225,-66.6666666666667,4,2,1,5,0,0
51285,-66.6666666666667,4,2,1,70,0,0
51645,-66.6666666666667,4,2,1,70,0,0
52125,-66.6666666666667,4,2,1,70,0,0
52305,-66.6666666666667,4,2,1,5,0,0
52365,-66.6666666666667,4,2,1,70,0,0
52785,-66.6666666666667,4,2,1,5,0,0
52845,-66.6666666666667,4,2,1,70,0,0
53145,-66.6666666666667,4,2,1,5,0,0
53205,-66.6666666666667,4,2,1,70,0,0
54045,-50,4,2,1,70,0,0
54225,-50,4,2,1,5,0,0
54285,-33.3333333333333,4,2,1,70,0,0
54465,-50,4,2,1,5,0,0
54525,-50,4,2,1,70,0,0
54705,-66.6666666666667,4,2,1,5,0,0
54765,-50,4,2,1,70,0,0
55065,-66.6666666666667,4,2,1,5,0,0
55125,-66.6666666666667,4,2,1,70,0,0
56985,-66.6666666666667,4,2,1,5,0,0
57045,-66.6666666666667,4,2,1,70,0,0
57465,-66.6666666666667,4,2,1,5,0,0
57525,-66.6666666666667,4,2,1,70,0,0
58065,-66.6666666666667,4,2,1,5,0,0
58125,-66.6666666666667,4,2,1,70,0,0
58545,-66.6666666666667,4,2,1,5,0,0
58605,-66.6666666666667,4,2,1,70,0,0
59025,-66.6666666666667,4,2,1,5,0,0
59085,-66.6666666666667,4,2,1,70,0,0
59985,-66.6666666666667,4,2,1,5,0,0
60045,-66.6666666666667,4,2,1,70,0,0
60465,-66.6666666666667,4,2,1,5,0,0
60525,-66.6666666666667,4,2,1,70,0,0
61245,-133.333333333333,4,2,1,70,0,0
61605,-133.333333333333,4,2,1,5,0,0
61725,-66.6666666666667,4,2,1,70,0,0
61905,-66.6666666666667,4,2,1,5,0,0
61965,-66.6666666666667,4,2,1,70,0,0
62385,-66.6666666666667,4,2,1,5,0,0
62445,-66.6666666666667,4,2,1,70,0,0
63825,-66.6666666666667,4,2,1,5,0,0
63885,-66.6666666666667,4,2,1,70,0,0
64305,-66.6666666666667,4,2,1,5,0,0
64365,-66.6666666666667,4,2,1,70,0,0
65745,-66.6666666666667,4,2,1,5,0,0
65805,-66.6666666666667,4,2,1,70,0,0
66225,-66.6666666666667,4,2,1,5,0,0
66285,-66.6666666666667,4,2,1,70,0,0
67665,-66.6666666666667,4,2,1,5,0,0
67725,-66.6666666666667,4,2,1,70,0,0
68145,-66.6666666666667,4,2,1,5,0,0
68205,-66.6666666666667,4,2,1,70,0,0
68925,-133.333333333333,4,2,1,70,0,0
69285,-133.333333333333,4,2,1,5,0,0
69405,-66.6666666666667,4,2,1,70,0,0
69585,-66.6666666666667,4,2,1,5,0,0
69645,-66.6666666666667,4,2,1,70,0,0
70065,-66.6666666666667,4,2,1,5,0,0
70125,-66.6666666666667,4,2,1,70,0,0
71865,-66.6666666666667,4,2,1,5,0,0
71925,-66.6666666666667,4,2,1,70,0,0
72825,-66.6666666666667,4,2,1,5,0,0
72885,-66.6666666666667,4,2,1,70,0,0
74685,-133.333333333333,4,2,1,70,0,0
75045,-66.6666666666667,4,2,1,5,0,0
75165,480,4,2,1,70,1,0
75165,-133.333333333333,4,2,1,70,0,0
75225,-133.333333333333,4,2,1,5,0,0
75645,-133.333333333333,4,2,1,70,0,0
75705,-133.333333333333,4,2,1,5,0,0
76125,-133.333333333333,4,2,1,70,0,0
76185,-133.333333333333,4,2,1,5,0,0
76605,-133.333333333333,4,2,1,70,0,0
76665,-133.333333333333,4,2,1,5,0,0
77085,-133.333333333333,4,2,1,70,0,0
77145,-133.333333333333,4,2,1,5,0,0
77565,-133.333333333333,4,2,1,70,0,0
77625,-133.333333333333,4,2,1,5,0,0
78045,-133.333333333333,4,2,1,70,0,0
78105,-133.333333333333,4,2,1,5,0,0
78525,-133.333333333333,4,2,1,70,0,0
78585,-133.333333333333,4,2,1,5,0,0
79005,-133.333333333333,4,2,1,70,0,0
79065,-133.333333333333,4,2,1,5,0,0
79485,-133.333333333333,4,2,1,70,0,0
79545,-133.333333333333,4,2,1,5,0,0
79965,-133.333333333333,4,2,1,70,0,0
80025,-133.333333333333,4,2,1,5,0,0
80445,-133.333333333333,4,2,1,70,0,0
80505,-133.333333333333,4,2,1,5,0,0
80925,-133.333333333333,4,2,1,70,0,0
80985,-133.333333333333,4,2,1,5,0,0
81405,-133.333333333333,4,2,1,70,0,0
81465,-133.333333333333,4,2,1,5,0,0
81885,-133.333333333333,4,2,1,70,0,0
81945,-133.333333333333,4,2,1,5,0,0
82365,-133.333333333333,4,2,1,70,0,0
82425,-133.333333333333,4,2,1,5,0,0
82845,-133.333333333333,4,2,1,70,0,0
82905,-133.333333333333,4,2,1,5,0,0
83325,-133.333333333333,4,2,1,70,0,0
83385,-133.333333333333,4,2,1,5,0,0
83805,-133.333333333333,4,2,1,70,0,0
83865,-133.333333333333,4,2,1,5,0,0
84285,-133.333333333333,4,2,1,70,0,0
84345,-133.333333333333,4,2,1,5,0,0
84765,-133.333333333333,4,2,1,70,0,0
84825,-133.333333333333,4,2,1,5,0,0
85245,-133.333333333333,4,2,1,70,0,0
85305,-133.333333333333,4,2,1,5,0,0
85725,-133.333333333333,4,2,1,70,0,0
85785,-133.333333333333,4,2,1,5,0,0
86205,-133.333333333333,4,2,1,70,0,0
86265,-133.333333333333,4,2,1,5,0,0
86685,-133.333333333333,4,2,1,70,0,0
86745,-133.333333333333,4,2,1,5,0,0
87165,-133.333333333333,4,2,1,70,0,0
87225,-133.333333333333,4,2,1,5,0,0
87645,-133.333333333333,4,2,1,70,0,0
87705,-133.333333333333,4,2,1,5,0,0
88125,-133.333333333333,4,2,1,70,0,0
88185,-133.333333333333,4,2,1,5,0,0
88605,-133.333333333333,4,2,1,70,0,0
88665,-133.333333333333,4,2,1,5,0,0
89085,-133.333333333333,4,2,1,70,0,0
89145,-133.333333333333,4,2,1,5,0,0
89565,-133.333333333333,4,2,1,70,0,0
89625,-133.333333333333,4,2,1,5,0,0
89805,-133.333333333333,4,2,1,70,0,0
89865,-133.333333333333,4,2,1,5,0,0
90045,-133.333333333333,4,2,1,70,0,0
90105,-133.333333333333,4,2,1,5,0,0
90525,-66.6666666666667,4,2,2,85,0,1
90765,-66.6666666666667,4,2,1,85,0,1
91545,-66.6666666666667,4,2,1,5,0,1
91605,-66.6666666666667,4,2,1,85,0,1
92625,-66.6666666666667,4,2,1,5,0,1
92685,-66.6666666666667,4,2,1,85,0,1
93105,-66.6666666666667,4,2,1,5,0,1
93165,-66.6666666666667,4,2,1,85,0,1
94545,-66.6666666666667,4,2,1,5,0,1
94605,-66.6666666666667,4,2,1,85,0,1
96465,-66.6666666666667,4,2,1,5,0,1
96525,-66.6666666666667,4,2,1,85,0,1
96945,-66.6666666666667,4,2,1,5,0,1
97005,-66.6666666666667,4,2,1,85,0,1
99225,-66.6666666666667,4,2,1,5,0,1
99285,-66.6666666666667,4,2,1,85,0,1
100665,-66.6666666666667,4,2,1,5,0,1
100725,-66.6666666666667,4,2,1,85,0,1
102585,-66.6666666666667,4,2,1,5,0,1
102645,-66.6666666666667,4,2,1,85,0,1
103065,-66.6666666666667,4,2,1,5,0,1
103125,-66.6666666666667,4,2,1,85,0,1
105765,-66.6666666666667,4,2,1,70,0,0
106845,480,4,2,1,70,1,0
106845,-66.6666666666667,4,2,1,70,0,0
107265,-66.6666666666667,4,2,1,5,0,0
107325,-66.6666666666667,4,2,1,70,0,0
107865,-66.6666666666667,4,2,1,5,0,0
107925,-66.6666666666667,4,2,1,70,0,0
108945,-66.6666666666667,4,2,1,5,0,0
109005,-66.6666666666667,4,2,1,70,0,0
109245,-66.6666666666667,4,2,1,70,0,0
109605,-66.6666666666667,4,2,1,70,0,0
109785,-66.6666666666667,4,2,1,5,0,0
109845,-66.6666666666667,4,2,1,70,0,0
111105,-66.6666666666667,4,2,1,5,0,0
111165,-66.6666666666667,4,2,1,70,0,0
111705,-66.6666666666667,4,2,1,5,0,0
111765,-66.6666666666667,4,2,1,70,0,0
113265,-66.6666666666667,4,2,1,5,0,0
113325,-66.6666666666667,4,2,1,70,0,0
113625,-66.6666666666667,4,2,1,5,0,0
113685,-66.6666666666667,4,2,1,70,0,0
114705,-66.6666666666667,4,2,1,5,0,0
114765,-66.6666666666667,4,2,1,70,0,0
115545,-66.6666666666667,4,2,1,5,0,0
115605,-66.6666666666667,4,2,1,70,0,0
117465,-66.6666666666667,4,2,1,5,0,0
117525,-66.6666666666667,4,2,1,70,0,0
119385,-66.6666666666667,4,2,1,5,0,0
119445,-66.6666666666667,4,2,1,70,0,0
121305,-66.6666666666667,4,2,1,5,0,0
121365,-66.6666666666667,4,2,1,70,0,0
122205,-66.6666666666667,4,2,1,70,0,0
124125,-66.6666666666667,4,2,1,70,0,0
124305,-66.6666666666667,4,2,1,5,0,0
124365,-66.6666666666667,4,2,1,70,0,0
124785,-66.6666666666667,4,2,1,5,0,0
124845,-66.6666666666667,4,2,1,70,0,0
125145,-66.6666666666667,4,2,1,5,0,0
125205,-66.6666666666667,4,2,1,70,0,0
126225,-66.6666666666667,4,2,1,5,0,0
126285,-66.6666666666667,4,2,1,70,0,0
126705,-66.6666666666667,4,2,1,5,0,0
126765,-66.6666666666667,4,2,1,70,0,0
127065,-66.6666666666667,4,2,1,5,0,0
127125,-66.6666666666667,4,2,1,70,0,0
129405,-66.6666666666667,4,2,1,70,0,0
129765,-66.6666666666667,4,2,1,5,0,0
129885,-66.6666666666667,4,2,1,70,0,0
130065,-66.6666666666667,4,2,1,5,0,0
130125,-66.6666666666667,4,2,1,70,0,0
130305,-66.6666666666667,4,2,1,5,0,0
130365,-66.6666666666667,4,2,1,70,0,0
130545,-66.6666666666667,4,2,1,5,0,0
130605,-66.6666666666667,4,2,1,70,0,0
130725,-66.6666666666667,4,2,1,70,0,0
130905,-66.6666666666667,4,2,1,5,0,0
130965,-66.6666666666667,4,2,1,70,0,0
131565,-66.6666666666667,4,2,1,70,0,0
133725,-66.6666666666667,4,2,1,70,0,0
133905,-66.6666666666667,4,2,1,5,0,0
133965,-66.6666666666667,4,2,1,70,0,0
134145,-285.714285714284,4,2,1,5,0,0
134205,-66.6666666666667,4,2,1,70,0,0
134385,-285.714285714284,4,2,1,5,0,0
134445,-66.6666666666667,4,2,1,70,0,0
134565,-66.6666666666667,4,2,1,70,0,0
134745,-285.714285714284,4,2,1,5,0,0
134805,-66.6666666666667,4,2,1,70,0,0
135165,-66.6666666666667,4,2,1,70,0,0
135645,-66.6666666666667,4,2,1,70,0,0
136125,-66.6666666666667,4,2,1,70,0,0
137565,-66.6666666666667,4,2,1,70,0,0
137745,-285.714285714284,4,2,1,5,0,0
137805,-66.6666666666667,4,2,1,70,0,0
138225,-285.714285714284,4,2,1,5,0,0
138285,-66.6666666666667,4,2,1,70,0,0
139665,-285.714285714284,4,2,1,5,0,0
139725,-66.6666666666667,4,2,1,70,0,0
140145,-285.714285714284,4,2,1,5,0,0
140205,-66.6666666666667,4,2,1,70,0,0
140925,-100,4,2,1,70,0,0
141285,-133.333333333333,4,2,1,5,0,0
141405,-66.6666666666667,4,2,1,70,0,0
142065,-285.714285714284,4,2,1,5,0,0
142125,-66.6666666666667,4,2,1,70,0,0
143505,-285.714285714284,4,2,1,5,0,0
143565,-66.6666666666667,4,2,1,70,0,0
143985,-285.714285714284,4,2,1,5,0,0
144045,-66.6666666666667,4,2,1,70,0,0
145425,-285.714285714284,4,2,1,5,0,0
145485,-66.6666666666667,4,2,1,70,0,0
145905,-285.714285714284,4,2,1,5,0,0
145965,-66.6666666666667,4,2,1,70,0,0
147345,-285.714285714284,4,2,1,5,0,0
147405,-66.6666666666667,4,2,1,70,0,0
147825,-285.714285714284,4,2,1,5,0,0
147885,-66.6666666666667,4,2,1,70,0,0
148605,-100,4,2,1,70,0,0
148965,-133.333333333333,4,2,1,5,0,0
149085,-66.6666666666667,4,2,1,70,0,0
149265,-285.714285714284,4,2,1,5,0,0
149325,-66.6666666666667,4,2,1,70,0,0
149745,-285.714285714284,4,2,1,5,0,0
149805,-66.6666666666667,4,2,1,70,0,0
151545,-285.714285714284,4,2,1,5,0,0
151605,-66.6666666666667,4,2,1,70,0,0
152505,-285.714285714284,4,2,1,5,0,0
152565,-66.6666666666667,4,2,1,70,0,0
154365,-133.333333333333,4,2,1,70,0,0
154845,480,4,2,1,70,1,0
154845,-133.333333333333,4,2,1,70,0,0
154905,-133.333333333333,4,2,1,5,0,0
155325,-133.333333333333,4,2,1,70,0,0
155385,-133.333333333333,4,2,1,5,0,0
155805,-133.333333333333,4,2,1,70,0,0
155865,-133.333333333333,4,2,1,5,0,0
156285,-133.333333333333,4,2,1,70,0,0
156345,-133.333333333333,4,2,1,5,0,0
156765,-133.333333333333,4,2,1,70,0,0
156825,-133.333333333333,4,2,1,5,0,0
157245,-133.333333333333,4,2,1,70,0,0
157305,-133.333333333333,4,2,1,5,0,0
157725,-133.333333333333,4,2,1,70,0,0
157785,-133.333333333333,4,2,1,5,0,0
158205,-133.333333333333,4,2,1,70,0,0
158265,-133.333333333333,4,2,1,5,0,0
158685,-133.333333333333,4,2,1,70,0,0
158745,-133.333333333333,4,2,1,5,0,0
159165,-133.333333333333,4,2,1,70,0,0
159225,-133.333333333333,4,2,1,5,0,0
159645,-133.333333333333,4,2,1,70,0,0
159705,-133.333333333333,4,2,1,5,0,0
160125,-133.333333333333,4,2,1,70,0,0
160185,-133.333333333333,4,2,1,5,0,0
160605,-133.333333333333,4,2,1,70,0,0
160665,-133.333333333333,4,2,1,5,0,0
161085,-133.333333333333,4,2,1,70,0,0
161145,-133.333333333333,4,2,1,5,0,0
161565,-133.333333333333,4,2,1,70,0,0
161625,-133.333333333333,4,2,1,5,0,0
162045,-133.333333333333,4,2,1,70,0,0
162105,-133.333333333333,4,2,1,5,0,0
162525,-133.333333333333,4,2,1,70,0,0
162585,-133.333333333333,4,2,1,5,0,0
163005,-133.333333333333,4,2,1,70,0,0
163065,-133.333333333333,4,2,1,5,0,0
163485,-133.333333333333,4,2,1,70,0,0
163545,-133.333333333333,4,2,1,5,0,0
163965,-133.333333333333,4,2,1,70,0,0
164025,-133.333333333333,4,2,1,5,0,0
164445,-133.333333333333,4,2,1,70,0,0
164505,-133.333333333333,4,2,1,5,0,0
164925,-133.333333333333,4,2,1,70,0,0
164985,-133.333333333333,4,2,1,5,0,0
165405,-133.333333333333,4,2,1,70,0,0
165465,-133.333333333333,4,2,1,5,0,0
165885,-133.333333333333,4,2,1,70,0,0
165945,-133.333333333333,4,2,1,5,0,0
166365,-133.333333333333,4,2,1,70,0,0
166425,-133.333333333333,4,2,1,5,0,0
166845,-133.333333333333,4,2,1,70,0,0
166905,-133.333333333333,4,2,1,5,0,0
167325,-133.333333333333,4,2,1,70,0,0
167385,-133.333333333333,4,2,1,5,0,0
167805,-133.333333333333,4,2,1,70,0,0
167865,-133.333333333333,4,2,1,5,0,0
168285,-133.333333333333,4,2,1,70,0,0
168345,-133.333333333333,4,2,1,5,0,0
168765,-133.333333333333,4,2,1,70,0,0
168825,-133.333333333333,4,2,1,5,0,0
169245,-133.333333333333,4,2,1,70,0,0
169305,-133.333333333333,4,2,1,5,0,0
169485,-133.333333333333,4,2,1,70,0,0
169545,-133.333333333333,4,2,1,5,0,0
169725,-133.333333333333,4,2,1,70,0,0
169785,-133.333333333333,4,2,1,5,0,0
170205,-66.6666666666667,4,2,2,85,0,1
170445,-66.6666666666667,4,2,1,85,0,1
171225,-66.6666666666667,4,2,1,5,0,1
171285,-66.6666666666667,4,2,1,85,0,1
172305,-66.6666666666667,4,2,1,5,0,1
172365,-66.6666666666667,4,2,1,85,0,1
172785,-66.6666666666667,4,2,1,5,0,1
172845,-66.6666666666667,4,2,1,85,0,1
173145,-66.6666666666667,4,2,1,5,0,1
173205,-66.6666666666667,4,2,1,85,0,1
174225,-66.6666666666667,4,2,1,5,0,1
174285,-66.6666666666667,4,2,1,85,0,1
174705,-66.6666666666667,4,2,1,5,0,1
174765,-66.6666666666667,4,2,1,85,0,1
175065,-66.6666666666667,4,2,1,5,0,1
175125,-66.6666666666667,4,2,1,85,0,1
176145,-66.6666666666667,4,2,1,5,0,1
176205,-66.6666666666667,4,2,1,85,0,1
176625,-66.6666666666667,4,2,1,5,0,1
176685,-66.6666666666667,4,2,1,85,0,1
176985,-66.6666666666667,4,2,1,5,0,1
177045,-66.6666666666667,4,2,1,85,0,1
178905,-66.6666666666667,4,2,1,5,0,1
178965,-66.6666666666667,4,2,1,85,0,1
180345,-66.6666666666667,4,2,1,5,0,1
180405,-66.6666666666667,4,2,1,85,0,1
180825,-66.6666666666667,4,2,1,5,0,1
180885,-66.6666666666667,4,2,1,85,0,1
182265,-66.6666666666667,4,2,1,5,0,1
182325,-66.6666666666667,4,2,1,85,0,1
182745,-66.6666666666667,4,2,1,5,0,1
182805,-66.6666666666667,4,2,1,85,0,1
185565,-66.6666666666667,4,2,1,70,0,0
192285,-66.6666666666667,4,2,1,5,0,0
192585,-66.6666666666667,4,2,1,70,0,0
193245,-100,4,2,1,70,0,0
193545,-100,4,2,1,5,0,0
193605,-100,4,2,1,70,0,0
197385,-100,4,2,1,5,0,0
197445,-100,4,2,1,70,0,0
197865,-100,4,2,1,5,0,0
197925,-100,4,2,1,70,0,0
201225,-100,4,2,1,5,0,0
201285,-100,4,2,1,70,0,0
201705,-100,4,2,1,5,0,0
201765,-100,4,2,1,70,0,0
207705,-100,4,2,1,5,0,0
207765,-100,4,2,1,70,0,0
207945,-100,4,2,1,5,0,0
208005,-100,4,2,1,70,0,0
208125,-100,4,2,1,70,0,0
208185,-66.6666666666667,4,2,1,5,0,0
208365,-100,4,2,1,70,0,0
208425,-66.6666666666667,4,2,1,5,0,0
208605,-100,4,2,1,70,0,0
239445,-100,4,2,1,5,0,0
240285,-100,4,2,1,70,0,0
240405,-100,4,2,1,5,0,0
241245,-100,4,2,1,70,0,0
241365,-100,4,2,1,5,0,0
242205,-100,4,2,1,70,0,0
242325,-100,4,2,1,5,0,0
243165,-100,4,2,1,70,0,0
243285,-100,4,2,1,5,0,0
244125,-100,4,2,1,70,0,0
244245,-100,4,2,1,5,0,0
245085,-100,4,2,1,70,0,0
245205,-100,4,2,1,5,0,0
246045,-100,4,2,1,70,0,0
246165,-100,4,2,1,5,0,0
247005,-100,4,2,1,70,0,0
247125,-100,4,2,1,5,0,0
247965,-100,4,2,1,70,0,0
248085,-100,4,2,1,5,0,0
248925,-100,4,2,1,70,0,0
249045,-100,4,2,1,5,0,0
249885,-100,4,2,1,70,0,0
250005,-100,4,2,1,5,0,0
250845,-100,4,2,1,70,0,0
250965,-100,4,2,1,5,0,0
251805,-100,4,2,1,70,0,0
251925,-100,4,2,1,5,0,0
252285,-100,4,2,1,45,0,0

[Colours]
Combo1 : 247,243,136
Combo2 : 255,138,138
Combo3 : 192,192,192
Combo4 : 116,139,134
Combo5 : 254,221,107

[HitObjects]
76,99,285,6,0,L|71:69,1,30,2|0,0:0|0:0,0:0:0:0:
153,56,2205,2,0,L|158:86,1,30,2|0,0:0|0:0,0:0:0:0:
76,99,2925,6,0,L|71:69,3,30,2|2|2|2,0:0|0:0|0:0|0:0,0:0:0:0:
153,56,3645,6,0,L|158:86,1,30,2|0,0:0|0:0,0:0:0:0:
76,99,3885,2,0,L|71:69,2,30,2|2|2,0:0|0:0|0:0,0:0:0:0:
137,166,4125,6,0,P|105:174|70:195,1,67.5000025749208,6|0,1:0|0:0,0:0:0:0:
0,252,4365,2,0,L|17:325,1,67.5000025749208,10|0,0:0|0:0,0:0:0:0:
107,384,4605,2,0,L|122:318,1,67.5000025749208,2|0,1:0|0:0,0:0:0:0:
294,258,4845,1,8,0:0:0:0:
294,258,4965,6,0,P|227:277|218:337,1,135.000005149842,2|0,1:0|1:0,0:0:0:0:
281,384,5325,2,0,P|311:375|360:369,1,67.5000025749208,10|0,0:0|0:0,0:0:0:0:
446,353,5565,1,2,1:0:0:0:
402,292,5685,1,0,1:0:0:0:
459,244,5805,2,0,L|467:171,1,67.5000025749208,10|0,0:0|0:0,0:0:0:0:
442,64,6045,6,0,P|407:66|383:98,1,67.5000025749208,2|0,1:0|0:0,0:0:0:0:
318,32,6285,2,0,P|297:60|306:99,1,67.5000025749208,10|0,0:0|0:0,0:0:0:0:
215,157,6525,2,0,P|283:172|358:202,1,135.000005149842,2|8,1:0|0:0,0:0:0:0:
189,64,6885,6,0,P|126:104|123:167,1,135.000005149842,2|0,1:0|1:0,0:0:0:0:
127,247,7245,2,0,P|93:236|49:230,1,67.5000025749208,10|0,0:0|0:0,0:0:0:0:
120,333,7485,1,2,1:0:0:0:
120,333,7605,1,0,1:0:0:0:
200,299,7725,2,0,P|214:269|214:225,1,67.5000025749208,10|0,0:0|0:0,0:0:0:0:
189,64,7965,6,0,P|242:96|320:103,1,135.000005149842,0|10,1:0|0:0,0:0:0:0:
490,34,8445,2,0,P|412:33|403:88,1,135.000005149842,2|8,1:0|0:0,0:0:0:0:
448,162,8805,2,0,P|384:175|310:201,1,135.000005149842,2|2,1:0|1:0,0:0:0:0:
232,208,9165,2,0,P|237:241|270:271,1,67.5000025749208,10|0,0:0|0:0,0:0:0:0:
347,282,9405,1,2,1:0:0:0:
347,282,9525,1,0,1:0:0:0:
288,349,9645,2,0,P|254:352|216:363,1,67.5000025749208,10|0,0:0|0:0,0:0:0:0:
123,251,9885,6,0,P|109:313|113:391,1,135.000005149842,2|10,1:0|0:0,0:0:0:0:
0,225,10365,2,0,B|73:208|25:168|116:156,1,135.000005149842,2|8,1:0|0:0,0:0:0:0:
142,38,10725,2,0,P|190:85|263:108,1,135.000005149842,2|0,1:0|1:0,0:0:0:0:
324,66,11085,2,0,P|316:34|310:-2,1,67.5000025749208,10|0,0:0|0:0,0:0:0:0:
323,148,11325,1,2,1:0:0:0:
323,148,11445,1,0,1:0:0:0:
395,107,11565,2,0,P|428:106|465:123,1,67.5000025749208,10|0,0:0|0:0,0:0:0:0:
512,230,11805,6,0,P|448:237|375:257,1,135.000005149842,4|10,1:0|0:0,0:0:0:0:
296,342,12285,2,0,P|250:287|264:226,1,135.000005149842,2|8,1:0|0:0,0:0:0:0:
260,120,12645,2,0,B|208:133|208:133|191:158|191:158|138:174,1,135.000005149842,2|0,1:0|1:0,0:0:0:0:
38,85,13005,2,0,P|64:106|73:151,1,67.5000025749208,10|0,0:0|0:0,0:0:0:0:
76,216,13245,1,2,1:0:0:0:
76,216,13365,1,0,1:0:0:0:
53,309,13485,2,0,P|86:302|129:298,1,67.5000025749208,10|0,0:0|0:0,0:0:0:0:
250,384,13725,6,0,P|262:319|258:245,1,135.000005149842,2|10,1:0|0:0,0:0:0:0:
273,117,14205,2,0,B|354:125|307:160|404:170,1,135.000005149842,2|8,1:0|0:0,0:0:0:0:
486,166,14565,2,0,P|492:104|423:91,1,135.000005149842,2|0,1:0|1:0,0:0:0:0:
393,168,14925,2,0,P|400:199|407:247,1,67.5000025749208,10|0,0:0|0:0,0:0:0:0:
443,345,15165,1,2,1:0:0:0:
380,304,15285,1,0,1:0:0:0:
312,335,15405,2,0,L|238:321,1,67.5000025749208,10|0,0:0|0:0,0:0:0:0:
106,384,15645,6,0,P|121:322|129:243,1,135.000005149842,0|10,1:0|0:0,0:0:0:0:
97,117,16125,2,0,P|46:118|20:189,1,135.000005149842,2|8,1:0|0:0,0:0:0:0:
128,251,16485,2,0,P|193:237|264:232,1,135.000005149842,2|0,1:0|1:0,0:0:0:0:
346,237,16845,2,0,P|342:204|313:167,1,67.5000025749208,10|0,0:0|0:0,0:0:0:0:
245,150,17085,1,2,1:0:0:0:
245,150,17205,1,0,1:0:0:0:
207,80,17325,2,0,P|173:89|130:95,1,67.5000025749208,10|0,0:0|0:0,0:0:0:0:
269,25,17565,6,0,P|327:9|400:0,1,135.000005149842,2|10,1:0|0:0,0:0:0:0:
512,70,18045,2,0,P|454:82|426:149,1,135.000005149842,2|8,1:0|0:0,0:0:0:0:
512,223,18405,2,0,B|427:241|473:264|383:285,1,135.000005149842,2|0,1:0|1:0,0:0:0:0:
326,230,18765,2,0,P|335:198|341:163,1,67.5000025749208,10|8,0:0|0:0,0:0:0:0:
277,79,19005,2,0,L|203:92,3,67.5000025749208,10|8|10|8,0:0|0:0|0:0|0:0,0:0:0:0:
97,0,19485,6,0,P|110:63|124:148,1,135.000005149842,6|10,1:0|0:0,0:0:0:0:
0,211,19965,2,0,P|59:195|106:248,1,135.000005149842,2|10,1:0|0:0,0:0:0:0:
194,337,20325,2,0,P|132:347|63:366,1,135.000005149842,2|2,1:0|1:0,0:0:0:0:
31,289,20685,1,10,0:0:0:0:
263,384,20925,1,2,1:0:0:0:
263,384,21045,1,0,1:0:0:0:
323,329,21165,2,0,P|327:298|326:260,1,67.5000025749208,8|0,0:0|0:0,0:0:0:0:
297,126,21405,6,0,B|225:144|258:174|181:194,1,135.000005149842,2|10,1:0|0:0,0:0:0:0:
98,167,21765,1,2,0:0:0:0:
98,167,21885,2,0,P|85:94|103:33,1,135.000005149842,2|10,1:0|0:0,0:0:0:0:
199,0,22245,2,0,P|260:15|338:21,1,135.000005149842,2|2,1:0|1:0,0:0:0:0:
437,26,22605,2,0,P|418:51|412:92,1,67.5000025749208,10|2,0:0|0:0,0:0:0:0:
451,200,22845,1,2,1:0:0:0:
451,200,22965,1,0,1:0:0:0:
382,159,23085,2,0,P|348:169|306:179,1,67.5000025749208,8|0,0:0|0:0,0:0:0:0:
211,320,23325,6,0,P|235:262|208:193,1,135.000005149842,2|10,1:0|0:0,0:0:0:0:
182,60,23805,2,0,P|126:98|59:108,1,135.000005149842,2|10,1:0|0:0,0:0:0:0:
249,0,24165,2,0,P|305:38|372:48,1,135.000005149842,2|2,1:0|1:0,0:0:0:0:
450,101,24525,2,0,P|456:65|466:31,1,67.5000025749208,10|2,0:0|0:0,0:0:0:0:
370,129,24765,1,2,1:0:0:0:
370,129,24885,1,0,1:0:0:0:
436,185,25005,2,0,L|503:171,1,67.5000025749208,8|0,0:0|0:0,0:0:0:0:
414,275,25245,5,2,1:0:0:0:
352,221,25365,1,2,0:0:0:0:
283,264,25485,2,0,P|248:268|210:278,1,67.5000025749208,10|2,0:0|0:0,0:0:0:0:
54,190,25725,6,0,P|118:213|130:274,1,135.000005149842,2|10,1:0|0:0,0:0:0:0:
72,337,26085,2,0,P|37:332|-1:323,1,67.5000025749208,2|0,1:0|0:0,0:0:0:0:
130,272,26325,2,0,P|162:264|196:259,2,67.5000025749208,2|10|0,1:0|0:0|0:0,0:0:0:0:
199,341,26685,1,2,1:0:0:0:
199,341,26805,1,0,1:0:0:0:
269,299,26925,2,0,P|278:266|273:226,1,67.5000025749208,8|0,0:0|0:0,0:0:0:0:
246,117,27165,6,0,P|176:112|125:164,1,144,6|10,1:0|0:0,0:0:0:0:
348,149,27645,2,0,P|418:134|489:123,1,144,2|10,1:0|0:0,0:0:0:0:
206,190,28005,2,0,B|215:134|215:134|208:109|208:109|220:46,1,144,2|2,1:0|1:0,0:0:0:0:
294,0,28365,2,0,P|328:1|361:19,1,67.5000025749208,10|2,0:0|0:0,0:0:0:0:
219,48,28605,2,0,L|152:63,2,67.5000025749208,2|0|8,1:0|1:0|0:0,0:0:0:0:
0,144,29085,6,0,B|53:159|53:159|66:180|66:180|132:199,1,135.000005149842,2|10,1:0|0:0,0:0:0:0:
177,252,29445,1,2,0:0:0:0:
254,228,29565,2,0,P|262:163|278:90,1,135.000005149842,2|10,1:0|0:0,0:0:0:0:
457,0,29925,2,0,P|386:26|370:84,1,135.000005149842,2|2,1:0|1:0,0:0:0:0:
434,133,30285,2,0,P|465:121|505:115,1,67.5000025749208,10|2,0:0|0:0,0:0:0:0:
351,161,30525,1,2,1:0:0:0:
351,161,30645,1,0,1:0:0:0:
410,216,30765,1,8,0:0:0:0:
368,358,31005,6,0,P|297:344|214:332,1,144,6|14,1:0|0:0,3:0:0:0:
120,345,31485,2,0,B|115:266|154:289|159:197,1,144,6|10,1:0|0:0,0:0:0:0:
160,104,31845,2,0,P|83:106|69:173,1,144,6|2,1:0|1:0,0:0:0:0:
158,208,32205,2,0,P|190:198|233:193,1,67.5000025749208,14|2,0:0|1:0,0:0:0:0:
312,235,32445,2,0,P|320:153|333:64,1,170.999995433807,6|8,1:0|0:0,0:0:0:0:
436,0,32925,5,2,1:0:0:0:
436,0,33045,1,2,0:0:0:0:
512,51,33165,2,0,P|502:93|496:137,1,85.4999977169037,10|2,0:0|0:0,0:0:0:0:
512,251,33405,2,0,P|456:212|391:218,1,135.000005149842,2|10,1:0|0:0,0:0:0:0:
287,169,33765,2,0,P|301:238|310:306,1,135.000005149842,2|2,1:0|1:0,0:0:0:0:
282,384,34125,2,0,L|207:369,1,67.5000025749208,10|2,0:0|0:0,0:0:0:0:
119,371,34365,2,0,L|110:330,4,33.7500012874604,10|8|8|8|8,0:0|0:0|0:0|0:0|0:0,0:0:0:0:
0,186,34845,6,0,P|32:196|82:202,1,67.5000025749208,6|0,1:0|0:0,0:0:0:0:
148,164,35085,2,0,L|134:97,1,67.5000025749208,10|0,0:0|0:0,0:0:0:0:
159,0,35325,1,2,1:0:0:0:
159,0,35445,1,0,0:0:0:0:
222,71,35565,1,8,0:0:0:0:
378,0,35685,6,0,B|316:18|316:18|335:70|342:137,1,180,2|0,1:0|1:0,0:0:0:0:
317,207,36045,2,0,P|284:200|235:194,1,67.5000025749208,10|0,0:0|0:0,0:0:0:0:
405,188,36285,2,0,P|427:148|421:112,2,67.5000025749208,2|0|10,1:0|1:0|0:0,0:0:0:0:
187,120,36765,6,0,P|162:183|169:255,1,135.000005149842,2|10,1:0|0:0,0:0:0:0:
160,369,37245,2,0,P|218:333|283:348,1,135.000005149842,2|8,1:0|0:0,0:0:0:0:
426,257,37605,2,0,B|335:283|335:283|372:315|362:365,1,180,2|0,1:0|1:0,0:0:0:0:
447,384,37965,2,0,P|480:374|522:367,1,67.5000025749208,10|0,0:0|0:0,0:0:0:0:
512,280,38205,1,2,1:0:0:0:
512,280,38325,1,0,1:0:0:0:
426,257,38445,2,0,P|432:223|436:180,1,67.5000025749208,10|0,0:0|0:0,0:0:0:0:
427,72,38685,6,0,P|365:77|341:149,1,135.000005149842,0|10,1:0|0:0,0:0:0:0:
324,239,39165,2,0,P|258:224|183:216,1,135.000005149842,2|8,1:0|0:0,0:0:0:0:
205,115,39525,2,0,P|271:130|346:138,1,135.000005149842,2|0,1:0|1:0,0:0:0:0:
437,136,39885,2,0,P|439:102|420:63,1,67.5000025749208,10|0,0:0|0:0,0:0:0:0:
337,137,40125,1,2,1:0:0:0:
337,137,40245,1,0,1:0:0:0:
384,231,40365,2,0,P|416:223|467:217,1,67.5000025749208,10|0,0:0|0:0,0:0:0:0:
137,185,40605,6,0,P|121:123|137:47,1,135.000005149842,2|10,1:0|0:0,0:0:0:0:
315,42,41085,2,0,B|239:67|276:97|194:117,1,135.000005149842,0|8,1:0|0:0,0:0:0:0:
29,132,41445,2,0,P|93:133|138:193,1,135.000005149842,2|0,1:0|1:0,0:0:0:0:
114,262,41805,2,0,P|80:268|43:283,1,67.5000025749208,10|0,0:0|0:0,0:0:0:0:
162,328,42045,1,10,0:0:0:0:
242,327,42165,1,8,0:0:0:0:
283,257,42285,2,0,L|267:182,1,67.5000025749208,10|8,0:0|0:0,0:0:0:0:
230,69,42525,6,0,P|288:90|370:95,1,135.000005149842,6|10,1:0|0:0,0:0:0:0:
496,46,43005,2,0,P|481:107|467:192,1,135.000005149842,2|10,1:0|0:0,0:0:0:0:
512,255,43365,2,0,P|459:219|387:230,1,135.000005149842,2|2,1:0|1:0,0:0:0:0:
305,239,43725,2,0,P|314:271|323:312,1,67.5000025749208,10|2,0:0|0:0,0:0:0:0:
288,379,43965,1,2,1:0:0:0:
288,379,44085,1,0,1:0:0:0:
210,354,44205,1,8,0:0:0:0:
383,135,44445,6,0,P|449:119|524:92,1,135.000005149842,2|10,1:0|0:0,0:0:0:0:
484,0,44805,1,2,0:0:0:0:
484,0,44925,2,0,P|417:15|343:43,1,135.000005149842,2|8,1:0|0:0,0:0:0:0:
201,39,45285,2,0,P|261:52|283:125,1,135.000005149842,2|2,1:0|1:0,0:0:0:0:
317,204,45645,6,0,P|283:209|244:227,1,67.5000025749208,10|2,0:0|0:0,0:0:0:0:
195,276,45885,1,2,1:0:0:0:
195,276,46005,1,0,1:0:0:0:
179,198,46125,2,0,L|190:121,1,67.5000025749208,8|2,0:0|0:0,0:0:0:0:
399,127,46365,6,0,P|415:193|405:265,1,135.000005149842,2|10,1:0|0:0,0:0:0:0:
415,368,46845,2,0,P|348:355|273:345,1,135.000005149842,2|10,1:0|0:0,0:0:0:0:
146,287,47205,2,0,B|182:302|190:334|190:334|191:300|228:270,1,135.000005149842,2|2,1:0|1:0,0:0:0:0:
274,212,47565,2,0,P|304:224|341:233,1,67.5000025749208,10|2,0:0|0:0,0:0:0:0:
192,197,47805,1,2,1:0:0:0:
192,197,47925,1,0,1:0:0:0:
131,142,48045,2,0,P|100:154|64:163,1,67.5000025749208,8|0,0:0|0:0,0:0:0:0:
173,15,48285,6,0,P|237:3|287:51,1,135.000005149842,2|10,1:0|0:0,0:0:0:0:
299,130,48645,1,2,0:0:0:0:
299,130,48765,2,0,P|335:121|376:116,1,67.5000025749208,2|0,1:0|0:0,0:0:0:0:
512,153,49005,2,0,P|476:162|435:167,1,67.5000025749208,10|2,0:0|1:0,0:0:0:0:
235,184,49245,6,0,P|216:155|216:117,1,67.5000025749208,8|2,0:0|1:0,0:0:0:0:
363,74,49485,2,0,P|381:102|382:141,1,67.5000025749208,10|2,0:0|1:0,0:0:0:0:
333,230,49725,1,10,0:0:0:0:
312,384,50205,6,0,P|245:366|165:353,1,135.000005149842,6|10,1:0|0:0,0:0:0:0:
125,207,50685,2,0,P|187:219|212:283,1,135.000005149842,2|10,1:0|0:0,0:0:0:0:
131,289,51045,2,0,P|64:306|-16:320,1,135.000005149842,2|2,1:0|1:0,0:0:0:0:
108,141,51405,2,0,P|116:174|125:206,1,67.5000025749208,10|2,0:0|0:0,0:0:0:0:
57,84,51645,1,2,1:0:0:0:
57,84,51765,1,0,0:0:0:0:
123,44,51885,2,0,P|154:39|196:58,1,67.5000025749208,8|0,0:0|0:0,0:0:0:0:
321,0,52125,6,0,P|295:68|289:143,1,135.000005149842,2|10,1:0|0:0,0:0:0:0:
259,226,52485,1,2,0:0:0:0:
259,226,52605,2,0,B|340:201|307:248|404:212,1,135.000005149842,2|10,1:0|0:0,0:0:0:0:
463,136,52965,2,0,P|399:156|397:228,1,135.000005149842,2|2,1:0|1:0,0:0:0:0:
449,276,53325,2,0,P|478:262|524:253,1,67.5000025749208,10|2,0:0|0:0,0:0:0:0:
414,354,53565,1,2,1:0:0:0:
414,354,53685,1,0,1:0:0:0:
347,298,53805,2,0,P|314:302|283:330,1,67.5000025749208,8|0,0:0|0:0,0:0:0:0:
148,384,54045,6,0,B|137:308|137:308|121:291|121:291|107:199,1,180,6|14,1:0|0:0,0:0:0:0:
112,90,54525,2,0,P|55:40|38:113,1,180,6|10,1:0|0:0,0:0:0:0:
19,216,54885,2,0,P|103:193|201:180,1,180,6|6,1:0|1:0,0:0:0:0:
281,178,55245,2,0,P|280:145|257:119,1,67.5000025749208,10|2,0:0|1:0,0:0:0:0:
216,16,55485,2,0,P|276:40|345:44,1,135.000005149842,6|8,1:0|0:0,0:0:0:0:
512,20,55965,5,2,1:0:0:0:
437,51,56085,1,2,0:0:0:0:
468,125,56205,2,0,P|470:157|475:195,1,67.5000025749208,10|2,0:0|0:0,0:0:0:0:
512,306,56445,2,0,P|448:287|373:271,1,135.000005149842,2|10,1:0|0:0,0:0:0:0:
248,205,56805,6,0,P|296:247|286:328,1,135.000005149842,2|2,1:0|1:0,0:0:0:0:
256,384,57165,1,10,0:0:0:0:
177,279,57285,2,0,L|228:287,2,33.7500012874604,10|8|10,0:0|0:0|0:0,0:0:0:0:
103,329,57525,1,8,0:0:0:0:
38,268,57645,2,0,P|45:235|51:183,1,67.5000025749208,8|8,0:0|0:0,0:0:0:0:
23,76,57885,6,0,P|82:101|162:115,1,135.000005149842,6|10,1:0|0:0,0:0:0:0:
300,77,58365,2,0,P|299:5|249:15,1,135.000005149842,2|10,1:0|0:0,0:0:0:0:
220,80,58725,1,0,1:0:0:0:
282,158,58845,6,0,P|315:149|355:145,1,67.5000025749208,2|0,1:0|1:0,0:0:0:0:
365,228,59085,2,0,P|331:236|292:241,1,67.5000025749208,10|0,0:0|0:0,0:0:0:0:
223,214,59325,1,2,1:0:0:0:
223,214,59445,1,0,1:0:0:0:
154,256,59565,2,0,L|174:337,1,67.5000025749208,10|0,0:0|0:0,0:0:0:0:
0,384,59805,6,0,P|10:330|24:230,1,135.000005149842,2|10,1:0|0:0,0:0:0:0:
209,124,60285,2,0,B|124:137|170:178|78:187,1,135.000005149842,2|10,1:0|0:0,0:0:0:0:
0,160,60645,1,0,1:0:0:0:
0,160,60765,2,0,P|8:132|11:93,1,67.5000025749208,2|0,0:0|1:0,0:0:0:0:
104,66,61005,2,0,P|96:38|93:-1,1,67.5000025749208,10|0,0:0|1:0,0:0:0:0:
225,40,61245,2,0,P|271:56|292:118,1,101.250003862381,6|0,1:0|0:0,0:0:0:0:
392,161,61725,6,0,P|327:184|261:217,1,135.000005149842,2|10,1:0|0:0,0:0:0:0:
145,261,62205,2,0,P|207:280|224:350,1,135.000005149842,2|10,1:0|0:0,0:0:0:0:
157,384,62565,1,0,1:0:0:0:
157,384,62685,2,0,P|125:376|80:371,1,67.5000025749208,2|0,0:0|1:0,0:0:0:0:
2,378,62925,2,0,P|9:346|15:301,1,67.5000025749208,10|0,0:0|0:0,0:0:0:0:
0,216,63165,2,0,P|34:217|76:191,1,67.5000025749208,2|0,1:0|1:0,0:0:0:0:
154,102,63405,2,0,P|120:101|78:127,1,67.5000025749208,10|0,0:0|0:0,0:0:0:0:
162,198,63645,6,0,P|231:206|310:220,2,135.000005149842,2|10|2,1:0|0:0|1:0,0:0:0:0:
352,278,64365,1,10,0:0:0:0:
352,278,64485,1,0,1:0:0:0:
409,219,64605,2,0,P|402:187|398:146,1,67.5000025749208,2|0,0:0|1:0,0:0:0:0:
366,0,64845,2,0,P|362:33|355:66,1,67.5000025749208,10|0,0:0|1:0,0:0:0:0:
287,124,65085,2,0,L|139:99,1,135.000005149842,10|8,0:0|0:0,0:0:0:0:
0,0,65565,6,0,P|59:11|82:79,1,135.000005149842,6|10,1:0|0:0,0:0:0:0:
0,133,66045,2,0,B|79:146|32:182|118:196,1,135.000005149842,2|10,1:0|0:0,0:0:0:0:
204,174,66405,1,0,1:0:0:0:
204,174,66525,2,0,P|196:143|190:97,1,67.5000025749208,2|0,0:0|1:0,0:0:0:0:
283,88,66765,2,0,P|290:118|297:165,1,67.5000025749208,10|0,0:0|0:0,0:0:0:0:
270,240,67005,1,2,1:0:0:0:
270,240,67125,1,0,1:0:0:0:
214,308,67245,2,0,L|142:300,1,67.5000025749208,10|0,0:0|0:0,0:0:0:0:
339,328,67485,6,0,P|384:270|371:206,1,135.000005149842,2|10,1:0|0:0,0:0:0:0:
485,99,67965,2,0,P|426:120|340:130,1,135.000005149842,2|10,1:0|0:0,0:0:0:0:
283,88,68325,1,0,1:0:0:0:
283,88,68445,2,0,P|289:55|299:18,1,67.5000025749208,2|0,1:0|1:0,0:0:0:0:
200,0,68685,2,0,P|193:32|184:70,1,67.5000025749208,10|0,0:0|1:0,0:0:0:0:
73,117,68925,2,0,B|126:127|103:149|183:165,1,101.250003862381,14|0,0:0|0:0,0:0:0:0:
262,159,69405,6,0,P|191:190|186:252,1,135.000005149842,2|10,1:0|0:0,0:0:0:0:
160,335,69885,2,0,P|225:319|310:310,1,135.000005149842,2|10,1:0|0:0,0:0:0:0:
368,280,70245,1,0,1:0:0:0:
438,320,70365,2,0,L|450:245,1,67.5000025749208,2|0,0:0|1:0,0:0:0:0:
370,116,70605,2,0,L|380:182,1,67.5000025749208,10|0,0:0|0:0,0:0:0:0:
446,71,70845,1,2,1:0:0:0:
446,71,70965,1,0,1:0:0:0:
367,27,71085,2,0,P|334:31|301:63,1,67.5000025749208,10|0,0:0|0:0,0:0:0:0:
237,137,71325,5,6,1:0:0:0:
162,169,71445,1,2,0:0:0:0:
97,120,71565,1,10,0:0:0:0:
111,40,71685,2,0,B|163:31|163:31|188:45|188:45|261:34,1,135.000005149842,6|2,1:0|1:0,0:0:0:0:
333,24,72045,2,0,P|322:56|316:91,1,67.5000025749208,10|0,0:0|0:0,0:0:0:0:
237,137,72285,5,6,1:0:0:0:
312,165,72405,1,2,0:0:0:0:
329,244,72525,1,10,0:0:0:0:
408,260,72645,2,0,P|468:237|469:172,1,135.000005149842,6|2,1:0|1:0,0:0:0:0:
442,96,73005,2,0,P|409:110|371:115,1,67.5000025749208,10|8,0:0|0:0,0:0:0:0:
237,137,73245,2,0,L|242:62,2,67.5000025749208,10|2|2,0:0|1:0|0:0,0:0:0:0:
188,202,73605,5,2,1:0:0:0:
188,202,73725,2,0,P|196:234|202:277,1,67.5000025749208,0|2,1:0|1:0,0:0:0:0:
260,323,73965,2,0,L|335:308,1,67.5000025749208,10|2,0:0|1:0,0:0:0:0:
455,318,74205,2,0,L|465:259,6,45.0000017166138,10|8|10|8|10|8|2,0:0|0:0|0:0|0:0|0:0|0:0|1:0,0:0:0:0:
397,95,75165,6,0,P|327:106|245:127,3,135.000005149842,6|10|10|10,1:0|0:0|0:0|0:0,0:0:0:0:
179,116,77085,2,0,P|236:143|258:212,3,135.000005149842,10|10|10|10,0:0|0:0|0:0|0:0,0:0:0:0:
37,222,79005,2,0,P|105:208|182:204,3,135.000005149842,10|10|10|10,0:0|0:0|0:0|0:0,0:0:0:0:
380,258,80925,2,0,B|297:251|343:214|237:205,3,135.000005149842,10|10|10|10,0:0|0:0|0:0|0:0,0:0:0:0:
95,13,82845,6,0,P|38:36|16:105,3,135.000005149842,14|10|10|10,0:0|0:0|0:0|0:0,0:0:0:0:
31,196,84765,2,0,P|99:174|171:169,3,135.000005149842,10|10|10|10,0:0|0:0|0:0|0:0,0:0:0:0:
400,0,86685,6,0,B|388:57|388:57|398:74|398:74|385:145,3,135.000005149842,10|10|10|10,0:0|0:0|0:0|0:0,0:0:0:0:
252,159,88605,2,0,B|299:176|299:176|314:208|314:208|366:228,1,135.000005149842,10|10,0:0|0:0,0:0:0:0:
152,107,89565,2,0,L|143:176,2,67.5000025749208,2|0|12,1:0|1:0|0:0,0:0:0:0:
256,0,90525,6,0,P|308:28|398:38,1,135.000005149842,6|8,1:0|0:0,0:0:0:0:
496,15,90885,1,0,0:0:0:0:
508,128,91005,2,0,P|454:160|442:227,1,135.000005149842,2|8,1:0|0:0,0:0:0:0:
319,266,91365,2,0,B|396:277|352:308|442:325,1,135.000005149842,2|0,1:0|1:0,0:0:0:0:
307,359,91725,2,0,P|272:353|228:349,1,67.5000025749208,10|0,0:0|0:0,0:0:0:0:
143,382,91965,1,2,1:0:0:0:
143,382,92085,1,0,1:0:0:0:
89,299,92205,2,0,P|96:267|102:227,1,67.5000025749208,10|0,0:0|0:0,0:0:0:0:
0,61,92445,6,0,P|64:62|97:119,1,135.000005149842,2|10,1:0|0:0,0:0:0:0:
39,173,92805,1,0,0:0:0:0:
39,173,92925,2,0,P|102:149|172:141,1,135.000005149842,2|10,1:0|0:0,0:0:0:0:
261,193,93285,2,0,P|286:126|244:80,1,135.000005149842,0|0,1:0|1:0,0:0:0:0:
314,0,93645,2,0,P|338:24|376:35,1,67.5000025749208,10|0,0:0|0:0,0:0:0:0:
470,0,93885,1,2,1:0:0:0:
470,0,94005,1,0,1:0:0:0:
512,98,94125,2,0,P|503:131|496:171,1,67.5000025749208,10|0,0:0|0:0,0:0:0:0:
512,287,94365,6,0,P|447:296|374:315,1,135.000005149842,2|8,1:0|0:0,0:0:0:0:
294,255,94725,1,0,0:0:0:0:
222,329,94845,2,0,P|189:319|150:314,2,67.5000025749208,2|0|8,1:0|0:0|0:0,0:0:0:0:
102,384,95205,2,0,P|73:325|95:254,1,135.000005149842,2|0,1:0|1:0,0:0:0:0:
29,195,95565,2,0,P|56:177|98:172,1,67.5000025749208,10|0,0:0|0:0,0:0:0:0:
159,77,95805,1,2,1:0:0:0:
159,77,95925,1,0,1:0:0:0:
249,144,96045,2,0,L|234:216,1,67.5000025749208,10|0,0:0|0:0,0:0:0:0:
271,383,96285,6,0,P|314:334|379:344,3,135.000005149842,2|10|2|10,1:0|0:0|1:0|0:0,0:0:0:0:
485,384,97125,2,0,P|471:318|460:236,1,135.000005149842,0|0,1:0|1:0,0:0:0:0:
443,162,97485,2,0,P|416:183|383:197,1,67.5000025749208,10|0,0:0|0:0,0:0:0:0:
311,149,97725,2,0,L|325:76,2,67.5000025749208,2|0|8,1:0|1:0|0:0,0:0:0:0:
81,363,98205,5,6,1:0:0:0:
81,363,98325,1,2,0:0:0:0:
15,304,98445,1,10,0:0:0:0:
95,269,98565,2,0,L|76:118,1,135.000005149842,2|2,0:0|0:0,0:0:0:0:
49,63,98925,1,8,0:0:0:0:
0,0,99045,6,0,P|54:33|130:37,1,135.000005149842,2|2,1:0|1:0,0:0:0:0:
205,5,99405,1,10,0:0:0:0:
267,49,99525,1,2,0:0:0:0:
348,32,99645,2,0,L|332:111,1,67.5000025749208,2|2,1:0|1:0,0:0:0:0:
212,183,99885,2,0,P|181:170|136:162,1,67.5000025749208,10|0,0:0|0:0,0:0:0:0:
251,264,100125,6,0,L|277:342,2,67.5000025749208,2|2|10,1:0|0:0|0:0,0:0:0:0:
295,190,100485,2,0,P|361:198|432:217,1,135.000005149842,2|2,0:0|0:0,0:0:0:0:
492,274,100845,1,8,0:0:0:0:
426,334,100965,2,0,P|400:266|436:208,1,135.000005149842,2|2,1:0|1:0,0:0:0:0:
506,177,101325,2,0,P|494:144|488:101,1,67.5000025749208,10|2,0:0|0:0,0:0:0:0:
497,24,101565,1,2,1:0:0:0:
419,62,101685,1,2,1:0:0:0:
358,0,101805,2,0,L|272:20,1,67.5000025749208,10|0,0:0|0:0,0:0:0:0:
161,0,102045,6,0,P|216:37|217:100,1,135.000005149842,2|10,1:0|0:0,0:0:0:0:
138,131,102405,2,0,P|75:104|5:94,1,135.000005149842,2|2,0:0|0:0,0:0:0:0:
206,182,102765,1,10,0:0:0:0:
206,182,102885,2,0,B|191:238|191:238|197:262|197:262|182:326,1,135.000005149842,2|2,1:0|1:0,0:0:0:0:
255,384,103245,2,0,P|284:371|330:362,1,67.5000025749208,10|0,0:0|0:0,0:0:0:0:
411,374,103485,1,2,1:0:0:0:
411,374,103605,1,0,1:0:0:0:
374,294,103725,2,0,L|382:225,1,67.5000025749208,10|0,0:0|0:0,0:0:0:0:
441,131,103965,5,2,1:0:0:0:
410,53,104085,2,0,P|378:68|341:74,1,67.5000025749208,14|0,0:0|0:0,0:0:0:0:
284,21,104325,5,2,1:0:0:0:
204,0,104445,2,0,P|194:34|175:66,1,67.5000025749208,14|0,0:0|0:0,0:0:0:0:
98,76,104685,5,2,1:0:0:0:
31,124,104805,2,0,P|51:152|63:188,1,67.5000025749208,14|0,0:0|0:0,0:0:0:0:
33,264,105045,6,0,L|-10:271,2,33.7500012874604,10|8|10,0:0|0:0|0:0,0:0:0:0:
117,248,105285,1,10,0:0:0:0:
194,270,105405,1,10,0:0:0:0:
247,330,105525,1,8,0:0:0:0:
326,346,105645,1,10,0:0:0:0:
405,329,105765,1,8,0:0:0:0:
417,93,106605,6,0,B|430:123|430:123|429:99,2,45.0000017166138,2|2|2,0:0|0:0|0:0,0:0:0:0:
403,0,106845,6,0,P|339:22|267:42,1,135.000005149842,6|10,1:0|0:0,0:0:0:0:
192,68,107205,1,0,0:0:0:0:
137,0,107325,2,0,P|162:20|179:59,1,67.5000025749208,2|0,1:0|0:0,0:0:0:0:
89,130,107565,1,8,0:0:0:0:
89,130,107685,2,0,P|154:139|227:157,1,135.000005149842,2|0,1:0|1:0,0:0:0:0:
292,206,108045,2,0,P|308:175|301:126,1,67.5000025749208,10|0,0:0|0:0,0:0:0:0:
252,75,108285,1,2,1:0:0:0:
252,75,108405,1,0,1:0:0:0:
310,0,108525,2,0,P|339:16|379:25,1,67.5000025749208,10|0,0:0|0:0,0:0:0:0:
512,88,108765,6,0,P|453:117|440:188,1,135.000005149842,2|8,1:0|0:0,0:0:0:0:
512,278,109245,1,2,1:0:0:0:
512,278,109365,1,0,0:0:0:0:
460,331,109485,1,8,0:0:0:0:
396,267,109605,2,0,P|331:283|247:294,1,135.000005149842,2|0,1:0|1:0,0:0:0:0:
174,278,109965,2,0,P|179:246|209:221,1,67.5000025749208,10|0,0:0|0:0,0:0:0:0:
291,209,110205,1,2,1:0:0:0:
291,209,110325,1,0,1:0:0:0:
206,359,110445,2,0,P|172:359|123:370,1,67.5000025749208,10|0,0:0|0:0,0:0:0:0:
248,127,110685,6,0,P|310:116|367:156,1,135.000005149842,2|10,1:0|0:0,0:0:0:0:
422,238,111165,1,2,1:0:0:0:
422,238,111285,1,0,0:0:0:0:
491,211,111405,1,8,0:0:0:0:
499,133,111525,2,0,P|432:141|360:156,1,135.000005149842,2|0,1:0|1:0,0:0:0:0:
291,209,111885,2,0,P|298:243|303:283,1,67.5000025749208,10|0,0:0|0:0,0:0:0:0:
253,366,112125,1,2,1:0:0:0:
253,366,112245,1,0,1:0:0:0:
197,316,112365,1,10,0:0:0:0:
72,380,112605,6,0,P|34:377|35:288,1,135.000005149842,2|8,1:0|0:0,0:0:0:0:
67,185,113085,2,0,P|94:200|131:211,1,67.5000025749208,2|0,1:0|0:0,0:0:0:0:
216,229,113325,1,8,0:0:0:0:
302,80,113445,2,0,B|223:101|265:138|181:153,1,135.000005149842,2|0,1:0|1:0,0:0:0:0:
315,168,113805,2,0,P|348:172|387:183,1,67.5000025749208,10|0,0:0|0:0,0:0:0:0:
481,234,114045,1,2,1:0:0:0:
481,234,114165,1,0,1:0:0:0:
463,149,114285,2,0,P|468:115|474:64,1,67.5000025749208,10|0,0:0|0:0,0:0:0:0:
381,181,114525,6,0,P|346:229|364:300,1,135.000005149842,6|10,1:0|0:0,0:0:0:0:
282,384,115005,2,0,P|251:371|213:366,1,67.5000025749208,2|0,1:0|0:0,0:0:0:0:
152,300,115245,1,8,0:0:0:0:
89,367,115365,2,0,P|58:307|83:244,1,135.000005149842,2|0,1:0|1:0,0:0:0:0:
79,153,115725,2,0,P|108:167|165:173,1,67.5000025749208,10|0,0:0|0:0,0:0:0:0:
312,207,115965,1,2,1:0:0:0:
312,207,116085,1,0,1:0:0:0:
372,147,116205,2,0,L|364:73,1,67.5000025749208,10|0,0:0|0:0,0:0:0:0:
297,0,116445,6,0,P|232:24|159:38,1,135.000005149842,2|8,1:0|0:0,0:0:0:0:
31,33,116925,1,2,1:0:0:0:
31,33,117045,1,0,0:0:0:0:
98,63,117165,1,8,0:0:0:0:
108,136,117285,2,0,P|94:202|81:289,1,135.000005149842,2|0,1:0|1:0,0:0:0:0:
169,248,117645,2,0,P|174:214|181:181,1,67.5000025749208,10|0,0:0|0:0,0:0:0:0:
184,100,117885,1,2,1:0:0:0:
184,100,118005,1,0,1:0:0:0:
257,142,118125,2,0,P|287:155|331:160,1,67.5000025749208,10|0,0:0|0:0,0:0:0:0:
469,144,118365,6,0,P|481:83|440:20,2,135.000005149842,4|10|2,1:0|0:0|1:0,0:0:0:0:
394,143,118965,1,0,0:0:0:0:
406,216,119085,1,8,0:0:0:0:
406,216,119205,2,0,B|352:235|352:235|344:252|344:252|281:272,1,135.000005149842,2|0,1:0|1:0,0:0:0:0:
181,285,119565,2,0,P|211:303|226:348,1,67.5000025749208,10|0,0:0|0:0,0:0:0:0:
141,384,119805,1,2,1:0:0:0:
141,384,119925,1,0,1:0:0:0:
69,363,120045,2,0,L|77:282,1,67.5000025749208,10|0,0:0|0:0,0:0:0:0:
0,202,120285,6,0,P|64:191|135:165,1,135.000005149842,2|8,1:0|0:0,0:0:0:0:
239,168,120765,1,2,1:0:0:0:
239,168,120885,1,0,0:0:0:0:
185,116,121005,1,8,0:0:0:0:
237,29,121125,6,0,B|316:39|265:76|370:89,1,135.000005149842,2|0,1:0|1:0,0:0:0:0:
448,91,121485,2,0,P|466:65|458:18,1,67.5000025749208,10|0,0:0|0:0,0:0:0:0:
360,0,121725,1,2,1:0:0:0:
360,0,121845,1,0,1:0:0:0:
400,166,121965,1,10,0:0:0:0:
354,86,122085,1,0,0:0:0:0:
491,231,122205,6,0,P|427:247|349:274,2,135.000005149842,6|2|2,1:0|0:0|0:0,0:0:0:0:
357,351,122925,1,2,0:0:0:0:
289,309,123045,6,0,P|276:247|323:192,2,135.000005149842,2|2|2,0:0|0:0|0:0,0:0:0:0:
357,351,123645,1,2,0:0:0:0:
222,26,124125,6,0,P|153:12|91:52,1,135.000005149842,6|10,1:0|0:0,0:0:0:0:
16,27,124485,1,2,0:0:0:0:
43,108,124605,2,0,P|57:175|69:258,1,135.000005149842,2|10,1:0|0:0,0:0:0:0:
33,318,124965,2,0,P|77:275|149:280,1,135.000005149842,2|2,1:0|1:0,0:0:0:0:
239,269,125325,2,0,P|227:301|221:342,1,67.5000025749208,10|2,0:0|0:0,0:0:0:0:
298,384,125565,1,2,1:0:0:0:
298,384,125685,1,0,1:0:0:0:
374,345,125805,1,8,0:0:0:0:
274,167,126045,6,0,P|209:159|153:215,2,135.000005149842,2|10|2,1:0|0:0|1:0,0:0:0:0:
385,249,126765,1,10,0:0:0:0:
385,249,126885,2,0,P|393:181|406:114,1,135.000005149842,2|2,1:0|1:0,0:0:0:0:
336,0,127245,2,0,P|306:20|263:23,1,67.5000025749208,10|2,0:0|0:0,0:0:0:0:
177,0,127485,1,2,1:0:0:0:
177,0,127605,1,0,1:0:0:0:
133,75,127725,2,0,P|99:64|59:58,1,67.5000025749208,8|0,0:0|0:0,0:0:0:0:
229,118,127965,6,0,L|216:200,2,67.5000025749208,2|2|10,1:0|0:0|0:0,0:0:0:0:
319,95,128325,1,2,0:0:0:0:
319,95,128445,2,0,B|401:108|352:140|447:160,1,135.000005149842,2|10,1:0|0:0,0:0:0:0:
494,232,128805,1,2,1:0:0:0:
494,232,128925,2,0,P|496:266|469:300,1,67.5000025749208,8|2,0:0|1:0,0:0:0:0:
401,332,129165,2,0,P|366:334|332:307,1,67.5000025749208,10|0,0:0|0:0,0:0:0:0:
301,239,129405,1,2,1:0:0:0:
320,36,129885,6,0,P|262:64|185:73,1,135.000005149842,6|10,1:0|0:0,0:0:0:0:
29,0,130365,2,0,P|82:22|106:93,1,135.000005149842,2|10,1:0|0:0,0:0:0:0:
35,117,130725,2,0,P|97:133|172:162,1,135.000005149842,2|2,1:0|1:0,0:0:0:0:
221,223,131085,2,0,P|244:198|247:149,1,67.5000025749208,10|2,0:0|0:0,0:0:0:0:
150,85,131325,2,0,P|105:133|99:228,1,135.000005149842,2|8,1:0|0:0,0:0:0:0:
127,344,131805,6,0,B|171:329|171:329|190:334|190:334|190:338|190:338|208:345|208:345|277:321,1,135.000005149842,2|10,1:0|0:0,0:0:0:0:
399,335,132285,2,0,B|395:323|395:323|396:318|396:318|393:300,4,33.7500012874604,2|0|0|0|10,1:0|0:0|0:0|0:0|0:0,0:0:0:0:
475,259,132645,2,0,B|454:238|443:205|443:205|406:190|365:216,1,135.000005149842,2|2,1:0|1:0,0:0:0:0:
281,204,133005,2,0,P|294:234|298:269,1,67.5000025749208,10|2,0:0|0:0,0:0:0:0:
251,330,133245,1,2,1:0:0:0:
251,330,133365,1,0,1:0:0:0:
176,308,133485,2,0,P|163:278|159:243,1,67.5000025749208,8|0,0:0|0:0,0:0:0:0:
60,125,133725,6,0,P|125:140|204:149,2,135.000005149842,6|14|6,1:0|0:0|1:0,0:0:0:0:
233,64,134445,1,14,0:0:0:0:
233,64,134565,2,0,P|276:111|275:190,1,135.000005149842,6|6,1:0|1:0,0:0:0:0:
213,237,134925,2,0,P|180:225|142:220,1,67.5000025749208,14|2,0:0|1:0,0:0:0:0:
296,266,135165,2,0,P|356:245|429:233,1,135.000005149842,6|8,1:0|0:0,0:0:0:0:
439,48,135645,6,0,P|444:31|450:44,4,33.7500012874604,2|0|2|0|10,1:0|0:0|0:0|0:0|0:0,0:0:0:0:
379,116,136005,1,2,0:0:0:0:
305,44,136125,2,0,P|321:37|314:50,4,33.7500012874604,2|0|2|0|10,1:0|0:0|0:0|0:0|0:0,0:0:0:0:
237,98,136485,2,0,P|172:83|95:74,1,135.000005149842,2|2,1:0|1:0,0:0:0:0:
22,64,136845,2,0,P|20:99|47:133,1,67.5000025749208,10|10,0:0|0:0,0:0:0:0:
93,189,137085,1,10,0:0:0:0:
127,262,137205,1,8,0:0:0:0:
54,296,137325,1,8,0:0:0:0:
20,223,137445,1,8,0:0:0:0:
79,384,137565,6,0,P|132:345|208:359,1,135.000005149842,6|10,1:0|0:0,0:0:0:0:
417,348,138045,2,0,P|349:340|278:313,1,135.000005149842,2|10,1:0|0:0,0:0:0:0:
210,263,138405,1,0,1:0:0:0:
210,263,138525,2,0,P|221:232|227:190,1,67.5000025749208,2|0,0:0|0:0,0:0:0:0:
311,155,138765,2,0,P|299:123|294:89,1,67.5000025749208,10|0,0:0|0:0,0:0:0:0:
275,0,139005,2,0,P|206:8|213:71,1,135.000005149842,2|10,1:0|0:0,0:0:0:0:
311,155,139485,6,0,P|381:166|446:184,1,135.000005149842,2|10,1:0|0:0,0:0:0:0:
512,288,139965,2,0,B|435:296|482:346|386:357,1,135.000005149842,2|10,1:0|0:0,0:0:0:0:
320,377,140325,1,0,1:0:0:0:
257,324,140445,2,0,P|265:292|270:241,1,67.5000025749208,2|0,0:0|1:0,0:0:0:0:
208,193,140685,2,0,P|176:201|125:206,1,67.5000025749208,10|0,0:0|1:0,0:0:0:0:
277,73,140925,2,0,P|344:70|396:121,1,135,6|0,1:0|0:0,0:0:0:0:
208,193,141405,6,0,P|198:127|183:48,1,135.000005149842,6|10,1:0|0:0,0:0:0:0:
0,54,141885,2,0,P|43:6|109:10,1,135.000005149842,2|10,1:0|0:0,0:0:0:0:
185,59,142245,1,0,1:0:0:0:
126,128,142365,2,0,P|94:121|48:116,1,67.5000025749208,2|0,0:0|1:0,0:0:0:0:
208,193,142605,2,0,P|239:186|286:181,1,67.5000025749208,10|0,0:0|0:0,0:0:0:0:
357,120,142845,1,2,1:0:0:0:
357,120,142965,1,0,1:0:0:0:
442,158,143085,2,0,L|423:224,1,67.5000025749208,10|0,0:0|0:0,0:0:0:0:
450,350,143325,6,0,P|399:311|327:313,1,135.000005149842,2|10,1:0|0:0,0:0:0:0:
226,384,143805,2,0,P|238:320|246:247,1,135.000005149842,2|10,1:0|0:0,0:0:0:0:
210,154,144165,1,0,1:0:0:0:
210,154,144285,2,0,P|176:161|138:172,1,67.5000025749208,2|0,0:0|1:0,0:0:0:0:
0,167,144525,2,0,P|27:187|57:213,1,67.5000025749208,10|0,0:0|1:0,0:0:0:0:
107,329,144765,2,0,P|120:297|133:259,1,67.5000025749208,10|0,0:0|1:0,0:0:0:0:
208,144,145005,2,0,P|174:151|136:162,1,67.5000025749208,8|0,0:0|0:0,0:0:0:0:
291,227,145245,6,0,P|327:173|316:105,1,135.000005149842,6|10,1:0|0:0,0:0:0:0:
281,0,145725,2,0,P|344:23|414:34,1,135.000005149842,2|10,1:0|0:0,0:0:0:0:
512,63,146085,1,0,1:0:0:0:
512,63,146205,2,0,P|497:93|488:128,1,67.5000025749208,2|0,0:0|1:0,0:0:0:0:
512,231,146445,2,0,L|429:211,1,67.5000025749208,10|0,0:0|0:0,0:0:0:0:
316,106,146685,1,2,1:0:0:0:
316,106,146805,1,0,1:0:0:0:
422,110,146925,2,0,L|505:130,1,67.5000025749208,10|0,0:0|0:0,0:0:0:0:
250,172,147165,6,0,P|226:117|244:47,2,135.000005149842,2|10|2,1:0|0:0|1:0,0:0:0:0:
293,257,147885,1,10,0:0:0:0:
263,346,148005,1,0,1:0:0:0:
263,346,148125,2,0,B|209:335|209:335|185:347|185:347|124:336,1,135.000005149842,2|10,1:0|0:0,0:0:0:0:
29,384,148605,2,0,P|43:320|52:246,1,135,14|0,0:0|0:0,0:0:0:0:
57,123,149085,6,0,B|142:122|90:167|192:172,1,135.000005149842,6|10,1:0|0:0,0:0:0:0:
285,160,149565,2,0,P|307:109|263:44,1,135.000005149842,2|10,1:0|0:0,0:0:0:0:
196,1,149925,1,0,1:0:0:0:
196,1,150045,2,0,P|164:12|127:22,1,67.5000025749208,2|0,0:0|1:0,0:0:0:0:
267,46,150285,2,0,P|298:58|336:67,1,67.5000025749208,10|0,0:0|0:0,0:0:0:0:
432,30,150525,1,2,1:0:0:0:
432,30,150645,1,0,1:0:0:0:
468,98,150765,2,0,L|454:167,1,67.5000025749208,10|0,0:0|0:0,0:0:0:0:
360,221,151005,6,0,P|326:213|293:201,2,67.5000025749208,6|2|10,1:0|0:0|0:0,0:0:0:0:
456,289,151365,2,0,P|389:304|321:329,1,135.000005149842,6|2,1:0|1:0,0:0:0:0:
261,384,151725,2,0,P|229:372|196:365,1,67.5000025749208,10|0,0:0|0:0,0:0:0:0:
83,299,151965,6,0,P|82:268|106:234,2,67.5000025749208,6|2|10,1:0|0:0|0:0,0:0:0:0:
230,242,152325,2,0,P|232:305|183:374,1,135.000005149842,6|2,1:0|1:0,0:0:0:0:
0,277,152685,2,0,P|-1:246|23:212,1,67.5000025749208,10|8,0:0|0:0,0:0:0:0:
79,151,152925,2,0,L|69:85,2,67.5000025749208,10|2|2,0:0|1:0|0:0,0:0:0:0:
131,204,153285,1,2,1:0:0:0:
204,210,153405,1,0,1:0:0:0:
259,160,153525,1,2,1:0:0:0:
254,85,153645,2,0,P|241:56|229:21,1,67.5000025749208,10|2,0:0|1:0,0:0:0:0:
249,284,153885,6,0,P|228:289|201:300,8,33.7500012874604,10|10|8|10|10|8|8|8|10,0:0|0:0|0:0|0:0|0:0|0:0|0:0|0:0|0:0,0:0:0:0:
394,75,154845,6,0,P|428:131|421:203,3,135.000005149842,6|10|10|10,1:0|0:0|0:0|0:0,0:0:0:0:
327,152,156765,2,0,P|257:145|178:129,3,135.000005149842,10|10|10|10,0:0|0:0|0:0|0:0,0:0:0:0:
0,95,158685,6,0,P|57:104|92:175,3,135.000005149842,10|10|10|10,0:0|0:0|0:0|0:0,0:0:0:0:
42,297,160605,2,0,P|103:279|191:269,3,135.000005149842,10|10|10|10,0:0|0:0|0:0|0:0,0:0:0:0:
311,356,162525,6,0,B|300:301|300:301|307:282|307:282|295:224,3,135.000005149842,14|10|10|10,0:0|0:0|0:0|0:0,0:0:0:0:
307,98,164445,2,0,B|388:102|349:138|443:147,3,135.000005149842,10|10|10|10,0:0|0:0|0:0|0:0,0:0:0:0:
202,186,166365,6,0,P|186:123|166:55,3,135.000005149842,10|10|10|10,0:0|0:0|0:0|0:0,0:0:0:0:
33,290,168285,2,0,P|99:291|149:346,1,135.000005149842,10|10,0:0|0:0,0:0:0:0:
287,328,169245,2,0,L|294:255,2,67.5000025749208,2|0|12,1:0|1:0|0:0,0:0:0:0:
205,75,170205,6,0,B|155:92|155:92|142:116|142:116|79:139,1,135.000005149842,6|8,1:0|0:0,0:0:0:0:
0,106,170565,1,0,0:0:0:0:
0,203,170685,2,0,P|61:215|148:244,1,135.000005149842,2|8,1:0|0:0,0:0:0:0:
137,342,171045,2,0,P|201:321|267:308,1,135.000005149842,2|0,1:0|1:0,0:0:0:0:
347,354,171405,2,0,P|360:324|352:281,1,67.5000025749208,10|0,0:0|0:0,0:0:0:0:
358,185,171645,1,2,1:0:0:0:
278,234,171765,1,0,1:0:0:0:
206,172,171885,2,0,P|174:179|134:185,1,67.5000025749208,10|0,0:0|0:0,0:0:0:0:
353,93,172125,6,0,P|418:107|447:165,1,135.000005149842,2|10,1:0|0:0,0:0:0:0:
278,234,172485,1,0,0:0:0:0:
278,234,172605,2,0,P|265:170|246:101,1,135.000005149842,2|10,1:0|0:0,0:0:0:0:
178,0,172965,2,0,B|99:11|142:43|59:64,1,135.000005149842,0|0,1:0|1:0,0:0:0:0:
0,120,173325,2,0,P|10:152|15:188,1,67.5000025749208,10|0,0:0|0:0,0:0:0:0:
0,303,173565,1,2,1:0:0:0:
0,303,173685,1,0,1:0:0:0:
96,254,173805,2,0,P|132:245|168:244,1,67.5000025749208,10|0,0:0|0:0,0:0:0:0:
272,327,174045,6,0,P|257:263|248:194,1,135.000005149842,2|8,1:0|0:0,0:0:0:0:
286,103,174405,1,0,0:0:0:0:
171,97,174525,2,0,P|166:130|156:162,2,67.5000025749208,2|0|8,1:0|0:0|0:0,0:0:0:0:
248,194,174885,2,0,B|327:192|286:234|385:237,1,135.000005149842,2|0,1:0|1:0,0:0:0:0:
247,294,175245,2,0,P|212:296|170:307,1,67.5000025749208,10|0,0:0|0:0,0:0:0:0:
94,361,175485,1,2,1:0:0:0:
94,361,175605,1,0,1:0:0:0:
31,280,175725,2,0,P|21:248|29:216,1,67.5000025749208,10|0,0:0|0:0,0:0:0:0:
51,52,175965,6,0,P|100:91|177:95,3,135.000005149842,2|10|2|10,1:0|0:0|1:0|0:0,0:0:0:0:
251,0,176805,2,0,P|259:63|274:141,1,135.000005149842,0|0,1:0|1:0,0:0:0:0:
229,212,177165,2,0,P|200:193|169:186,1,67.5000025749208,10|0,0:0|0:0,0:0:0:0:
323,209,177405,2,0,P|355:201|383:182,2,67.5000025749208,2|0|8,1:0|1:0|0:0,0:0:0:0:
283,318,177885,5,6,1:0:0:0:
283,318,178005,1,2,0:0:0:0:
199,297,178125,1,10,0:0:0:0:
125,384,178245,2,0,P|120:350|107:307,1,67.5000025749208,2|0,0:0|1:0,0:0:0:0:
44,263,178485,2,0,P|49:229|62:186,1,67.5000025749208,2|8,0:0|0:0,0:0:0:0:
13,100,178725,6,0,B|64:89|64:89|82:97|82:97|152:83,1,135.000005149842,2|2,1:0|1:0,0:0:0:0:
204,0,179085,1,10,0:0:0:0:
278,50,179205,1,2,0:0:0:0:
366,29,179325,2,0,P|355:62|348:106,1,67.5000025749208,2|2,1:0|1:0,0:0:0:0:
237,181,179565,2,0,L|159:193,1,67.5000025749208,10|0,0:0|0:0,0:0:0:0:
333,196,179805,6,0,P|346:227|342:263,1,67.5000025749208,2|2,1:0|0:0,0:0:0:0:
319,380,180045,1,10,0:0:0:0:
392,371,180165,2,0,P|325:355|259:345,1,135.000005149842,2|2,0:0|0:0,0:0:0:0:
172,384,180525,1,8,0:0:0:0:
79,328,180645,2,0,P|55:266|70:192,1,135.000005149842,2|2,1:0|1:0,0:0:0:0:
90,92,181005,2,0,P|123:104|166:110,1,67.5000025749208,10|2,0:0|0:0,0:0:0:0:
243,180,181245,1,2,1:0:0:0:
243,180,181365,1,2,1:0:0:0:
315,93,181485,2,0,L|301:19,1,67.5000025749208,10|0,0:0|0:0,0:0:0:0:
478,141,181725,6,0,B|403:151|441:192|361:203,1,135.000005149842,2|10,1:0|0:0,0:0:0:0:
243,180,182085,2,0,P|280:241|284:307,1,135.000005149842,2|2,0:0|0:0,0:0:0:0:
242,384,182445,1,10,0:0:0:0:
194,309,182565,2,0,P|130:294|59:286,1,135.000005149842,2|2,1:0|1:0,0:0:0:0:
0,220,182925,2,0,P|10:187|12:146,1,67.5000025749208,10|0,0:0|0:0,0:0:0:0:
37,55,183165,1,2,1:0:0:0:
104,130,183285,1,0,1:0:0:0:
142,37,183405,2,0,L|209:44,1,67.5000025749208,10|0,0:0|0:0,0:0:0:0:
288,6,183645,5,2,1:0:0:0:
365,40,183765,2,0,L|349:116,1,67.5000025749208,14|0,0:0|0:0,0:0:0:0:
448,56,184005,5,2,1:0:0:0:
471,136,184125,2,0,L|402:172,1,67.5000025749208,14|0,0:0|0:0,0:0:0:0:
512,210,184365,5,2,1:0:0:0:
466,279,184485,2,0,L|393:250,1,67.5000025749208,14|0,0:0|0:0,0:0:0:0:
315,198,184725,2,0,L|319:159,2,33.7500012874604,10|8|10,0:0|0:0|0:0,0:0:0:0:
251,247,184965,1,10,0:0:0:0:
221,323,185085,1,10,0:0:0:0:
140,327,185205,1,8,0:0:0:0:
95,259,185325,1,10,0:0:0:0:
150,200,185445,1,8,0:0:0:0:
93,141,185565,5,4,1:0:0:0:
256,192,185685,12,0,192285,0:0:0:0:
256,192,192585,6,0,L|263:239,3,33.7500012874604,0|0|0|0,1:0|1:0|1:0|1:0,0:0:0:0:
173,0,193245,6,0,P|91:30|-5:45,1,180,6|2,1:0|0:0,0:0:0:0:
70,142,193965,1,0,1:0:0:0:
70,142,194205,2,0,P|113:125|165:117,1,90,10|2,0:0|0:0,0:0:0:0:
256,191,194685,1,2,0:0:0:0:
256,191,194925,1,0,1:0:0:0:
329,130,195165,1,0,0:0:0:0:
418,166,195405,6,0,P|405:230|393:310,2,135,2|2|10,1:0|1:0|0:0,0:0:0:0:
418,166,196605,1,0,0:0:0:0:
418,166,196845,1,0,1:0:0:0:
326,356,197085,6,0,P|255:312|153:314,1,180,4|2,1:0|0:0,0:0:0:0:
160,311,197805,1,2,1:0:0:0:
62,337,198045,2,0,P|72:294|77:244,1,90,10|0,0:0|0:0,0:0:0:0:
56,111,198525,2,0,P|82:148|134:162,1,90,0|0,0:0|1:0,0:0:0:0:
247,166,199005,1,0,0:0:0:0:
338,133,199245,6,0,P|331:62|315:-4,2,135,2|2|10,1:0|1:0|0:0,0:0:0:0:
247,166,200205,1,0,0:0:0:0:
323,225,200445,1,2,0:0:0:0:
323,225,200685,1,2,1:0:0:0:
291,327,200925,6,0,P|207:305|106:293,1,180,6|2,1:0|0:0,0:0:0:0:
114,293,201645,1,0,1:0:0:0:
187,203,201885,2,0,P|228:218|277:222,1,90,10|0,0:0|0:0,0:0:0:0:
387,179,202365,2,0,P|398:141|365:100,1,90,2|0,0:0|1:0,0:0:0:0:
265,45,202845,1,0,0:0:0:0:
141,77,203085,6,0,B|214:93|176:122|262:141,2,135,2|2|10,1:0|1:0|0:0,0:0:0:0:
51,121,204045,2,0,P|45:93|35:60,2,45,0|0|2,0:0|0:0|0:0,0:0:0:0:
128,165,204525,1,2,1:0:0:0:
39,240,204765,6,0,P|131:257|221:285,1,180,6|2,1:0|0:0,0:0:0:0:
213,282,205485,1,2,1:0:0:0:
327,230,205725,2,0,L|307:125,2,90,10|2|2,0:0|0:0|0:0,0:0:0:0:
472,306,206445,6,0,P|396:302|356:406,1,180,2|2,1:0|1:0,0:0:0:0:
350,384,207165,1,2,0:0:0:0:
245,384,207285,2,0,L|255:240,1,135,2|8,1:0|0:0,0:0:0:0:
310,167,207885,1,2,1:0:0:0:
233,44,208125,2,0,L|242:-16,1,45,2|0,1:0|0:0,0:0:0:0:
312,12,208365,2,0,L|305:56,1,45,2|0,1:0|0:0,0:0:0:0:
62,105,208605,6,0,B|186:108|106:163|246:173,1,180,6|0,1:0|0:0,0:0:0:0:
352,202,209325,2,0,L|359:143,1,45,2|0,1:0|0:0,0:0:0:0:
464,87,209565,2,0,P|387:110|282:120,1,180,14|2,0:0|0:0,0:0:0:0:
222,170,210285,1,2,1:0:0:0:
288,313,210765,6,0,P|335:266|406:268,2,135,2|2|10,1:0|1:0|0:0,0:0:0:0:
235,384,211725,1,2,0:0:0:0:
161,333,211965,2,0,P|170:290|176:230,1,90,2|2,0:0|1:0,0:0:0:0:
0,132,212445,6,0,B|109:112|55:171|177:150,1,180,4|0,1:0|0:0,0:0:0:0:
256,199,213165,1,2,1:0:0:0:
333,134,213405,2,0,P|346:80|264:111,1,180,14|2,0:0|0:0,0:0:0:0:
256,199,214125,1,0,1:0:0:0:
256,199,214365,1,0,0:0:0:0:
352,237,214605,6,0,P|416:222|491:217,2,135,2|0|10,1:0|1:0|0:0,0:0:0:0:
270,299,215565,1,2,0:0:0:0:
163,235,215805,2,0,P|169:189|173:141,1,90,2|0,0:0|1:0,0:0:0:0:
62,43,216285,6,0,P|150:36|242:-6,1,180,6|0,1:0|0:0,0:0:0:0:
215,122,217005,1,2,1:0:0:0:
215,122,217245,2,0,P|169:125|121:147,1,90,14|0,0:0|0:0,0:0:0:0:
46,193,217725,2,0,P|60:234|71:286,1,90,2|2,0:0|1:0,0:0:0:0:
56,370,218205,1,0,0:0:0:0:
245,378,218445,6,0,P|223:338|137:341,2,135,2|0|10,1:0|1:0|0:0,0:0:0:0:
156,238,219405,1,2,0:0:0:0:
330,220,219645,2,0,P|319:262|311:308,1,90,2|0,0:0|1:0,0:0:0:0:
508,178,220125,6,0,B|520:131|483:103|433:114|433:114|427:143|406:169,1,180,4|0,1:0|0:0,0:0:0:0:
330,220,220845,1,2,1:0:0:0:
206,146,221085,2,0,P|254:91|351:109,1,180,14|2,0:0|0:0,0:0:0:0:
330,220,221805,1,2,1:0:0:0:
330,220,222045,1,0,0:0:0:0:
230,247,222285,6,0,P|168:231|94:224,2,135,2|0|10,1:0|1:0|0:0,0:0:0:0:
330,220,223245,1,2,0:0:0:0:
44,160,223485,2,0,P|16:194|18:245,1,90,2|0,0:0|1:0,0:0:0:0:
73,357,223965,5,4,1:0:0:0:
176,340,224205,2,0,L|160:250,2,90,2|2|2,0:0|0:0|1:0,0:0:0:0:
277,360,224925,2,0,L|243:168,1,180,14|2,0:0|0:0,0:0:0:0:
221,86,225645,1,2,1:0:0:0:
221,86,225885,1,0,0:0:0:0:
345,110,226125,6,0,P|411:102|479:74,2,135,2|0|10,1:0|1:0|0:0,0:0:0:0:
221,86,227085,1,2,0:0:0:0:
474,76,227325,2,0,P|465:121|459:167,1,90,2|2,0:0|1:0,0:0:0:0:
512,273,227805,1,4,1:0:0:0:
377,310,228045,6,0,L|282:294,2,90,2|2|2,0:0|0:0|1:0,0:0:0:0:
390,223,228765,1,14,0:0:0:0:
386,205,229005,1,2,0:0:0:0:
311,151,229245,1,2,0:0:0:0:
310,38,229485,2,0,P|274:65|213:68,1,90,2|0,1:0|0:0,0:0:0:0:
75,0,229965,6,0,P|123:38|131:131,2,135,2|0|10,1:0|1:0|0:0,0:0:0:0:
0,57,230925,1,2,0:0:0:0:
78,215,231165,2,0,P|120:200|181:193,1,90,2|0,0:0|1:0,0:0:0:0:
256,257,231645,1,4,1:0:0:0:
351,106,231885,6,0,P|329:142|327:192,2,90,2|2|2,0:0|0:0|1:0,0:0:0:0:
347,1,232605,6,0,B|450:5|398:53|517:61,1,180,14|2,0:0|0:0,0:0:0:0:
351,106,233325,2,0,P|308:94|258:85,1,90,2|0,1:0|0:0,0:0:0:0:
126,70,233805,2,0,P|170:111|168:196,2,135,2|0|10,1:0|1:0|0:0,0:0:0:0:
34,78,234765,1,2,0:0:0:0:
89,214,235005,2,0,P|45:206|-9:204,1,90,2|0,0:0|1:0,0:0:0:0:
133,293,235485,6,0,B|154:253|203:245|241:271|241:271|224:296|221:333,1,180,4|2,1:0|0:0,0:0:0:0:
152,384,236205,1,2,1:0:0:0:
338,372,236445,2,0,B|327:305|327:305|338:272|338:272|320:194,1,180,14|2,0:0|0:0,0:0:0:0:
314,97,237165,2,0,P|271:101|241:136,1,90,2|0,1:0|0:0,0:0:0:0:
101,196,237645,6,0,P|167:208|239:228,2,135,2|0|10,1:0|1:0|0:0,0:0:0:0:
140,121,238605,1,2,0:0:0:0:
101,196,238845,1,2,0:0:0:0:
88,52,239085,1,2,1:0:0:0:
228,121,239325,5,2,1:0:0:0:
349,198,240285,1,2,1:0:0:0:
272,319,241245,1,2,1:0:0:0:
151,242,242205,1,2,1:0:0:0:
310,106,243165,5,2,1:0:0:0:
354,302,244125,1,2,1:0:0:0:
158,345,245085,1,2,1:0:0:0:
114,149,246045,1,2,1:0:0:0:
378,139,247005,5,2,1:0:0:0:
324,383,247965,1,2,1:0:0:0:
79,329,248925,1,2,1:0:0:0:
134,84,249885,1,2,1:0:0:0:
403,185,250845,5,2,1:0:0:0:
250,384,251805,1,2,1:0:0:0:
155,305,252285,2,0,L|168:214,1,90,2|2,0:0|0:0,0:0:0:0:
250,384,252765,1,2,0:0:0:0:
