osu file format v14

[General]
AudioFilename: audio.mp3
AudioLeadIn: 0
PreviewTime: 86565
Countdown: 0
SampleSet: Soft
StackLeniency: 0.7
Mode: 0
LetterboxInBreaks: 0
WidescreenStoryboard: 1

[Editor]
Bookmarks: 19485,27165,34845,42525,50205,54045,57885,71325,75165,90525,106845,122205,129885,137565,170205,208605,223965,239325,252765
DistanceSpacing: 0.7
BeatDivisor: 8
GridSize: 32
TimelineZoom: 1.8

[Metadata]
Title:Boatman
TitleUnicode:ボートマン
Artist:hitorie
ArtistUnicode:ヒトリエ
Creator:Kine
Version:Hard
Source:
Tags:jrock japanese j-rock wowaka boatman Rock WONDER and WONDER
BeatmapID:3946445
BeatmapSetID:1903334

[Difficulty]
HPDrainRate:4.5
CircleSize:3.8
OverallDifficulty:6
ApproachRate:8
SliderMultiplier:2
SliderTickRate:1

[Events]
//Background and Video events
0,0,"a013d5a1afbdb0e56e96462de13e1b06c9b160ea_s2_n1.jpg",0,0
//Break Periods
//Storyboard Layer 0 (Background)
//Storyboard Layer 1 (Fail)
//Storyboard Layer 2 (Pass)
//Storyboard Layer 3 (Foreground)
//Storyboard Layer 4 (Overlay)
//Storyboard Sound Samples

[TimingPoints]
285,480,4,2,1,70,1,0
365,-100,4,2,1,5,0,0
765,-100,4,2,1,70,0,0
2285,-100,4,2,1,5,0,0
2685,-100,4,2,1,70,0,0
3725,-100,4,2,1,5,0,0
3765,-100,4,2,1,70,0,0
4125,480,4,2,1,70,1,0
4125,-100,4,2,1,70,0,0
4785,-100,4,2,1,5,0,0
4845,-100,4,2,1,70,0,0
6225,-100,4,2,1,5,0,0
6285,-100,4,2,1,70,0,0
6705,-100,4,2,1,5,0,0
6765,-100,4,2,1,70,0,0
7065,-100,4,2,1,5,0,0
7125,-100,4,2,1,70,0,0
8625,-100,4,2,1,5,0,0
8685,-100,4,2,1,70,0,0
8985,-100,4,2,1,5,0,0
9045,-100,4,2,1,70,0,0
10065,-100,4,2,1,5,0,0
10125,-100,4,2,1,70,0,0
10545,-100,4,2,1,5,0,0
10605,-100,4,2,1,70,0,0
10905,-100,4,2,1,5,0,0
10965,-100,4,2,1,70,0,0
12465,-100,4,2,1,5,0,0
12525,-100,4,2,1,70,0,0
13905,-100,4,2,1,5,0,0
13965,-100,4,2,1,70,0,0
14385,-100,4,2,1,5,0,0
14445,-100,4,2,1,70,0,0
14745,-100,4,2,1,5,0,0
14805,-100,4,2,1,70,0,0
16665,-100,4,2,1,5,0,0
16725,-100,4,2,1,70,0,0
17745,-100,4,2,1,5,0,0
17805,-100,4,2,1,70,0,0
18225,-100,4,2,1,5,0,0
18285,-100,4,2,1,70,0,0
18585,-100,4,2,1,5,0,0
18645,-100,4,2,1,70,0,0
18825,-100,4,2,1,5,0,0
18885,-100,4,2,1,70,0,0
19665,-100,4,2,1,5,0,0
19725,-100,4,2,1,70,0,0
20505,-100,4,2,1,5,0,0
20565,-100,4,2,1,70,0,0
21585,-100,4,2,1,5,0,0
21645,-100,4,2,1,70,0,0
22425,-100,4,2,1,5,0,0
22485,-100,4,2,1,70,0,0
23505,-100,4,2,1,5,0,0
23565,-100,4,2,1,70,0,0
23985,-100,4,2,1,5,0,0
24045,-100,4,2,1,70,0,0
24345,-100,4,2,1,5,0,0
24405,-100,4,2,1,70,0,0
25905,-100,4,2,1,5,0,0
25965,-100,4,2,1,70,0,0
26265,-100,4,2,1,5,0,0
26325,-100,4,2,1,70,0,0
27165,-100,4,2,1,70,0,0
27345,-100,4,2,1,5,0,0
27405,-100,4,2,1,70,0,0
27645,-100,4,2,1,70,0,0
27825,-100,4,2,1,5,0,0
27885,-100,4,2,1,70,0,0
28185,-100,4,2,1,5,0,0
28245,-100,4,2,1,70,0,0
28605,-100,4,2,1,70,0,0
29745,-100,4,2,1,5,0,0
29805,-100,4,2,1,70,0,0
30105,-100,4,2,1,5,0,0
30165,-100,4,2,1,70,0,0
31005,-100,4,2,1,70,0,0
31185,-100,4,2,1,5,0,0
31245,-100,4,2,1,70,0,0
31425,-100,4,2,1,5,0,0
31485,-100,4,2,1,70,0,0
31665,-100,4,2,1,5,0,0
31725,-100,4,2,1,70,0,0
31845,-100,4,2,1,70,0,0
32025,-100,4,2,1,5,0,0
32085,-100,4,2,1,70,0,0
32445,-100,4,2,1,70,0,0
33405,-100,4,2,1,70,0,0
33945,-100,4,2,1,5,0,0
34005,-100,4,2,1,70,0,0
34845,-100,4,2,1,70,0,0
35265,-100,4,2,1,5,0,0
35325,-100,4,2,1,70,0,0
35865,-100,4,2,1,5,0,0
35925,-100,4,2,1,70,0,0
36765,-100,4,2,1,70,0,0
37245,-100,4,2,1,70,0,0
37425,-100,4,2,1,5,0,0
37485,-100,4,2,1,70,0,0
37605,-100,4,2,1,70,0,0
37785,-100,4,2,1,5,0,0
37845,-100,4,2,1,70,0,0
38865,-100,4,2,1,5,0,0
38925,-100,4,2,1,70,0,0
39705,-100,4,2,1,5,0,0
39765,-100,4,2,1,70,0,0
40785,-100,4,2,1,5,0,0
40845,-100,4,2,1,70,0,0
41265,-100,4,2,1,5,0,0
41325,-100,4,2,1,70,0,0
41625,-100,4,2,1,5,0,0
41685,-100,4,2,1,70,0,0
42525,-100,4,2,1,70,0,0
42705,-100,4,2,1,5,0,0
42765,-100,4,2,1,70,0,0
43185,-100,4,2,1,5,0,0
43245,-100,4,2,1,70,0,0
43545,-100,4,2,1,5,0,0
43605,-100,4,2,1,70,0,0
44625,-100,4,2,1,5,0,0
44685,-100,4,2,1,70,0,0
45105,-100,4,2,1,5,0,0
45165,-100,4,2,1,70,0,0
45465,-100,4,2,1,5,0,0
45525,-100,4,2,1,70,0,0
46545,-100,4,2,1,5,0,0
46605,-100,4,2,1,70,0,0
47385,-100,4,2,1,5,0,0
47445,-100,4,2,1,70,0,0
50205,-100,4,2,1,70,0,0
50385,-100,4,2,1,5,0,0
50445,-100,4,2,1,70,0,0
50625,-100,4,2,1,5,0,0
50685,-100,4,2,1,70,0,0
50865,-100,4,2,1,5,0,0
50925,-100,4,2,1,70,0,0
51045,-100,4,2,1,70,0,0
51225,-100,4,2,1,5,0,0
51285,-100,4,2,1,70,0,0
51645,-100,4,2,1,70,0,0
52125,-100,4,2,1,70,0,0
52305,-100,4,2,1,5,0,0
52365,-100,4,2,1,70,0,0
52785,-100,4,2,1,5,0,0
52845,-100,4,2,1,70,0,0
53145,-100,4,2,1,5,0,0
53205,-100,4,2,1,70,0,0
54045,-100,4,2,1,70,0,0
54225,-100,4,2,1,5,0,0
54285,-100,4,2,1,70,0,0
54465,-100,4,2,1,5,0,0
54525,-100,4,2,1,70,0,0
54705,-100,4,2,1,5,0,0
54765,-100,4,2,1,70,0,0
55065,-100,4,2,1,5,0,0
55125,-100,4,2,1,70,0,0
56985,-100,4,2,1,5,0,0
57045,-100,4,2,1,70,0,0
57465,-100,4,2,1,5,0,0
57525,-100,4,2,1,70,0,0
58065,-100,4,2,1,5,0,0
58125,-100,4,2,1,70,0,0
58545,-100,4,2,1,5,0,0
58605,-100,4,2,1,70,0,0
59025,-100,4,2,1,5,0,0
59085,-100,4,2,1,70,0,0
59985,-100,4,2,1,5,0,0
60045,-100,4,2,1,70,0,0
60465,-100,4,2,1,5,0,0
60525,-100,4,2,1,70,0,0
61245,-100,4,2,1,70,0,0
61605,-100,4,2,1,5,0,0
61725,-100,4,2,1,70,0,0
61905,-100,4,2,1,5,0,0
61965,-100,4,2,1,70,0,0
62385,-100,4,2,1,5,0,0
62445,-100,4,2,1,70,0,0
63825,-100,4,2,1,5,0,0
63885,-100,4,2,1,70,0,0
64305,-100,4,2,1,5,0,0
64365,-100,4,2,1,70,0,0
65745,-100,4,2,1,5,0,0
65805,-100,4,2,1,70,0,0
66225,-100,4,2,1,5,0,0
66285,-100,4,2,1,70,0,0
67665,-100,4,2,1,5,0,0
67725,-100,4,2,1,70,0,0
68145,-100,4,2,1,5,0,0
68205,-100,4,2,1,70,0,0
68925,-100,4,2,1,70,0,0
69285,-100,4,2,1,5,0,0
69405,-100,4,2,1,70,0,0
69585,-100,4,2,1,5,0,0
69645,-100,4,2,1,70,0,0
70065,-100,4,2,1,5,0,0
70125,-100,4,2,1,70,0,0
71865,-100,4,2,1,5,0,0
71925,-100,4,2,1,70,0,0
72825,-100,4,2,1,5,0,0
72885,-100,4,2,1,70,0,0
74685,-100,4,2,1,70,0,0
75045,-100,4,2,1,5,0,0
75165,480,4,2,1,70,1,0
75165,-100,4,2,1,70,0,0
75225,-100,4,2,1,5,0,0
75645,-100,4,2,1,70,0,0
75705,-100,4,2,1,5,0,0
76125,-100,4,2,1,70,0,0
76185,-100,4,2,1,5,0,0
76605,-100,4,2,1,70,0,0
76665,-100,4,2,1,5,0,0
77085,-100,4,2,1,70,0,0
77145,-100,4,2,1,5,0,0
77565,-100,4,2,1,70,0,0
77625,-100,4,2,1,5,0,0
78045,-100,4,2,1,70,0,0
78105,-100,4,2,1,5,0,0
78525,-100,4,2,1,70,0,0
78585,-100,4,2,1,5,0,0
79005,-100,4,2,1,70,0,0
79065,-100,4,2,1,5,0,0
79485,-100,4,2,1,70,0,0
79545,-100,4,2,1,5,0,0
79965,-100,4,2,1,70,0,0
80025,-100,4,2,1,5,0,0
80445,-100,4,2,1,70,0,0
80505,-100,4,2,1,5,0,0
80925,-100,4,2,1,70,0,0
80985,-100,4,2,1,5,0,0
81405,-100,4,2,1,70,0,0
81465,-100,4,2,1,5,0,0
81885,-100,4,2,1,70,0,0
81945,-100,4,2,1,5,0,0
82365,-100,4,2,1,70,0,0
82425,-100,4,2,1,5,0,0
82845,-100,4,2,1,70,0,0
82905,-100,4,2,1,5,0,0
83325,-100,4,2,1,70,0,0
83385,-100,4,2,1,5,0,0
83805,-100,4,2,1,70,0,0
83865,-100,4,2,1,5,0,0
84285,-100,4,2,1,70,0,0
84345,-100,4,2,1,5,0,0
84765,-100,4,2,1,70,0,0
84825,-100,4,2,1,5,0,0
85245,-100,4,2,1,70,0,0
85305,-100,4,2,1,5,0,0
85725,-100,4,2,1,70,0,0
85785,-100,4,2,1,5,0,0
86205,-100,4,2,1,70,0,0
86265,-100,4,2,1,5,0,0
86685,-100,4,2,1,70,0,0
86745,-100,4,2,1,5,0,0
87165,-100,4,2,1,70,0,0
87225,-100,4,2,1,5,0,0
87645,-100,4,2,1,70,0,0
87705,-100,4,2,1,5,0,0
88125,-100,4,2,1,70,0,0
88185,-100,4,2,1,5,0,0
88605,-100,4,2,1,70,0,0
88665,-100,4,2,1,5,0,0
89085,-100,4,2,1,70,0,0
89145,-100,4,2,1,5,0,0
89565,-100,4,2,1,70,0,0
89625,-100,4,2,1,5,0,0
89805,-100,4,2,1,70,0,0
89865,-100,4,2,1,5,0,0
90045,-100,4,2,1,70,0,0
90105,-100,4,2,1,5,0,0
90525,-90.9090909090909,4,2,2,85,0,1
90765,-90.9090909090909,4,2,1,85,0,1
91545,-90.9090909090909,4,2,1,5,0,1
91605,-90.9090909090909,4,2,1,85,0,1
92625,-90.9090909090909,4,2,1,5,0,1
92685,-90.9090909090909,4,2,1,85,0,1
93105,-90.9090909090909,4,2,1,5,0,1
93165,-90.9090909090909,4,2,1,85,0,1
94545,-90.9090909090909,4,2,1,5,0,1
94605,-90.9090909090909,4,2,1,85,0,1
96465,-90.9090909090909,4,2,1,5,0,1
96525,-90.9090909090909,4,2,1,85,0,1
96945,-90.9090909090909,4,2,1,5,0,1
97005,-90.9090909090909,4,2,1,85,0,1
99225,-90.9090909090909,4,2,1,5,0,1
99285,-90.9090909090909,4,2,1,85,0,1
100665,-90.9090909090909,4,2,1,5,0,1
100725,-90.9090909090909,4,2,1,85,0,1
102585,-90.9090909090909,4,2,1,5,0,1
102645,-90.9090909090909,4,2,1,85,0,1
103065,-90.9090909090909,4,2,1,5,0,1
103125,-90.9090909090909,4,2,1,85,0,1
105765,-100,4,2,1,70,0,0
106845,480,4,2,1,70,1,0
106845,-100,4,2,1,70,0,0
107265,-100,4,2,1,5,0,0
107325,-100,4,2,1,70,0,0
107865,-100,4,2,1,5,0,0
107925,-100,4,2,1,70,0,0
108945,-100,4,2,1,5,0,0
109005,-100,4,2,1,70,0,0
109245,-100,4,2,1,70,0,0
109605,-100,4,2,1,70,0,0
109785,-100,4,2,1,5,0,0
109845,-100,4,2,1,70,0,0
111105,-100,4,2,1,5,0,0
111165,-100,4,2,1,70,0,0
111705,-100,4,2,1,5,0,0
111765,-100,4,2,1,70,0,0
113265,-100,4,2,1,5,0,0
113325,-100,4,2,1,70,0,0
113625,-100,4,2,1,5,0,0
113685,-100,4,2,1,70,0,0
114705,-100,4,2,1,5,0,0
114765,-100,4,2,1,70,0,0
115545,-100,4,2,1,5,0,0
115605,-100,4,2,1,70,0,0
117465,-100,4,2,1,5,0,0
117525,-100,4,2,1,70,0,0
119385,-100,4,2,1,5,0,0
119445,-100,4,2,1,70,0,0
121305,-100,4,2,1,5,0,0
121365,-100,4,2,1,70,0,0
122205,-100,4,2,1,70,0,0
124125,-100,4,2,1,70,0,0
124305,-100,4,2,1,5,0,0
124365,-100,4,2,1,70,0,0
124785,-100,4,2,1,5,0,0
124845,-100,4,2,1,70,0,0
125145,-100,4,2,1,5,0,0
125205,-100,4,2,1,70,0,0
126225,-100,4,2,1,5,0,0
126285,-100,4,2,1,70,0,0
126705,-100,4,2,1,5,0,0
126765,-100,4,2,1,70,0,0
127065,-100,4,2,1,5,0,0
127125,-100,4,2,1,70,0,0
129405,-100,4,2,1,70,0,0
129765,-100,4,2,1,5,0,0
129885,-100,4,2,1,70,0,0
130065,-100,4,2,1,5,0,0
130125,-100,4,2,1,70,0,0
130305,-100,4,2,1,5,0,0
130365,-100,4,2,1,70,0,0
130545,-100,4,2,1,5,0,0
130605,-100,4,2,1,70,0,0
130725,-100,4,2,1,70,0,0
130905,-100,4,2,1,5,0,0
130965,-100,4,2,1,70,0,0
131565,-100,4,2,1,70,0,0
133725,-100,4,2,1,70,0,0
133905,-100,4,2,1,5,0,0
133965,-100,4,2,1,70,0,0
134145,-100,4,2,1,5,0,0
134205,-100,4,2,1,70,0,0
134385,-100,4,2,1,5,0,0
134445,-100,4,2,1,70,0,0
134565,-100,4,2,1,70,0,0
134745,-100,4,2,1,5,0,0
134805,-100,4,2,1,70,0,0
135165,-100,4,2,1,70,0,0
135645,-100,4,2,1,70,0,0
136125,-100,4,2,1,70,0,0
137565,-100,4,2,1,70,0,0
137745,-100,4,2,1,5,0,0
137805,-100,4,2,1,70,0,0
138225,-100,4,2,1,5,0,0
138285,-100,4,2,1,70,0,0
139665,-100,4,2,1,5,0,0
139725,-100,4,2,1,70,0,0
140145,-100,4,2,1,5,0,0
140205,-100,4,2,1,70,0,0
140925,-100,4,2,1,70,0,0
141285,-100,4,2,1,5,0,0
141405,-100,4,2,1,70,0,0
142065,-100,4,2,1,5,0,0
142125,-100,4,2,1,70,0,0
143505,-100,4,2,1,5,0,0
143565,-100,4,2,1,70,0,0
143985,-100,4,2,1,5,0,0
144045,-100,4,2,1,70,0,0
145425,-100,4,2,1,5,0,0
145485,-100,4,2,1,70,0,0
145905,-100,4,2,1,5,0,0
145965,-100,4,2,1,70,0,0
147345,-100,4,2,1,5,0,0
147405,-100,4,2,1,70,0,0
147825,-100,4,2,1,5,0,0
147885,-100,4,2,1,70,0,0
148605,-100,4,2,1,70,0,0
148965,-100,4,2,1,5,0,0
149085,-100,4,2,1,70,0,0
149265,-100,4,2,1,5,0,0
149325,-100,4,2,1,70,0,0
149745,-100,4,2,1,5,0,0
149805,-100,4,2,1,70,0,0
151545,-100,4,2,1,5,0,0
151605,-100,4,2,1,70,0,0
152505,-100,4,2,1,5,0,0
152565,-100,4,2,1,70,0,0
154365,-100,4,2,1,70,0,0
154845,480,4,2,1,70,1,0
154845,-100,4,2,1,70,0,0
154905,-100,4,2,1,5,0,0
155325,-100,4,2,1,70,0,0
155385,-100,4,2,1,5,0,0
155805,-100,4,2,1,70,0,0
155865,-100,4,2,1,5,0,0
156285,-100,4,2,1,70,0,0
156345,-100,4,2,1,5,0,0
156765,-100,4,2,1,70,0,0
156825,-100,4,2,1,5,0,0
157245,-100,4,2,1,70,0,0
157305,-100,4,2,1,5,0,0
157725,-100,4,2,1,70,0,0
157785,-100,4,2,1,5,0,0
158205,-100,4,2,1,70,0,0
158265,-100,4,2,1,5,0,0
158685,-100,4,2,1,70,0,0
158745,-100,4,2,1,5,0,0
159165,-100,4,2,1,70,0,0
159225,-100,4,2,1,5,0,0
159645,-100,4,2,1,70,0,0
159705,-100,4,2,1,5,0,0
160125,-100,4,2,1,70,0,0
160185,-100,4,2,1,5,0,0
160605,-100,4,2,1,70,0,0
160665,-100,4,2,1,5,0,0
161085,-100,4,2,1,70,0,0
161145,-100,4,2,1,5,0,0
161565,-100,4,2,1,70,0,0
161625,-100,4,2,1,5,0,0
162045,-100,4,2,1,70,0,0
162105,-100,4,2,1,5,0,0
162525,-100,4,2,1,70,0,0
162585,-100,4,2,1,5,0,0
163005,-100,4,2,1,70,0,0
163065,-100,4,2,1,5,0,0
163485,-100,4,2,1,70,0,0
163545,-100,4,2,1,5,0,0
163965,-100,4,2,1,70,0,0
164025,-100,4,2,1,5,0,0
164445,-100,4,2,1,70,0,0
164505,-100,4,2,1,5,0,0
164925,-100,4,2,1,70,0,0
164985,-100,4,2,1,5,0,0
165405,-100,4,2,1,70,0,0
165465,-100,4,2,1,5,0,0
165885,-100,4,2,1,70,0,0
165945,-100,4,2,1,5,0,0
166365,-100,4,2,1,70,0,0
166425,-100,4,2,1,5,0,0
166845,-100,4,2,1,70,0,0
166905,-100,4,2,1,5,0,0
167325,-100,4,2,1,70,0,0
167385,-100,4,2,1,5,0,0
167805,-100,4,2,1,70,0,0
167865,-100,4,2,1,5,0,0
168285,-100,4,2,1,70,0,0
168345,-100,4,2,1,5,0,0
168765,-100,4,2,1,70,0,0
168825,-100,4,2,1,5,0,0
169245,-100,4,2,1,70,0,0
169305,-100,4,2,1,5,0,0
169485,-100,4,2,1,70,0,0
169545,-100,4,2,1,5,0,0
169725,-100,4,2,1,70,0,0
169785,-100,4,2,1,5,0,0
170205,-90.9090909090909,4,2,2,85,0,1
170445,-90.9090909090909,4,2,1,85,0,1
171225,-90.9090909090909,4,2,1,5,0,1
171285,-90.9090909090909,4,2,1,85,0,1
172305,-90.9090909090909,4,2,1,5,0,1
172365,-90.9090909090909,4,2,1,85,0,1
172785,-90.9090909090909,4,2,1,5,0,1
172845,-90.9090909090909,4,2,1,85,0,1
173145,-90.9090909090909,4,2,1,5,0,1
173205,-90.9090909090909,4,2,1,85,0,1
174225,-90.9090909090909,4,2,1,5,0,1
174285,-90.9090909090909,4,2,1,85,0,1
174705,-90.9090909090909,4,2,1,5,0,1
174765,-90.9090909090909,4,2,1,85,0,1
175065,-90.9090909090909,4,2,1,5,0,1
175125,-90.9090909090909,4,2,1,85,0,1
176145,-90.9090909090909,4,2,1,5,0,1
176205,-90.9090909090909,4,2,1,85,0,1
176625,-90.9090909090909,4,2,1,5,0,1
176685,-90.9090909090909,4,2,1,85,0,1
176985,-90.9090909090909,4,2,1,5,0,1
177045,-90.9090909090909,4,2,1,85,0,1
178905,-90.9090909090909,4,2,1,5,0,1
178965,-90.9090909090909,4,2,1,85,0,1
180345,-90.9090909090909,4,2,1,5,0,1
180405,-90.9090909090909,4,2,1,85,0,1
180825,-90.9090909090909,4,2,1,5,0,1
180885,-90.9090909090909,4,2,1,85,0,1
182265,-90.9090909090909,4,2,1,5,0,1
182325,-90.9090909090909,4,2,1,85,0,1
182745,-90.9090909090909,4,2,1,5,0,1
182805,-90.9090909090909,4,2,1,85,0,1
185565,-100,4,2,1,70,0,0
192285,-100,4,2,1,5,0,0
192585,-100,4,2,1,70,0,0
193245,-100,4,2,1,70,0,0
193545,-100,4,2,1,5,0,0
193605,-100,4,2,1,70,0,0
197385,-100,4,2,1,5,0,0
197445,-100,4,2,1,70,0,0
197865,-100,4,2,1,5,0,0
197925,-100,4,2,1,70,0,0
201225,-100,4,2,1,5,0,0
201285,-100,4,2,1,70,0,0
201705,-100,4,2,1,5,0,0
201765,-100,4,2,1,70,0,0
207705,-100,4,2,1,5,0,0
207765,-100,4,2,1,70,0,0
207945,-100,4,2,1,5,0,0
208005,-100,4,2,1,70,0,0
208125,-100,4,2,1,70,0,0
208185,-100,4,2,1,5,0,0
208365,-100,4,2,1,70,0,0
208425,-100,4,2,1,5,0,0
208605,-100,4,2,1,70,0,0
239325,-181.818181818181,4,2,1,70,0,0
239445,-100,4,2,1,5,0,0
240285,-100,4,2,1,70,0,0
240405,-100,4,2,1,5,0,0
241245,-100,4,2,1,70,0,0
241365,-100,4,2,1,5,0,0
242205,-181.818181818181,4,2,1,70,0,0
242325,-100,4,2,1,5,0,0
243165,-181.818181818181,4,2,1,70,0,0
243285,-100,4,2,1,5,0,0
244125,-100,4,2,1,70,0,0
244245,-100,4,2,1,5,0,0
245085,-100,4,2,1,70,0,0
245205,-100,4,2,1,5,0,0
246045,-100,4,2,1,70,0,0
246165,-100,4,2,1,5,0,0
247005,-181.818181818181,4,2,1,70,0,0
247125,-100,4,2,1,5,0,0
247965,-100,4,2,1,70,0,0
248085,-100,4,2,1,5,0,0
248925,-100,4,2,1,70,0,0
249045,-100,4,2,1,5,0,0
249885,-100,4,2,1,70,0,0
250005,-100,4,2,1,5,0,0
250845,-181.818181818181,4,2,1,70,0,0
250965,-100,4,2,1,5,0,0
251805,-100,4,2,1,70,0,0
251925,-100,4,2,1,5,0,0
252285,-181.818181818181,4,2,1,45,0,0

[Colours]
Combo1 : 247,243,136
Combo2 : 255,138,138
Combo3 : 192,192,192
Combo4 : 116,139,134
Combo5 : 254,221,107

[HitObjects]
41,78,4125,6,0,P|88:76|141:59,1,100,6|10,1:0|0:0,0:0:0:0:
228,16,4605,1,2,1:0:0:0:
315,65,4845,1,8,0:0:0:0:
315,65,4965,2,0,L|295:173,1,100,2|0,1:0|1:0,0:0:0:0:
298,213,5325,1,10,0:0:0:0:
223,279,5565,2,0,L|161:266,2,50,2|0|10,1:0|1:0|0:0,0:0:0:0:
285,356,6045,6,0,P|332:361|390:338,1,100,2|10,1:0|0:0,0:0:0:0:
467,293,6525,2,0,L|448:190,1,100,2|8,1:0|0:0,0:0:0:0:
439,145,6885,2,0,P|394:126|336:135,1,100,2|0,1:0|1:0,0:0:0:0:
303,160,7245,1,10,0:0:0:0:
207,129,7485,2,0,L|214:67,2,50,2|0|10,1:0|1:0|0:0,0:0:0:0:
195,228,7965,6,0,L|90:252,1,100,0|10,1:0|0:0,0:0:0:0:
1,222,8445,1,2,1:0:0:0:
27,318,8685,1,8,0:0:0:0:
27,318,8805,2,0,B|79:325|63:349|129:347,1,100,2|2,1:0|1:0,0:0:0:0:
170,352,9165,1,10,0:0:0:0:
254,299,9405,2,0,L|263:239,2,50,2|0|10,1:0|1:0|0:0,0:0:0:0:
333,359,9885,6,0,P|380:361|430:334,1,100,2|10,1:0|0:0,0:0:0:0:
498,267,10365,2,0,L|479:163,1,100,2|8,1:0|0:0,0:0:0:0:
463,121,10725,2,0,P|425:151|364:156,1,100,2|0,1:0|1:0,0:0:0:0:
325,166,11085,1,10,0:0:0:0:
253,96,11325,2,0,L|261:38,2,50,2|0|10,1:0|1:0|0:0,0:0:0:0:
201,181,11805,6,0,P|154:182|96:202,1,100,4|10,1:0|0:0,0:0:0:0:
3,207,12285,1,2,1:0:0:0:
42,115,12525,1,8,0:0:0:0:
42,115,12645,2,0,L|155:91,1,100,2|0,1:0|1:0,0:0:0:0:
179,64,13005,1,10,0:0:0:0:
277,48,13245,2,0,L|285:-7,2,50,2|0|10,1:0|1:0|0:0,0:0:0:0:
367,90,13725,6,0,P|357:136|349:189,1,100,2|10,1:0|0:0,0:0:0:0:
300,275,14205,2,0,L|402:261,1,100,2|8,1:0|0:0,0:0:0:0:
443,237,14565,2,0,P|428:282|421:333,1,100,2|0,1:0|1:0,0:0:0:0:
396,377,14925,1,10,0:0:0:0:
309,324,15165,2,0,L|299:271,2,50,2|0|10,1:0|1:0|0:0,0:0:0:0:
225,378,15645,6,0,P|179:367|116:365,1,100,0|10,1:0|0:0,0:0:0:0:
27,381,16125,1,2,1:0:0:0:
56,285,16365,1,8,0:0:0:0:
56,285,16485,2,0,P|62:236|61:185,1,100,2|0,1:0|1:0,0:0:0:0:
41,139,16845,1,10,0:0:0:0:
103,60,17085,2,0,L|88:9,2,50,2|0|10,1:0|1:0|0:0,0:0:0:0:
167,136,17565,6,0,P|219:136|268:148,1,100,2|10,1:0|0:0,0:0:0:0:
357,188,18045,1,2,1:0:0:0:
447,145,18285,1,8,0:0:0:0:
447,145,18405,2,0,L|432:42,1,100,2|0,1:0|1:0,0:0:0:0:
404,4,18765,1,10,0:0:0:0:
320,59,19005,2,0,L|257:71,3,50,10|8|10|8,0:0|0:0|0:0|0:0,0:0:0:0:
220,68,19485,6,0,P|201:114|206:164,1,100,6|10,1:0|0:0,0:0:0:0:
158,251,19965,2,0,L|220:268,1,50,2|2,1:0|0:0,0:0:0:0:
251,286,20205,1,10,0:0:0:0:
251,286,20325,2,0,P|296:271|359:263,1,100,2|2,1:0|1:0,0:0:0:0:
397,273,20685,1,10,0:0:0:0:
474,209,20925,2,0,L|482:152,2,50,2|0|8,1:0|1:0|0:0,0:0:0:0:
500,305,21405,6,0,B|448:320|468:339|407:355,1,100,2|10,1:0|0:0,0:0:0:0:
364,363,21765,1,2,0:0:0:0:
364,363,21885,2,0,P|317:345|263:339,1,100,2|10,1:0|0:0,0:0:0:0:
217,342,22245,2,0,P|194:300|205:245,1,100,2|2,1:0|1:0,0:0:0:0:
219,203,22605,1,10,0:0:0:0:
295,138,22845,2,0,L|349:149,2,50,2|0|8,1:0|1:0|0:0,0:0:0:0:
247,50,23325,6,0,P|215:32|149:35,1,100,2|10,1:0|0:0,0:0:0:0:
56,59,23805,2,0,P|72:105|77:165,1,100,2|10,1:0|0:0,0:0:0:0:
74,205,24165,2,0,P|116:186|171:189,1,100,2|2,1:0|1:0,0:0:0:0:
214,208,24525,1,10,0:0:0:0:
294,267,24765,2,0,L|284:320,2,50,2|0|8,1:0|1:0|0:0,0:0:0:0:
310,168,25245,6,0,L|381:156,1,50,2|2,1:0|0:0,0:0:0:0:
406,144,25485,1,10,0:0:0:0:
500,175,25725,2,0,P|489:224|484:277,1,100,2|10,1:0|0:0,0:0:0:0:
462,318,26085,2,0,L|360:339,1,100,2|2,1:0|1:0,0:0:0:0:
318,358,26445,1,10,0:0:0:0:
263,274,26685,2,0,P|239:284|205:285,1,50,2|0,1:0|1:0,0:0:0:0:
166,297,26925,1,8,0:0:0:0:
67,280,27165,6,0,P|60:227|49:179,1,100,6|10,1:0|0:0,0:0:0:0:
4,91,27645,2,0,P|35:66|97:70,1,100,2|10,1:0|0:0,0:0:0:0:
131,100,28005,1,2,1:0:0:0:
224,134,28245,1,2,1:0:0:0:
224,134,28365,2,0,P|226:108|234:67,1,50,10|2,0:0|0:0,0:0:0:0:
246,37,28605,2,0,P|288:60|355:65,1,100,2|8,1:0|0:0,0:0:0:0:
432,29,29085,6,0,P|441:76|413:128,1,100,2|10,1:0|0:0,0:0:0:0:
395,165,29445,1,2,0:0:0:0:
395,165,29565,2,0,P|348:170|289:189,1,100,2|10,1:0|0:0,0:0:0:0:
254,211,29925,2,0,P|243:263|264:308,1,100,2|2,1:0|1:0,0:0:0:0:
276,352,30285,2,0,L|333:356,1,50,10|2,0:0|0:0,0:0:0:0:
366,325,30525,2,0,P|367:301|373:266,2,50,2|0|8,1:0|1:0|0:0,0:0:0:0:
459,362,31005,6,0,P|470:313|474:263,1,100,6|14,1:0|0:0,3:0:0:0:
492,165,31485,2,0,P|449:188|388:196,1,100,6|10,1:0|0:0,0:0:0:0:
348,190,31845,1,6,1:0:0:0:
272,124,32085,1,2,1:0:0:0:
272,124,32205,2,0,P|249:134|218:139,1,50,14|2,0:0|1:0,0:0:0:0:
174,144,32445,2,0,P|164:192|182:238,1,100,6|8,1:0|0:0,0:0:0:0:
237,321,32925,6,0,L|290:310,2,50,2|2|10,1:0|0:0|0:0,0:0:0:0:
201,355,33285,1,2,0:0:0:0:
201,355,33405,2,0,L|96:333,1,100,2|10,1:0|0:0,0:0:0:0:
53,331,33765,2,0,P|33:288|48:230,1,100,2|2,1:0|1:0,0:0:0:0:
71,196,34125,2,0,L|132:208,1,50,10|2,0:0|0:0,0:0:0:0:
169,201,34365,2,0,P|164:188|164:162,4,25,10|8|8|8|8,0:0|0:0|0:0|0:0|0:0,0:0:0:0:
206,294,34845,6,0,P|252:282|310:276,1,100,6|10,1:0|0:0,0:0:0:0:
396,316,35325,2,0,L|410:206,1,100,2|8,1:0|0:0,0:0:0:0:
403,167,35685,1,2,1:0:0:0:
343,86,35925,1,0,1:0:0:0:
343,86,36045,2,0,L|352:15,1,50,10|0,0:0|0:0,0:0:0:0:
310,4,36285,2,0,P|285:5|261:14,2,50,2|0|10,1:0|1:0|0:0,0:0:0:0:
263,92,36765,6,0,P|216:103|156:112,1,100,2|10,1:0|0:0,0:0:0:0:
64,109,37245,2,0,P|94:145|99:212,1,100,2|8,1:0|0:0,0:0:0:0:
73,237,37605,2,0,P|120:247|174:263,1,100,2|0,1:0|1:0,0:0:0:0:
208,294,37965,1,10,0:0:0:0:
298,335,38205,2,0,L|287:386,2,50,2|0|10,1:0|1:0|0:0,0:0:0:0:
370,265,38685,6,0,P|379:216|379:165,1,100,0|10,1:0|0:0,0:0:0:0:
350,69,39165,2,0,B|293:82|316:102|257:118,1,100,2|8,1:0|0:0,0:0:0:0:
213,109,39525,2,0,P|196:153|214:204,1,100,2|0,1:0|1:0,0:0:0:0:
217,251,39885,1,10,0:0:0:0:
315,234,40125,2,0,L|321:184,2,50,2|0|10,1:0|1:0|0:0,0:0:0:0:
281,328,40605,6,0,P|230:336|176:354,1,100,2|10,1:0|0:0,0:0:0:0:
85,370,41085,2,0,P|64:326|74:272,1,100,0|8,1:0|0:0,0:0:0:0:
75,226,41445,2,0,P|119:238|177:243,1,100,2|0,1:0|1:0,0:0:0:0:
222,231,41805,1,10,0:0:0:0:
295,161,42045,2,0,L|287:109,2,50,10|8|10,0:0|0:0|0:0,0:0:0:0:
302,210,42405,1,8,0:0:0:0:
349,225,42525,6,0,P|399:225|464:243,1,100,6|10,1:0|0:0,0:0:0:0:
501,321,43005,2,0,B|443:327|468:350|399:361,1,100,2|10,1:0|0:0,0:0:0:0:
364,379,43365,2,0,P|315:367|257:360,1,100,2|2,1:0|1:0,0:0:0:0:
215,364,43725,1,10,0:0:0:0:
137,300,43965,2,0,L|146:243,2,50,2|0|8,1:0|1:0|0:0,0:0:0:0:
37,289,44445,6,0,L|56:176,1,100,2|10,1:0|0:0,0:0:0:0:
48,140,44805,1,2,0:0:0:0:
48,140,44925,2,0,P|98:141|148:120,1,100,2|8,1:0|0:0,0:0:0:0:
182,90,45285,1,2,1:0:0:0:
281,78,45525,1,2,1:0:0:0:
281,78,45645,2,0,L|271:147,1,50,10|2,0:0|0:0,0:0:0:0:
265,176,45885,2,0,P|313:157|367:162,1,100,2|8,1:0|0:0,0:0:0:0:
455,192,46365,6,0,L|466:89,2,100,2|10|2,1:0|0:0|1:0,0:0:0:0:
490,285,47085,1,10,0:0:0:0:
490,285,47205,2,0,P|442:274|376:269,1,100,2|2,1:0|1:0,0:0:0:0:
341,271,47565,1,10,0:0:0:0:
274,345,47805,2,0,P|250:338|224:336,1,50,2|0,1:0|1:0,0:0:0:0:
174,337,48045,1,8,0:0:0:0:
86,288,48285,2,0,L|96:350,2,50,2|2|10,1:0|0:0|0:0,0:0:0:0:
38,272,48645,1,2,0:0:0:0:
0,304,48765,6,0,L|10:367,2,50,2|0|10,1:0|0:0|0:0,0:0:0:0:
5,204,49245,2,0,P|29:198|61:189,1,50,8|2,0:0|1:0,0:0:0:0:
100,175,49485,2,0,P|95:150|85:119,1,50,10|2,0:0|1:0,0:0:0:0:
67,80,49725,1,10,0:0:0:0:
253,7,50205,6,0,B|243:44|243:44|252:68|252:68|239:113,1,100,6|10,1:0|0:0,0:0:0:0:
216,199,50685,1,2,1:0:0:0:
312,171,50925,1,10,0:0:0:0:
312,171,51045,2,0,P|359:159|417:168,1,100,2|2,1:0|1:0,0:0:0:0:
455,183,51405,2,0,L|437:241,1,50,10|2,0:0|0:0,0:0:0:0:
432,280,51645,2,0,P|455:274|491:275,2,50,2|0|8,1:0|0:0|0:0,0:0:0:0:
364,353,52125,6,0,P|323:321|264:324,1,100,2|10,1:0|0:0,0:0:0:0:
233,344,52485,1,2,0:0:0:0:
233,344,52605,2,0,P|242:291|247:239,1,100,2|10,1:0|0:0,0:0:0:0:
237,195,52965,2,0,B|181:193|201:223|135:228,1,100,2|2,1:0|1:0,0:0:0:0:
97,211,53325,2,0,L|108:150,1,50,10|2,0:0|0:0,0:0:0:0:
99,112,53565,2,0,P|75:118|49:122,2,50,2|0|8,1:0|1:0|0:0,0:0:0:0:
153,28,54045,6,0,B|190:34|190:34|206:55|206:55|248:65,1,100,6|14,1:0|0:0,0:0:0:0:
327,12,54525,2,0,P|362:46|358:103,1,100,6|10,1:0|0:0,0:0:0:0:
341,142,54885,1,6,1:0:0:0:
258,199,55125,1,6,1:0:0:0:
258,199,55245,2,0,L|268:257,1,50,10|2,0:0|1:0,0:0:0:0:
271,298,55485,2,0,P|317:287|374:280,1,100,6|8,1:0|0:0,0:0:0:0:
439,208,55965,6,0,L|495:220,2,50,2|2|10,1:0|0:0|0:0,0:0:0:0:
395,183,56325,1,2,0:0:0:0:
395,183,56445,2,0,P|391:132|381:83,1,100,2|10,1:0|0:0,0:0:0:0:
359,39,56805,1,2,1:0:0:0:
285,106,57045,2,0,L|231:100,1,50,2|10,1:0|0:0,0:0:0:0:
186,88,57285,6,0,L|180:62,2,25,10|8|10,0:0|0:0|0:0,0:0:0:0:
167,134,57525,1,8,0:0:0:0:
167,134,57645,2,0,L|103:142,1,50,8|8,0:0|0:0,0:0:0:0:
67,134,57885,6,0,P|79:181|92:244,1,100,6|10,1:0|0:0,0:0:0:0:
83,331,58365,2,0,P|123:308|182:309,1,100,2|10,1:0|0:0,0:0:0:0:
223,321,58725,1,0,1:0:0:0:
223,321,58845,2,0,P|231:300|237:260,1,50,2|0,1:0|1:0,0:0:0:0:
245,224,59085,2,0,P|268:233|292:237,1,50,10|0,0:0|0:0,0:0:0:0:
342,243,59325,2,0,P|366:200|345:135,1,100,2|10,1:0|0:0,0:0:0:0:
308,64,59805,6,0,L|205:85,1,100,2|10,1:0|0:0,0:0:0:0:
229,182,60285,2,0,L|326:162,1,100,2|10,1:0|0:0,0:0:0:0:
376,154,60645,1,0,1:0:0:0:
376,154,60765,2,0,P|372:202|363:261,1,100,2|10,0:0|0:0,0:0:0:0:
358,352,61245,2,0,P|306:313|217:313,1,150,6|0,1:0|0:0,0:0:0:0:
178,331,61725,6,0,P|176:281|166:232,1,100,2|10,1:0|0:0,0:0:0:0:
82,176,62205,2,0,B|143:171|109:143|184:131,1,100,2|10,1:0|0:0,0:0:0:0:
220,132,62565,1,0,1:0:0:0:
220,132,62685,2,0,P|226:105|232:59,1,50,2|0,0:0|1:0,0:0:0:0:
241,34,62925,2,0,P|268:40|314:46,1,50,10|0,0:0|0:0,0:0:0:0:
338,54,63165,2,0,P|368:93|358:156,1,100,2|10,1:0|0:0,0:0:0:0:
344,239,63645,6,0,P|296:226|242:218,1,100,2|10,1:0|0:0,0:0:0:0:
146,218,64125,2,0,P|171:266|170:315,1,100,2|10,1:0|0:0,0:0:0:0:
158,359,64485,1,0,1:0:0:0:
158,359,64605,2,0,P|133:355|101:352,1,50,2|0,0:0|1:0,0:0:0:0:
75,314,64845,2,0,P|50:317|25:320,1,50,10|0,0:0|1:0,0:0:0:0:
0,277,65085,2,0,L|7:212,1,50,10|0,0:0|1:0,0:0:0:0:
43,194,65325,2,0,L|37:144,1,50,8|0,0:0|0:0,0:0:0:0:
9,103,65565,6,0,P|47:64|105:80,1,100,6|10,1:0|0:0,0:0:0:0:
138,155,66045,2,0,P|184:141|237:130,1,100,2|10,1:0|0:0,0:0:0:0:
285,126,66405,1,0,1:0:0:0:
285,126,66525,2,0,L|298:25,1,100,2|10,0:0|0:0,0:0:0:0:
397,37,67005,2,0,L|384:136,1,100,2|10,1:0|0:0,0:0:0:0:
456,204,67485,6,0,P|410:210|375:250,1,100,2|10,1:0|0:0,0:0:0:0:
329,337,67965,2,0,L|268:323,1,50,2|0,1:0|0:0,0:0:0:0:
246,288,68205,2,0,L|197:299,1,50,10|0,0:0|1:0,0:0:0:0:
148,311,68445,2,0,P|121:264|134:210,2,100,2|10|14,1:0|0:0|0:0,0:0:0:0:
205,118,69405,6,0,P|255:105|324:103,1,100,2|10,1:0|0:0,0:0:0:0:
285,3,69885,2,0,P|234:15|166:18,1,100,2|10,1:0|0:0,0:0:0:0:
136,23,70245,1,0,1:0:0:0:
136,23,70365,2,0,L|129:79,1,50,2|0,0:0|1:0,0:0:0:0:
85,97,70605,2,0,L|92:153,1,50,10|0,0:0|0:0,0:0:0:0:
136,171,70845,2,0,L|129:227,1,50,2|0,1:0|1:0,0:0:0:0:
85,245,71085,2,0,L|92:301,1,50,10|0,0:0|0:0,0:0:0:0:
101,344,71325,6,0,P|76:337|42:333,2,50,6|2|10,1:0|0:0|0:0,0:0:0:0:
147,362,71685,2,0,P|184:324|185:276,1,100,6|2,1:0|1:0,0:0:0:0:
168,232,72045,1,10,0:0:0:0:
217,145,72285,6,0,P|241:138|276:134,2,50,6|2|10,1:0|0:0|0:0,0:0:0:0:
167,152,72645,2,0,P|137:104|146:59,1,100,6|2,1:0|1:0,0:0:0:0:
164,17,73005,1,10,0:0:0:0:
258,49,73245,6,0,L|266:-5,2,50,10|2|2,0:0|1:0|0:0,0:0:0:0:
267,97,73605,2,0,P|313:87|373:87,1,100,2|2,1:0|1:0,0:0:0:0:
415,94,73965,2,0,L|403:143,1,50,10|2,0:0|1:0,0:0:0:0:
389,190,74205,2,0,L|344:193,6,33.3333333333333,10|8|10|8|10|8|2,0:0|0:0|0:0|0:0|0:0|0:0|1:0,0:0:0:0:
222,300,75165,6,0,P|123:283|22:273,3,200,6|10|10|10,1:0|0:0|0:0|0:0,0:0:0:0:
50,74,77085,2,0,P|148:90|250:101,3,200,10|10|10|10,0:0|0:0|0:0|0:0,0:0:0:0:
435,29,79005,2,0,P|362:54|365:179,3,200,10|10|10|10,0:0|0:0|0:0|0:0,0:0:0:0:
464,330,80925,2,0,P|381:277|262:290,3,200,10|10|10|10,0:0|0:0|0:0|0:0,0:0:0:0:
102,369,82845,6,0,B|89:307|89:307|96:257|96:257|78:171,3,200,14|10|10|10,0:0|0:0|0:0|0:0,0:0:0:0:
200,13,84765,2,0,B|273:34|273:34|292:72|292:72|379:100,3,200,10|10|10|10,0:0|0:0|0:0|0:0,0:0:0:0:
470,153,86685,6,0,P|405:173|381:296,3,200,10|10|10|10,0:0|0:0|0:0|0:0,0:0:0:0:
192,364,88605,2,0,B|71:366|145:286|4:295,2,200,10|10|2,0:0|0:0|1:0,0:0:0:0:
292,356,89805,1,0,1:0:0:0:
234,273,90045,1,12,0:0:0:0:
259,54,90525,6,0,P|309:66|369:76,1,110.000003356934,6|8,1:0|0:0,0:0:0:0:
472,105,91005,2,0,P|424:141|422:192,1,110.000003356934,2|8,1:0|0:0,0:0:0:0:
462,223,91365,2,0,P|411:234|350:258,1,110.000003356934,2|0,1:0|1:0,0:0:0:0:
309,283,91725,1,10,0:0:0:0:
199,297,91965,2,0,B|206:255|206:255|199:237|199:237|211:179,1,110.000003356934,2|10,1:0|0:0,0:0:0:0:
259,92,92445,5,2,1:0:0:0:
175,20,92685,1,10,0:0:0:0:
68,47,92925,2,0,P|34:92|43:147,1,110.000003356934,2|10,1:0|0:0,0:0:0:0:
22,194,93285,2,0,B|88:186|67:216|142:208,1,110.000003356934,0|0,1:0|1:0,0:0:0:0:
184,204,93645,1,10,0:0:0:0:
279,149,93885,1,2,1:0:0:0:
279,149,94005,1,0,1:0:0:0:
279,149,94125,1,10,0:0:0:0:
381,219,94365,6,0,P|328:232|299:293,1,110.000003356934,2|8,1:0|0:0,0:0:0:0:
333,381,94845,2,0,P|383:366|443:360,1,110.000003356934,2|8,1:0|0:0,0:0:0:0:
490,337,95205,2,0,P|510:289|494:227,1,110.000003356934,2|0,1:0|1:0,0:0:0:0:
468,187,95565,1,10,0:0:0:0:
393,106,95805,1,2,1:0:0:0:
393,106,95925,1,0,1:0:0:0:
393,106,96045,1,10,0:0:0:0:
360,211,96285,6,0,P|304:217|247:231,2,110.000003356934,2|10|2,1:0|0:0|1:0,0:0:0:0:
393,106,97005,1,10,0:0:0:0:
358,62,97125,2,0,P|304:39|253:62,1,110.000003356934,0|0,1:0|1:0,0:0:0:0:
214,89,97485,1,10,0:0:0:0:
142,172,97725,2,0,L|151:230,1,55.0000016784668,2|0,1:0|1:0,0:0:0:0:
152,281,97965,1,8,0:0:0:0:
249,330,98205,6,0,L|238:383,2,55.0000016784668,6|2|10,1:0|0:0|0:0,0:0:0:0:
260,275,98565,6,0,P|317:270|382:258,1,110.000003356934,2|2,0:0|0:0,0:0:0:0:
475,235,99045,2,0,P|486:178|468:124,1,110.000003356934,2|2,1:0|1:0,0:0:0:0:
438,84,99405,2,0,L|377:104,1,55.0000016784668,10|2,0:0|0:0,0:0:0:0:
331,110,99645,2,0,L|337:50,2,55.0000016784668,2|2|10,1:0|1:0|0:0,0:0:0:0:
269,201,100125,6,0,P|264:225|276:260,2,55.0000016784668,2|2|10,1:0|0:0|0:0,0:0:0:0:
266,146,100485,2,0,P|215:123|148:127,1,110.000003356934,2|2,0:0|0:0,0:0:0:0:
54,149,100965,2,0,P|88:193|90:254,1,110.000003356934,2|2,1:0|1:0,0:0:0:0:
72,297,101325,1,10,0:0:0:0:
176,330,101565,1,2,1:0:0:0:
176,330,101685,1,2,1:0:0:0:
176,330,101805,1,10,0:0:0:0:
243,242,102045,6,0,B|284:234|284:234|309:243|309:243|377:232,1,110.000003356934,2|10,1:0|0:0,0:0:0:0:
405,234,102405,2,0,P|427:181|411:129,1,110.000003356934,2|2,0:0|0:0,0:0:0:0:
380,87,102765,1,10,0:0:0:0:
380,87,102885,2,0,P|335:106|261:113,1,110.000003356934,2|2,1:0|1:0,0:0:0:0:
219,117,103245,1,10,0:0:0:0:
154,27,103485,2,0,P|128:36|88:39,2,55.0000016784668,2|0|10,1:0|1:0|0:0,0:0:0:0:
260,1,103965,5,2,1:0:0:0:
260,1,104085,2,0,L|248:66,1,55.0000016784668,14|0,0:0|0:0,0:0:0:0:
209,93,104325,1,2,1:0:0:0:
209,93,104445,2,0,L|221:158,1,55.0000016784668,14|0,0:0|0:0,0:0:0:0:
260,185,104685,1,2,1:0:0:0:
260,185,104805,2,0,L|248:250,1,55.0000016784668,14|0,0:0|0:0,0:0:0:0:
214,281,105045,6,0,L|176:272,2,27.5000008392334,10|8|10,0:0|0:0|0:0,0:0:0:0:
235,332,105285,1,10,0:0:0:0:
235,332,105405,2,0,L|315:316,1,55.0000016784668,10|8,0:0|0:0,0:0:0:0:
335,292,105645,2,0,L|388:302,1,55.0000016784668,10|8,0:0|0:0,0:0:0:0:
389,302,106845,6,0,P|403:253|385:195,1,100,6|10,1:0|0:0,0:0:0:0:
344,118,107325,2,0,L|351:67,1,50,2|0,1:0|0:0,0:0:0:0:
357,18,107565,1,8,0:0:0:0:
357,18,107685,2,0,P|311:33|249:38,1,100,2|0,1:0|1:0,0:0:0:0:
210,31,108045,1,10,0:0:0:0:
111,48,108285,2,0,L|98:-14,2,50,2|0|10,1:0|1:0|0:0,0:0:0:0:
56,131,108765,6,0,P|115:139|180:159,1,100,2|8,1:0|0:0,0:0:0:0:
253,163,109245,2,0,L|261:233,1,50,2|0,1:0|0:0,0:0:0:0:
259,262,109485,1,8,0:0:0:0:
250,311,109605,2,0,P|298:299|360:293,1,100,2|0,1:0|1:0,0:0:0:0:
398,290,109965,2,0,L|405:232,1,50,10|0,0:0|0:0,0:0:0:0:
426,195,110205,2,0,P|451:202|488:202,2,50,2|0|10,1:0|1:0|0:0,0:0:0:0:
396,98,110685,6,0,P|343:87|291:122,1,100,2|10,1:0|0:0,0:0:0:0:
210,142,111165,1,2,1:0:0:0:
224,240,111405,1,8,0:0:0:0:
224,240,111525,2,0,P|175:249|122:269,1,100,2|0,1:0|1:0,0:0:0:0:
85,290,111885,1,10,0:0:0:0:
99,191,112125,1,2,1:0:0:0:
99,191,112245,1,0,1:0:0:0:
99,191,112365,1,10,0:0:0:0:
18,131,112605,6,0,P|20:78|29:24,1,100,2|8,1:0|0:0,0:0:0:0:
123,1,113085,2,0,P|175:1|221:33,1,100,2|8,1:0|0:0,0:0:0:0:
264,33,113445,2,0,P|247:78|238:139,1,100,2|0,1:0|1:0,0:0:0:0:
231,179,113805,1,10,0:0:0:0:
195,272,114045,2,0,L|137:264,2,50,2|0|10,1:0|1:0|0:0,0:0:0:0:
250,354,114525,6,0,P|299:357|340:329,1,100,6|10,1:0|0:0,0:0:0:0:
395,246,115005,2,0,L|386:195,1,50,2|0,1:0|0:0,0:0:0:0:
388,146,115245,1,8,0:0:0:0:
388,146,115365,2,0,P|344:123|293:128,1,100,2|0,1:0|1:0,0:0:0:0:
251,151,115725,1,10,0:0:0:0:
169,93,115965,2,0,L|177:38,2,50,2|0|10,1:0|1:0|0:0,0:0:0:0:
79,138,116445,6,0,P|117:159|125:217,1,100,2|8,1:0|0:0,0:0:0:0:
45,269,116925,2,0,L|62:341,1,50,2|0,1:0|0:0,0:0:0:0:
71,365,117165,1,8,0:0:0:0:
71,365,117285,2,0,P|116:353|175:344,1,100,2|0,1:0|1:0,0:0:0:0:
218,348,117645,1,10,0:0:0:0:
275,265,117885,1,2,1:0:0:0:
275,265,118005,1,0,1:0:0:0:
275,265,118125,1,10,0:0:0:0:
313,357,118365,6,0,P|362:372|415:360,1,100,4|10,1:0|0:0,0:0:0:0:
508,361,118845,2,0,L|498:313,1,50,2|0,1:0|0:0,0:0:0:0:
455,285,119085,1,8,0:0:0:0:
455,285,119205,2,0,L|466:182,1,100,2|0,1:0|1:0,0:0:0:0:
485,139,119565,1,10,0:0:0:0:
420,62,119805,2,0,L|409:8,2,50,2|0|10,1:0|1:0|0:0,0:0:0:0:
368,147,120285,6,0,P|324:171|275:166,1,100,2|8,1:0|0:0,0:0:0:0:
186,120,120765,1,2,1:0:0:0:
91,87,121005,1,8,0:0:0:0:
91,87,121125,2,0,P|100:134|106:190,1,100,2|0,1:0|1:0,0:0:0:0:
103,236,121485,1,10,0:0:0:0:
134,275,121605,1,0,0:0:0:0:
134,275,121725,2,0,L|183:265,1,50,2|0,1:0|1:0,0:0:0:0:
233,263,121965,1,10,0:0:0:0:
332,262,122205,6,0,P|324:310|318:375,2,100,6|2|2,1:0|0:0|0:0,0:0:0:0:
421,216,122925,1,2,0:0:0:0:
421,216,123045,2,0,P|429:168|435:103,2,100,2|2|2,0:0|0:0|0:0,0:0:0:0:
380,244,123645,1,2,0:0:0:0:
367,44,124125,6,0,P|317:38|274:78,1,100,6|10,1:0|0:0,0:0:0:0:
272,116,124485,1,2,0:0:0:0:
272,116,124605,2,0,P|222:104|158:97,1,100,2|10,1:0|0:0,0:0:0:0:
124,91,124965,2,0,P|151:136|146:184,1,100,2|2,1:0|1:0,0:0:0:0:
128,228,125325,2,0,L|74:220,1,50,10|2,0:0|0:0,0:0:0:0:
32,200,125565,2,0,P|41:173|44:145,2,50,2|0|8,1:0|1:0|0:0,0:0:0:0:
7,296,126045,6,0,P|54:320|121:308,1,100,2|10,1:0|0:0,0:0:0:0:
199,325,126525,2,0,P|205:276|219:221,1,100,2|10,1:0|0:0,0:0:0:0:
227,177,126885,2,0,B|284:167|267:194|339:183,1,100,2|2,1:0|1:0,0:0:0:0:
375,183,127245,2,0,L|383:132,1,50,10|2,0:0|0:0,0:0:0:0:
405,88,127485,2,0,P|431:88|469:77,2,50,2|0|8,1:0|1:0|0:0,0:0:0:0:
335,15,127965,6,0,L|279:35,1,50,2|2,1:0|0:0,0:0:0:0:
256,71,128205,2,0,L|209:54,1,50,10|2,0:0|0:0,0:0:0:0:
172,19,128445,2,0,P|115:29|95:76,1,100,2|10,1:0|0:0,0:0:0:0:
98,112,128805,1,2,1:0:0:0:
98,112,128925,2,0,P|121:118|149:132,1,50,8|2,0:0|1:0,0:0:0:0:
185,158,129165,2,0,P|179:181|165:209,1,50,10|0,0:0|0:0,0:0:0:0:
144,248,129405,1,2,1:0:0:0:
291,383,129885,6,0,L|308:272,1,100,6|10,1:0|0:0,0:0:0:0:
333,187,130365,2,0,P|285:210|230:204,1,100,2|10,1:0|0:0,0:0:0:0:
193,185,130725,2,0,P|204:134|213:74,1,100,2|2,1:0|1:0,0:0:0:0:
215,36,131085,2,0,L|152:47,1,50,10|2,0:0|0:0,0:0:0:0:
115,48,131325,2,0,P|119:22|121:-5,2,50,2|0|8,1:0|1:0|0:0,0:0:0:0:
32,104,131805,6,0,P|77:129|75:185,1,100,2|10,1:0|0:0,0:0:0:0:
27,258,132285,2,0,B|68:248|68:248|78:253|78:253|135:238,1,100,2|10,1:0|0:0,0:0:0:0:
172,247,132645,2,0,P|204:204|193:156,1,100,2|2,1:0|1:0,0:0:0:0:
163,122,133005,1,10,0:0:0:0:
235,52,133245,2,0,B|228:29|228:29|231:27|231:27|225:4,2,50,2|0|8,1:0|1:0|0:0,0:0:0:0:
331,76,133725,6,0,P|319:121|308:182,1,100,6|14,1:0|0:0,0:0:0:0:
218,216,134205,2,0,B|274:237|240:255|314:275,1,100,6|14,1:0|0:0,0:0:0:0:
329,310,134565,2,0,P|378:299|450:291,1,100,6|6,1:0|1:0,0:0:0:0:
476,302,134925,2,0,L|485:245,1,50,14|2,0:0|1:0,0:0:0:0:
476,203,135165,2,0,P|434:177|377:186,1,100,6|8,1:0|0:0,0:0:0:0:
327,99,135645,6,0,B|288:116|288:116|280:129|280:129|239:148,1,100,2|10,1:0|0:0,0:0:0:0:
192,234,136125,2,0,B|148:256|148:256|95:236,1,100,2|10,1:0|0:0,0:0:0:0:
51,224,136485,2,0,P|33:178|53:126,1,100,2|2,1:0|1:0,0:0:0:0:
82,95,136845,1,10,0:0:0:0:
122,65,136965,6,0,L|116:39,2,25,10|8|10,0:0|0:0|0:0,0:0:0:0:
170,78,137205,1,8,0:0:0:0:
170,78,137325,2,0,L|234:70,1,50,8|8,0:0|0:0,0:0:0:0:
269,63,137565,6,0,P|282:108|262:163,1,100,6|10,1:0|0:0,0:0:0:0:
238,253,138045,2,0,P|284:240|337:231,1,100,2|10,1:0|0:0,0:0:0:0:
385,232,138405,1,0,1:0:0:0:
385,232,138525,2,0,P|393:211|399:171,1,50,2|0,0:0|0:0,0:0:0:0:
357,151,138765,2,0,P|348:128|344:104,1,50,10|0,0:0|0:0,0:0:0:0:
339,53,139005,2,0,P|299:24|241:33,1,100,2|10,1:0|0:0,0:0:0:0:
182,100,139485,6,0,P|134:112|79:121,1,100,2|10,1:0|0:0,0:0:0:0:
103,218,139965,2,0,P|151:205|200:197,1,100,2|10,1:0|0:0,0:0:0:0:
251,197,140325,1,0,1:0:0:0:
251,197,140445,2,0,P|275:155|264:90,1,100,2|10,0:0|0:0,0:0:0:0:
263,4,140925,2,0,P|325:30|420:42,1,150,6|0,1:0|0:0,0:0:0:0:
456,38,141405,6,0,L|444:137,1,100,6|10,1:0|0:0,0:0:0:0:
432,236,141885,2,0,P|386:216|333:207,1,100,2|10,1:0|0:0,0:0:0:0:
287,205,142245,1,0,1:0:0:0:
287,205,142365,2,0,P|281:232|275:278,1,50,2|0,0:0|1:0,0:0:0:0:
266,303,142605,2,0,P|239:297|193:291,1,50,10|0,0:0|0:0,0:0:0:0:
167,287,142845,2,0,P|137:248|147:185,1,100,2|10,1:0|0:0,0:0:0:0:
128,99,143325,6,0,L|230:120,1,100,2|10,1:0|0:0,0:0:0:0:
296,48,143805,2,0,P|321:96|320:145,1,100,2|10,1:0|0:0,0:0:0:0:
308,189,144165,1,0,1:0:0:0:
308,189,144285,2,0,P|333:193|365:196,1,50,2|0,0:0|1:0,0:0:0:0:
391,234,144525,2,0,P|416:231|441:228,1,50,10|0,0:0|1:0,0:0:0:0:
490,225,144765,2,0,L|483:290,1,50,10|0,0:0|1:0,0:0:0:0:
447,308,145005,2,0,L|453:358,1,50,8|0,0:0|0:0,0:0:0:0:
409,382,145245,6,0,P|371:366|313:359,1,100,6|10,1:0|0:0,0:0:0:0:
213,375,145725,2,0,P|217:326|188:276,1,100,2|10,1:0|0:0,0:0:0:0:
152,253,146085,1,0,1:0:0:0:
152,253,146205,2,0,P|102:259|49:275,1,100,2|10,0:0|0:0,0:0:0:0:
32,175,146685,2,0,P|81:168|135:153,1,100,2|10,1:0|0:0,0:0:0:0:
185,71,147165,6,0,P|228:50|283:57,1,100,2|10,1:0|0:0,0:0:0:0:
378,62,147645,2,0,P|371:85|364:123,1,50,2|0,1:0|0:0,0:0:0:0:
334,149,147885,2,0,P|340:172|348:210,1,50,10|0,0:0|1:0,0:0:0:0:
378,235,148125,2,0,P|426:229|474:248,2,100,2|10|14,1:0|0:0|0:0,0:0:0:0:
243,383,149085,6,0,L|228:264,1,100,6|10,1:0|0:0,0:0:0:0:
131,265,149565,2,0,L|143:165,1,100,2|10,1:0|0:0,0:0:0:0:
133,116,149925,1,0,1:0:0:0:
133,116,150045,2,0,P|154:106|187:103,1,50,2|0,0:0|1:0,0:0:0:0:
220,72,150285,2,0,P|241:82|274:85,1,50,10|0,0:0|0:0,0:0:0:0:
307,116,150525,2,0,P|328:106|361:103,1,50,2|0,1:0|1:0,0:0:0:0:
394,72,150765,2,0,P|415:82|448:85,1,50,10|0,0:0|0:0,0:0:0:0:
491,80,151005,6,0,L|500:30,2,50,6|2|10,1:0|0:0|0:0,0:0:0:0:
473,126,151365,2,0,B|421:145|445:160|388:177,1,100,6|2,1:0|1:0,0:0:0:0:
340,191,151725,1,10,0:0:0:0:
240,185,151965,6,0,L|229:126,2,50,6|2|10,1:0|0:0|0:0,0:0:0:0:
230,234,152325,2,0,P|182:217|127:216,1,100,6|2,1:0|1:0,0:0:0:0:
84,224,152685,1,10,0:0:0:0:
48,317,152925,6,0,L|-6:309,2,50,10|2|2,0:0|1:0|0:0,0:0:0:0:
87,347,153285,2,0,P|111:339|142:337,1,50,2|0,1:0|1:0,0:0:0:0:
181,316,153525,1,2,1:0:0:0:
181,316,153645,2,0,P|205:323|236:326,1,50,10|2,0:0|1:0,0:0:0:0:
276,308,153885,6,0,L|269:274,8,25,10|10|8|10|10|8|8|8|10,0:0|0:0|0:0|0:0|0:0|0:0|0:0|0:0|0:0,0:0:0:0:
246,109,154845,6,0,P|339:130|456:147,3,200,6|10|10|10,1:0|0:0|0:0|0:0,0:0:0:0:
409,343,156765,2,0,P|315:321|199:305,3,200,10|10|10|10,0:0|0:0|0:0|0:0,0:0:0:0:
25,377,158685,2,0,B|7:301|7:301|20:268|20:268|6:177,3,200,10|10|10|10,0:0|0:0|0:0|0:0,0:0:0:0:
111,11,160605,2,0,B|230:30|154:83|294:94,3,200,10|10|10|10,0:0|0:0|0:0|0:0,0:0:0:0:
473,164,162525,6,0,P|395:201|388:322,3,200,14|10|10|10,0:0|0:0|0:0|0:0,0:0:0:0:
186,356,164445,2,0,P|92:330|-11:328,3,200,10|10|10|10,0:0|0:0|0:0|0:0,0:0:0:0:
2,128,166365,6,0,B|123:92|64:187|231:132,3,200,10|10|10|10,0:0|0:0|0:0|0:0,0:0:0:0:
332,83,168285,2,0,P|243:98|247:208,2,200,10|10|2,0:0|0:0|1:0,0:0:0:0:
332,83,169485,1,0,1:0:0:0:
332,83,169725,1,12,0:0:0:0:
479,295,170205,6,0,P|427:303|371:322,1,110.000003356934,6|8,1:0|0:0,0:0:0:0:
263,331,170685,2,0,P|288:288|277:213,1,110.000003356934,2|8,1:0|0:0,0:0:0:0:
256,182,171045,2,0,B|185:188|219:215|155:228,1,110.000003356934,2|0,1:0|1:0,0:0:0:0:
103,230,171405,1,10,0:0:0:0:
20,157,171645,1,2,1:0:0:0:
20,157,171765,1,0,1:0:0:0:
20,157,171885,1,10,0:0:0:0:
64,56,172125,6,0,P|114:65|182:72,1,110.000003356934,2|10,1:0|0:0,0:0:0:0:
270,20,172605,2,0,P|306:65|293:117,1,110.000003356934,2|10,1:0|0:0,0:0:0:0:
258,153,172965,2,0,P|203:158|145:172,1,110.000003356934,0|0,1:0|1:0,0:0:0:0:
97,190,173325,1,10,0:0:0:0:
60,293,173565,1,2,1:0:0:0:
60,293,173685,1,0,1:0:0:0:
60,293,173805,1,10,0:0:0:0:
145,361,174045,6,0,B|192:353|192:353|204:359|204:359|256:353,1,110.000003356934,2|8,1:0|0:0,0:0:0:0:
361,372,174525,2,0,P|364:320|371:263,1,110.000003356934,2|8,1:0|0:0,0:0:0:0:
371,207,174885,2,0,P|430:210|463:174,1,110.000003356934,2|0,1:0|1:0,0:0:0:0:
476,121,175245,1,10,0:0:0:0:
427,22,175485,1,2,1:0:0:0:
427,22,175605,1,0,1:0:0:0:
427,22,175725,1,10,0:0:0:0:
342,92,175965,5,2,1:0:0:0:
257,21,176205,1,10,0:0:0:0:
158,70,176445,1,2,1:0:0:0:
163,179,176685,1,10,0:0:0:0:
163,179,176805,6,0,P|216:184|274:200,1,110.000003356934,0|0,1:0|1:0,0:0:0:0:
321,219,177165,1,10,0:0:0:0:
359,321,177405,1,2,1:0:0:0:
359,321,177525,1,0,1:0:0:0:
359,321,177645,1,8,0:0:0:0:
252,349,177885,6,0,P|224:345|181:337,1,55.0000016784668,6|2,1:0|0:0,0:0:0:0:
144,327,178125,1,10,0:0:0:0:
144,327,178245,1,2,0:0:0:0:
97,297,178365,2,0,P|92:233|121:187,1,110.000003356934,0|8,1:0|0:0,0:0:0:0:
141,146,178725,6,0,B|209:159|170:182|249:197,1,110.000003356934,2|2,1:0|1:0,0:0:0:0:
292,200,179085,2,0,P|286:175|286:145,1,55.0000016784668,10|2,0:0|0:0,0:0:0:0:
299,91,179325,2,0,P|323:85|354:85,1,55.0000016784668,2|2,1:0|1:0,0:0:0:0:
408,98,179565,1,10,0:0:0:0:
441,179,179805,6,0,L|502:168,2,55.0000016784668,2|2|10,1:0|0:0|0:0,0:0:0:0:
398,192,180165,2,0,P|365:242|378:287,1,110.000003356934,2|2,0:0|0:0,0:0:0:0:
420,364,180645,2,0,P|367:368|310:381,1,110.000003356934,2|2,1:0|1:0,0:0:0:0:
267,382,181005,2,0,P|256:358|257:330,1,55.0000016784668,10|2,0:0|0:0,0:0:0:0:
254,285,181245,2,0,L|197:273,2,55.0000016784668,2|2|10,1:0|1:0|0:0,0:0:0:0:
323,230,181725,6,0,P|338:174|311:119,1,110.000003356934,2|10,1:0|0:0,0:0:0:0:
293,91,182085,2,0,B|231:95|257:127|182:137,1,110.000003356934,2|2,0:0|0:0,0:0:0:0:
150,135,182445,1,10,0:0:0:0:
150,135,182565,2,0,P|117:177|127:237,1,110.000003356934,2|2,1:0|1:0,0:0:0:0:
143,269,182925,1,10,0:0:0:0:
109,350,183165,1,2,1:0:0:0:
109,350,183285,1,0,1:0:0:0:
109,350,183405,1,10,0:0:0:0:
22,334,183645,5,2,1:0:0:0:
22,334,183765,2,0,P|18:310|12:278,1,55.0000016784668,14|0,0:0|0:0,0:0:0:0:
39,245,184005,1,2,1:0:0:0:
39,245,184125,2,0,P|42:221|49:189,1,55.0000016784668,14|0,0:0|0:0,0:0:0:0:
22,156,184365,1,2,1:0:0:0:
22,156,184485,2,0,P|18:132|12:100,1,55.0000016784668,14|0,0:0|0:0,0:0:0:0:
31,61,184725,2,0,L|-2:50,2,27.5000008392334,10|8|10,0:0|0:0|0:0,0:0:0:0:
70,80,184965,1,10,0:0:0:0:
70,80,185085,6,0,L|138:64,1,55.0000016784668,10|8,0:0|0:0,0:0:0:0:
160,42,185325,2,0,L|213:54,1,55.0000016784668,10|8,0:0|0:0,0:0:0:0:
252,43,185565,1,4,1:0:0:0:
256,192,185805,12,0,192285,0:0:0:0:
252,43,192585,6,0,L|257:-1,3,25,0|0|0|0,1:0|1:0|1:0|1:0,0:0:0:0:
383,113,193245,6,0,P|438:138|438:272,1,200,6|2,1:0|0:0,0:0:0:0:
397,328,193965,1,0,1:0:0:0:
397,328,194205,2,0,P|300:312|196:305,1,200,10|2,0:0|0:0,0:0:0:0:
118,309,194925,1,0,1:0:0:0:
64,249,195165,1,0,0:0:0:0:
120,191,195405,2,0,B|103:135|103:135|115:111|115:111|94:36,2,150,2|2|10,1:0|1:0|0:0,0:0:0:0:
120,191,196605,1,0,0:0:0:0:
120,191,196845,1,0,1:0:0:0:
195,218,197085,6,0,B|307:210|237:153|388:142,1,200,4|2,1:0|0:0,0:0:0:0:
453,150,197805,1,2,1:0:0:0:
496,217,198045,2,0,P|420:261|432:385,1,200,10|0,0:0|0:0,0:0:0:0:
416,364,198765,1,0,1:0:0:0:
416,364,199005,1,0,0:0:0:0:
373,295,199245,2,0,P|302:324|225:343,2,150,2|2|10,1:0|1:0|0:0,0:0:0:0:
373,295,200445,1,2,0:0:0:0:
373,295,200685,1,2,1:0:0:0:
420,230,200925,6,0,P|420:127|329:88,1,200,6|2,1:0|0:0,0:0:0:0:
262,90,201645,1,0,1:0:0:0:
223,159,201885,2,0,P|134:171|26:200,1,200,10|2,0:0|0:0,0:0:0:0:
27,199,202605,1,0,1:0:0:0:
27,199,202845,1,0,0:0:0:0:
36,278,203085,2,0,B|129:279|72:329|188:333,2,150,2|2|10,1:0|1:0|0:0,0:0:0:0:
36,278,204285,1,2,0:0:0:0:
36,278,204525,1,2,1:0:0:0:
11,201,204765,6,0,P|21:110|125:88,1,200,6|2,1:0|0:0,0:0:0:0:
190,108,205485,1,2,1:0:0:0:
269,113,205725,2,0,P|256:157|243:231,2,100,10|2|2,0:0|0:0|0:0,0:0:0:0:
323,53,206445,2,0,P|399:52|450:118,1,150,2|0,1:0|0:0,0:0:0:0:
458,141,206925,1,2,1:0:0:0:
447,220,207165,1,2,0:0:0:0:
447,220,207285,2,0,P|395:229|331:251,1,100,2|0,1:0|0:0,0:0:0:0:
313,260,207645,5,8,0:0:0:0:
235,280,207885,1,2,1:0:0:0:
181,220,208125,1,2,1:0:0:0:
216,148,208365,1,2,1:0:0:0:
294,134,208605,6,0,P|396:150|496:164,1,200,6|0,1:0|0:0,0:0:0:0:
491,163,209325,1,2,1:0:0:0:
479,242,209565,2,0,P|377:225|277:212,1,200,14|2,0:0|0:0,0:0:0:0:
281,212,210285,1,2,1:0:0:0:
281,212,210525,1,0,0:0:0:0:
207,181,210765,6,0,P|197:108|181:24,2,150,2|2|10,1:0|1:0|0:0,0:0:0:0:
214,260,211725,1,2,0:0:0:0:
148,306,211965,1,2,0:0:0:0:
71,283,212205,1,2,1:0:0:0:
51,205,212445,6,0,P|65:148|197:124,1,200,4|0,1:0|0:0,0:0:0:0:
252,167,213165,1,2,1:0:0:0:
292,236,213405,2,0,P|391:215|501:206,1,200,14|2,0:0|0:0,0:0:0:0:
489,206,214125,1,0,1:0:0:0:
489,206,214365,1,0,0:0:0:0:
458,280,214605,6,0,P|413:222|441:143,2,150,2|0|10,1:0|1:0|0:0,0:0:0:0:
511,339,215565,1,2,0:0:0:0:
443,382,215805,1,2,0:0:0:0:
391,321,216045,1,0,1:0:0:0:
322,362,216285,6,0,P|221:366|103:378,1,200,6|0,1:0|0:0,0:0:0:0:
43,359,217005,1,2,1:0:0:0:
3,289,217245,2,0,P|4:191|33:92,1,200,14|2,0:0|0:0,0:0:0:0:
32,93,217965,1,2,1:0:0:0:
32,93,218205,1,0,0:0:0:0:
111,86,218445,6,0,P|78:24|-8:25,2,150,2|0|10,1:0|1:0|0:0,0:0:0:0:
118,165,219405,1,2,0:0:0:0:
156,234,219645,2,0,P|204:218|260:210,1,100,2|0,0:0|1:0,0:0:0:0:
229,134,220125,6,0,B|352:139|274:200|419:201,1,200,4|0,1:0|0:0,0:0:0:0:
471,251,220845,1,2,1:0:0:0:
488,172,221085,2,0,P|500:98|403:35,1,200,14|2,0:0|0:0,0:0:0:0:
328,52,221805,1,2,1:0:0:0:
328,52,222045,1,0,0:0:0:0:
278,114,222285,6,0,P|212:86|133:83,2,150,2|0|10,1:0|1:0|0:0,0:0:0:0:
356,128,223245,1,2,0:0:0:0:
391,199,223485,2,0,L|370:301,1,100,2|0,0:0|1:0,0:0:0:0:
336,369,223965,5,4,1:0:0:0:
289,304,224205,2,0,P|282:255|269:199,2,100,2|2|2,0:0|0:0|1:0,0:0:0:0:
231,359,224925,2,0,B|101:357|172:302|25:309,1,200,14|2,0:0|0:0,0:0:0:0:
42,308,225645,2,0,P|61:248|51:200,1,100,2|0,1:0|0:0,0:0:0:0:
18,141,226125,2,0,P|77:183|161:177,2,150,2|0|10,1:0|1:0|0:0,0:0:0:0:
12,61,227085,1,2,0:0:0:0:
85,28,227325,2,0,P|133:42|187:49,1,100,2|2,0:0|1:0,0:0:0:0:
260,31,227805,5,4,1:0:0:0:
319,84,228045,2,0,P|307:131|298:182,2,100,2|2|2,0:0|0:0|1:0,0:0:0:0:
370,22,228765,2,0,P|435:15|493:121,1,200,14|2,0:0|0:0,0:0:0:0:
508,198,229485,2,0,P|458:205|401:220,1,100,2|0,1:0|0:0,0:0:0:0:
333,239,229965,6,0,P|300:180|320:92,2,150,2|0|10,1:0|1:0|0:0,0:0:0:0:
392,292,230925,1,2,0:0:0:0:
352,361,231165,2,0,P|304:366|251:378,1,100,2|0,0:0|1:0,0:0:0:0:
177,350,231645,5,4,1:0:0:0:
113,301,231885,1,2,0:0:0:0:
124,221,232125,1,2,0:0:0:0:
201,202,232365,1,2,1:0:0:0:
277,225,232605,2,0,P|339:213|334:90,1,200,14|2,0:0|0:0,0:0:0:0:
312,21,233325,2,0,P|269:43|216:61,1,100,2|0,1:0|0:0,0:0:0:0:
158,8,233805,6,0,P|110:52|120:132,2,150,2|0|10,1:0|1:0|0:0,0:0:0:0:
237,2,234765,1,2,0:0:0:0:
258,79,235005,2,0,P|244:123|234:191,1,100,2|0,0:0|1:0,0:0:0:0:
217,254,235485,5,4,1:0:0:0:
255,324,235725,1,2,0:0:0:0:
334,326,235965,1,2,0:0:0:0:
389,268,236205,1,2,1:0:0:0:
366,191,236445,6,0,B|288:202|288:202|258:235|258:235|171:254,1,200,14|2,0:0|0:0,0:0:0:0:
103,239,237165,2,0,P|93:189|121:135,1,100,2|0,1:0|0:0,0:0:0:0:
133,67,237645,2,0,P|195:101|283:101,2,150,2|0|10,1:0|1:0|0:0,0:0:0:0:
67,21,238605,1,2,0:0:0:0:
12,79,238845,1,2,0:0:0:0:
53,147,239085,1,2,1:0:0:0:
25,222,239325,6,0,P|133:235|248:256,3,220.000006713867,2|2|2|2,1:0|1:0|1:0|1:0,0:0:0:0:
489,52,243165,6,0,P|391:11|288:57,3,220.000006713867,2|2|2|2,1:0|1:0|1:0|1:0,0:0:0:0:
337,369,247005,6,0,B|261:345|261:345|194:361|194:361|122:344,3,220.000006713867,2|2|2|2,1:0|1:0|1:0|1:0,0:0:0:0:
0,219,250845,6,0,P|107:209|192:274,1,220.000006713867,2|2,1:0|1:0,0:0:0:0:
192,274,252285,2,0,L|258:281,1,55.0000016784668,2|2,0:0|0:0,0:0:0:0:
290,273,252765,1,2,0:0:0:0:
