osu file format v14

[General]
AudioFilename: audio.mp3
AudioLeadIn: 0
PreviewTime: 41840
Countdown: 0
SampleSet: Soft
StackLeniency: 0.7
Mode: 0
LetterboxInBreaks: 0
WidescreenStoryboard: 0

[Editor]
DistanceSpacing: 0.6
BeatDivisor: 4
GridSize: 32
TimelineZoom: 1.8

[Metadata]
Title:3-pun 29-byou (TV Size)
TitleUnicode:3分29秒 (TV Size)
Artist:hitorie
ArtistUnicode:ヒトリエ​
Creator:Saggin
Version:Nonexistence
Source:86―エイティシックス―
Tags:japanese anime rock jrock j-rock opening op eighty-six godkei sanairrt 3:29 3 minutes 29 seconds 86
BeatmapID:2941504
BeatmapSetID:1428768

[Difficulty]
HPDrainRate:5
CircleSize:4.2
OverallDifficulty:8
ApproachRate:9.3
SliderMultiplier:1.7
SliderTickRate:1

[Events]
//Background and Video events
0,0,"86.png",0,0
Video,325,"video.mp4"
//Break Periods
//Storyboard Layer 0 (Background)
//Storyboard Layer 1 (Fail)
//Storyboard Layer 2 (Pass)
//Storyboard Layer 3 (Foreground)
//Storyboard Layer 4 (Overlay)
//Storyboard Sound Samples

[TimingPoints]
535,295.566502463054,4,2,1,100,1,0
535,-133.333333333333,4,2,1,50,0,0
1717,-133.333333333333,4,2,1,40,0,0
6446,-111.111111111111,4,2,1,60,0,0
10584,-200,4,2,1,40,0,0
11175,-100,4,2,1,65,0,0
13022,-100,4,2,1,5,0,0
13096,-100,4,2,1,65,0,0
17751,-100,4,2,1,5,0,0
17825,-100,4,2,1,65,0,0
20633,-111.111111111111,4,2,1,40,0,0
39254,-66.6666666666667,4,2,1,65,0,0
39475,-66.6666666666667,4,2,1,5,0,0
39549,-100,4,2,1,40,0,0
41323,-100,4,2,1,40,0,0
41360,-100,4,2,1,5,0,0
41397,-100,4,2,1,40,0,0
41434,-100,4,2,1,5,0,0
41618,-100,4,2,1,40,0,0
41655,-100,4,2,1,5,0,0
41692,-100,4,2,1,40,0,0
41729,-100,4,2,1,5,0,0
41766,-100,4,2,1,40,0,0
41803,-100,4,2,1,5,0,0
41914,-90.9090909090909,4,2,1,75,0,0
42135,-90.9090909090909,4,2,1,5,0,0
42209,-90.9090909090909,4,2,1,75,0,0
43170,-90.9090909090909,4,2,1,5,0,0
43244,-90.9090909090909,4,2,1,75,0,0
43761,-90.9090909090909,4,2,1,5,0,0
43835,-90.9090909090909,4,2,1,75,0,0
46865,-90.9090909090909,4,2,1,5,0,0
46938,-90.9090909090909,4,2,1,75,0,0
49229,-90.9090909090909,4,2,1,5,0,0
49303,-90.9090909090909,4,2,1,75,0,0
51594,-90.9090909090909,4,2,1,5,0,0
51668,-90.9090909090909,4,2,1,75,0,0
52628,-90.9090909090909,4,2,1,5,0,0
52702,-90.9090909090909,4,2,1,75,0,0
53219,-90.9090909090909,4,2,1,5,0,0
53293,-90.9090909090909,4,2,1,75,0,0
56323,-90.9090909090909,4,2,1,5,0,0
56397,-90.9090909090909,4,2,1,75,0,0
58687,-90.9090909090909,4,2,1,5,0,0
58761,-90.9090909090909,4,2,1,75,0,0
60830,-111.111111111111,4,2,1,40,0,0
65559,-200,4,2,1,40,0,0
67924,-100,4,2,1,65,0,0
74500,-100,4,2,1,5,0,0
74574,-100,4,2,1,65,0,0
76791,-66.6666666666667,4,2,1,65,0,0
77012,-66.6666666666667,4,2,1,5,0,0
77086,295.566502463054,4,2,1,100,1,0
77086,-100,4,2,1,65,0,0
83662,-100,4,2,1,5,0,0
83736,-100,4,2,1,65,0,0
85952,304.568527918782,4,2,1,100,1,0
87017,234.375,4,2,1,100,1,0
87134,295.566502463054,4,2,1,100,1,0

[Colours]
Combo1 : 255,100,100
Combo2 : 172,255,251
Combo3 : 249,191,113
Combo4 : 1,46,129

[HitObjects]
402,84,535,5,8,0:0:0:0:
347,141,682,2,0,L|351:172,2,31.8750012159348,0|0|0,1:0|1:0|1:0,0:0:0:0:
432,185,978,1,0,1:0:0:0:
430,200,1052,1,0,1:0:0:0:
428,216,1126,1,0,1:0:0:0:
341,364,1273,5,8,0:0:0:0:
263,187,1421,1,8,0:0:0:0:
432,289,1569,1,8,0:0:0:0:
262,379,1717,6,0,B|191:376|227:328|126:342,1,127.500004863739,2|0,1:2|0:0,0:0:0:0:
16,212,2308,1,2,0:0:0:0:
74,161,2456,2,0,P|110:170|148:172,1,63.7500024318696,2|0,0:0|0:0,0:0:0:0:
270,299,2751,6,0,P|248:255|275:168,1,127.500004863739,2|0,0:0|0:0,0:0:0:0:
381,67,3195,1,0,0:0:0:0:
385,144,3342,2,0,B|308:143|356:98|245:98,1,127.500004863739,2|0,0:0|0:0,0:0:0:0:
114,29,3786,1,2,0:0:0:0:
114,29,4081,5,2,0:0:0:0:
58,86,4229,2,0,P|67:134|71:173,1,63.7500024318696,2|0,0:0|0:0,0:0:0:0:
11,300,4525,2,0,B|30:270|68:264|68:264|98:293|141:296,1,127.500004863739,2|0,0:0|0:0,0:0:0:0:
233,200,5116,2,0,P|177:190|125:308,1,191.250007295609,2|0,0:0|0:0,0:0:0:0:
359,344,5855,5,0,1:0:0:0:
359,344,6150,5,0,1:0:0:0:
359,344,6446,5,6,0:0:0:0:
464,125,6594,2,0,B|407:136|407:136|399:163|399:163|327:180,1,152.999995330811,0|8,1:0|0:0,0:0:0:0:
214,19,7037,5,2,1:2:0:0:
277,68,7185,1,0,1:0:0:0:
213,175,7333,2,0,P|210:128|200:85,1,76.4999976654053,8|0,0:0|0:0,0:0:0:0:
83,223,7628,5,2,1:2:0:0:
156,247,7776,1,2,1:2:0:0:
68,89,7924,1,2,1:2:0:0:
15,261,8071,2,0,P|24:317|25:352,1,76.4999976654053,2|8,0:0|0:0,0:0:0:0:
156,247,8367,2,0,P|188:257|206:259,2,38.2499988327027,2|0|0,1:2|1:0|1:0,0:0:0:0:
217,357,8663,5,0,1:0:0:0:
217,357,8736,1,0,1:0:0:0:
217,357,8810,2,0,P|262:347|371:338,1,152.999995330811,4|0,1:2|0:0,0:0:0:0:
137,166,9254,6,0,P|163:117|131:17,1,152.999995330811,4|0,1:2|0:0,0:0:0:0:
393,183,9697,6,0,P|381:249|372:360,1,152.999995330811,4|0,1:2|0:0,0:0:0:0:
452,104,10140,6,0,B|363:103|409:164|292:162,1,152.999995330811,4|0,1:2|0:0,0:0:0:0:
206,37,10584,2,0,L|211:69,1,21.25,2|2,0:0|0:0,0:0:0:0:
166,134,10732,5,0,0:0:0:0:
166,134,10805,1,0,0:0:0:0:
166,134,10879,2,0,L|171:166,1,21.25,2|2,0:0|0:0,0:0:0:0:
226,213,11027,6,0,L|231:245,1,21.25,2|2,0:0|0:0,0:0:0:0:
366,98,11175,5,0,1:0:0:0:
294,63,11323,1,0,1:0:0:0:
372,247,11470,1,8,0:0:0:0:
477,62,11618,2,0,P|471:108|467:159,1,85,2|0,1:2|0:0,0:0:0:0:
374,328,11914,5,8,0:0:0:0:
345,325,11987,1,8,0:0:0:0:
321,311,12061,1,8,0:0:0:0:
302,290,12135,1,8,0:0:0:0:
281,272,12209,1,8,0:0:0:0:
254,263,12283,1,8,0:0:0:0:
226,261,12357,2,0,L|183:270,1,42.5,8|8,0:0|0:0,0:0:0:0:
366,100,12505,6,0,P|377:149|382:210,1,85,2|0,1:2|0:0,0:0:0:0:
203,38,12801,2,0,P|158:47|50:62,1,127.5,4|0,1:2|0:0,0:0:0:0:
58,62,13096,1,8,0:0:0:0:
271,184,13244,1,8,0:0:0:0:
65,293,13392,5,0,1:0:0:0:
65,293,13466,1,0,1:0:0:0:
65,293,13539,1,0,1:0:0:0:
122,207,13687,1,0,1:0:0:0:
249,360,13835,1,8,0:0:0:0:
249,360,13909,1,0,1:0:0:0:
249,360,13983,2,0,B|276:322|318:313|318:313|345:347|403:352,1,170,4|8,1:2|0:0,0:0:0:0:
454,305,14352,5,8,0:0:0:0:
450,279,14425,1,8,0:0:0:0:
446,254,14499,1,8,0:0:0:0:
443,229,14573,1,8,0:0:0:0:
439,204,14647,1,8,0:0:0:0:
436,178,14722,2,0,L|429:126,1,42.5,8|8,0:0|0:0,0:0:0:0:
221,272,14869,5,2,1:2:0:0:
221,272,15165,2,0,B|133:274|189:203|55:208,1,170,4|8,1:2|0:0,0:0:0:0:
225,134,15608,1,8,0:0:0:0:
118,313,15756,1,8,0:0:0:0:
41,129,15904,6,0,P|51:84|53:35,1,85,0|0,1:0|1:0,0:0:0:0:
147,179,16200,1,8,0:0:0:0:
273,19,16347,2,0,P|224:25|182:27,1,85,2|0,1:2|0:0,0:0:0:0:
331,261,16643,5,8,0:0:0:0:
315,237,16716,1,8,0:0:0:0:
304,211,16790,1,8,0:0:0:0:
299,183,16864,1,8,0:0:0:0:
300,155,16938,1,8,0:0:0:0:
307,127,17012,1,8,0:0:0:0:
319,101,17086,2,0,P|333:80|357:64,1,42.5,8|8,0:0|0:0,0:0:0:0:
226,254,17234,6,0,P|172:244|113:244,1,85,2|0,1:2|0:0,0:0:0:0:
414,100,17530,2,0,P|405:155|396:241,1,127.5,4|0,1:2|0:0,0:0:0:0:
401,240,17825,1,8,0:0:0:0:
326,50,17973,1,8,0:0:0:0:
485,232,18121,5,8,0:0:0:0:
485,232,18195,1,8,0:0:0:0:
485,232,18268,2,0,B|390:232|447:304|320:301,1,170,4|0,1:2|0:0,0:0:0:0:
181,75,18712,6,0,P|241:77|281:193,1,170,4|0,1:2|0:0,0:0:0:0:
121,343,19155,6,0,L|97:161,1,170,4|0,1:2|0:0,0:0:0:0:
306,24,19599,6,0,B|408:23|351:107|461:95|461:95|421:83|398:55,1,255,4|0,1:2|0:0,0:0:0:0:
317,97,20190,2,0,L|324:143,2,42.5,0|0|0,1:0|1:0|1:0,0:0:0:0:
400,190,20485,1,0,1:0:0:0:
400,190,20559,1,0,1:0:0:0:
400,190,20633,5,4,1:2:0:0:
396,206,20929,1,0,1:0:0:0:
395,222,21224,1,0,1:0:0:0:
394,239,21520,1,0,1:0:0:0:
256,358,21815,5,0,1:0:0:0:
258,341,22111,1,0,1:0:0:0:
260,324,22406,1,0,1:0:0:0:
262,307,22702,1,0,1:0:0:0:
211,245,22850,1,0,1:0:0:0:
355,127,22998,5,0,1:0:0:0:
338,123,23293,1,0,1:0:0:0:
321,119,23589,1,0,1:0:0:0:
304,115,23884,1,0,1:0:0:0:
180,13,24180,5,0,1:0:0:0:
163,17,24475,1,0,1:0:0:0:
146,21,24771,1,0,1:0:0:0:
129,25,25067,1,4,1:2:0:0:
53,186,25510,5,2,1:2:0:0:
53,186,25584,1,2,1:2:0:0:
53,186,25658,2,2,L|60:237,1,38.2499988327027,2|2,1:2|1:2,1:2:0:0:
8,313,25805,5,2,1:2:0:0:
30,317,25879,1,2,1:2:0:0:
52,322,25953,1,2,1:2:0:0:
74,326,26027,1,2,1:2:0:0:
96,331,26101,1,10,0:2:0:0:
395,76,26397,6,0,L|388:127,1,38.2499988327027,2|2,1:2|0:0,0:0:0:0:
318,144,26544,2,0,L|325:195,1,38.2499988327027,2|2,1:2|0:0,0:0:0:0:
397,255,26692,5,2,1:2:0:0:
375,259,26766,1,2,1:2:0:0:
353,264,26840,1,2,1:2:0:0:
331,268,26914,1,2,1:2:0:0:
309,273,26988,1,10,0:2:0:0:
115,60,27283,6,0,L|121:103,2,38.2499988327027,2|0|2,1:2|1:0|1:2,0:0:0:0:
56,162,27579,5,0,1:0:0:0:
56,162,27653,1,0,1:0:0:0:
56,162,27727,2,0,B|143:158|103:221|198:219,1,152.999995330811,4|0,1:2|1:0,0:0:0:0:
190,219,28318,1,0,1:0:0:0:
209,225,28613,1,0,1:0:0:0:
308,110,28909,5,0,1:0:0:0:
326,113,29204,1,0,1:0:0:0:
346,117,29500,1,0,1:0:0:0:
398,178,29648,1,0,1:0:0:0:
356,244,29796,1,0,1:0:0:0:
360,248,30091,6,0,P|306:256|196:278,1,152.999995330811,4|0,1:2|1:0,0:0:0:0:
191,280,30682,1,0,1:0:0:0:
171,285,30978,1,0,1:0:0:0:
25,167,31273,5,0,1:0:0:0:
108,105,31569,2,0,P|98:175|90:280,1,152.999995330811,4|0,1:2|1:0,0:0:0:0:
125,340,31963,5,0,1:0:0:0:
136,348,32062,6,0,P|164:340|187:322,1,50.9999984436036,0|0,1:0|1:0,0:0:0:0:
252,349,32259,6,0,P|259:320|253:298,1,50.9999984436036,0|0,1:0|1:0,0:0:0:0:
285,168,32456,6,0,P|216:179|193:265,1,152.999995330811,4|0,1:2|1:0,0:0:0:0:
188,250,33047,1,8,0:0:0:0:
409,357,33342,5,2,1:2:0:0:
454,296,33490,1,2,1:2:0:0:
423,226,33638,2,0,P|371:236|272:248,1,152.999995330811,2|0,1:2|1:0,0:0:0:0:
271,248,34229,1,8,0:0:0:0:
56,112,34525,5,2,1:2:0:0:
149,56,34820,2,0,P|140:116|135:185,1,101.999996887207,2|2,1:2|0:0,0:0:0:0:
69,193,35116,1,2,1:2:0:0:
69,193,35214,2,0,P|72:234|73:262,1,50.9999984436036,2|0,0:0|0:0,0:0:0:0:
61,342,35411,2,0,B|128:347|104:295|186:300,1,101.999996887207,10|2,0:0|0:0,0:0:0:0:
213,261,35707,2,0,P|253:270|292:277,1,50.9999984436036,0|2,1:2|1:2,0:0:0:0:
262,271,35855,1,2,1:2:0:0:
439,372,36002,6,0,P|416:334|440:223,1,152.999995330811,2|0,1:2|1:0,0:0:0:0:
491,76,36446,2,0,P|453:101|410:103,1,76.4999976654053,2|8,0:0|0:0,0:0:0:0:
264,192,36741,1,2,0:0:0:0:
331,232,36889,1,10,0:0:0:0:
254,51,37037,1,8,0:0:0:0:
407,231,37185,5,4,1:2:0:0:
407,231,37480,6,0,B|325:237|369:298|246:290,1,152.999995330811,2|8,1:2|0:0,0:0:0:0:
86,108,38071,5,2,1:2:0:0:
143,148,38219,1,0,1:2:0:0:
32,297,38367,2,0,P|31:249|14:119,2,152.999995330811,0|0|8,1:0|1:0|0:0,0:0:0:0:
32,297,39254,6,0,B|148:304|85:229|217:235,1,191.250007295609,2|0,0:0|0:0,0:0:0:0:
265,302,39549,6,0,P|239:259|272:140,1,170,4|0,1:2|0:0,0:0:0:0:
491,345,39993,6,0,B|465:310|416:313|416:313|394:349|330:355,1,170,4|0,1:2|0:0,0:0:0:0:
245,73,40436,6,0,P|303:80|330:195,1,170,4|0,1:2|0:0,0:0:0:0:
97,257,40879,6,0,B|193:256|152:332|268:329,1,170,4|0,1:2|0:0,0:0:0:0:
336,274,41323,6,0,L|338:249,1,21.25,2|0,0:0|0:0,0:0:0:0:
325,269,41397,2,0,L|327:244,1,21.25,2|0,0:0|0:0,0:0:0:0:
215,132,41618,6,0,L|213:153,1,21.25,2|0,0:0|0:0,0:0:0:0:
204,127,41692,2,0,L|202:148,1,21.25,2|0,0:0|0:0,0:0:0:0:
192,122,41766,2,0,L|190:143,1,21.25,2|0,0:0|0:0,0:0:0:0:
350,18,41914,6,0,P|403:20|441:111,1,140.25000428009,6|0,1:2|0:0,0:0:0:0:
463,83,42209,2,0,P|456:134|458:200,1,93.5000028533936,8|0,0:0|0:0,0:0:0:0:
269,98,42505,5,2,1:2:0:0:
322,149,42653,1,2,1:2:0:0:
223,0,42801,1,8,0:0:0:0:
121,213,42948,6,0,B|206:211|158:277|274:270,1,140.25000428009,6|0,1:2|0:0,0:0:0:0:
251,284,43244,2,0,P|247:238|248:189,1,93.5000028533936,2|8,1:2|0:0,0:0:0:0:
30,19,43539,6,0,P|39:99|45:199,1,140.25000428009,2|0,1:2|0:0,0:0:0:0:
45,169,43835,1,2,1:2:0:0:
223,0,43983,2,0,P|275:11|322:13,1,93.5000028533936,10|0,0:0|0:0,0:0:0:0:
126,107,44278,5,2,1:2:0:0:
340,190,44426,2,0,P|293:193|247:203,1,93.5000028533936,2|8,0:2|0:0,0:0:0:0:
494,92,44722,6,0,P|477:45|494:-5,1,93.5000028533936,2|0,0:0|1:0,0:0:0:0:
340,190,45017,1,2,1:2:0:0:
308,116,45165,1,8,0:0:0:0:
478,329,45313,6,0,B|367:336|431:256|287:273,1,187.000005706787,6|0,1:2|1:0,0:0:0:0:
494,92,45756,2,0,P|487:147|485:199,1,93.5000028533936,8|0,0:0|0:0,0:0:0:0:
230,107,46052,5,2,1:2:0:0:
402,25,46200,1,2,1:2:0:0:
383,28,46273,1,0,1:2:0:0:
365,31,46347,1,8,0:0:0:0:
210,180,46495,5,10,0:0:0:0:
210,180,46569,1,8,0:0:0:0:
210,180,46643,2,0,P|265:178|295:87,1,140.25000428009,6|0,1:2|0:0,0:0:0:0:
310,110,46938,2,0,P|295:59|289:13,1,93.5000028533936,8|0,0:0|0:0,0:0:0:0:
122,142,47234,5,2,1:2:0:0:
328,196,47382,1,0,1:2:0:0:
171,21,47530,2,0,P|117:36|70:40,1,93.5000028533936,8|0,0:0|0:0,0:0:0:0:
12,281,47825,6,0,B|37:245|95:235|95:235|118:279|186:283,1,187.000005706787,2|10,1:2|0:0,0:0:0:0:
311,109,48268,1,2,1:2:0:0:
380,301,48416,1,2,1:2:0:0:
214,153,48564,2,0,P|210:99|198:45,1,93.5000028533936,2|8,1:2|0:0,0:0:0:0:
420,185,48860,1,2,0:0:0:0:
165,286,49007,6,0,B|243:284|205:341|327:330,1,140.25000428009,6|0,1:2|0:0,0:0:0:0:
307,329,49303,5,8,0:0:0:0:
80,169,49451,1,0,1:0:0:0:
312,65,49599,5,8,0:0:0:0:
165,286,49746,1,0,1:0:0:0:
25,64,49894,5,8,0:0:0:0:
247,230,50042,2,0,P|237:291|235:343,1,93.5000028533936,0|8,1:0|0:0,0:0:0:0:
195,48,50337,6,0,P|146:58|89:61,1,93.5000028533936,0|0,1:0|0:0,0:0:0:0:
239,316,50633,2,0,P|285:319|431:355,1,187.000005706787,4|8,1:2|0:0,0:0:0:0:
480,298,51002,1,8,0:0:0:0:
480,298,51076,2,0,L|486:247,1,46.7500014266968,8|8,0:0|0:0,0:0:0:0:
350,75,51224,5,8,0:0:0:0:
334,85,51298,1,8,0:0:0:0:
331,103,51372,2,0,B|407:117|376:57|489:62,1,140.25000428009,6|0,1:2|0:0,0:0:0:0:
475,56,51668,2,0,P|466:120|462:171,1,93.5000028533936,8|0,0:0|0:0,0:0:0:0:
247,58,51963,5,2,1:2:0:0:
311,10,52111,1,2,1:2:0:0:
253,192,52259,1,8,0:0:0:0:
70,26,52406,6,0,P|124:24|161:119,1,140.25000428009,6|0,1:2|0:0,0:0:0:0:
177,99,52702,2,0,P|120:107|70:123,1,93.5000028533936,2|8,1:2|0:0,0:0:0:0:
326,213,52998,6,0,P|317:268|308:368,1,140.25000428009,2|0,1:2|0:0,0:0:0:0:
307,368,53293,1,2,1:2:0:0:
70,209,53441,2,0,P|82:149|85:114,1,93.5000028533936,10|0,0:0|0:0,0:0:0:0:
157,269,53736,5,2,1:2:0:0:
0,157,53884,1,2,0:0:0:0:
181,105,54032,1,10,0:0:0:0:
0,299,54180,6,0,P|55:306|105:321,1,93.5000028533936,2|0,0:0|1:0,0:0:0:0:
249,225,54475,1,2,1:2:0:0:
190,178,54623,1,8,0:0:0:0:
412,56,54771,6,0,P|359:55|317:174,1,187.000005706787,6|0,1:2|1:0,0:0:0:0:
486,92,55214,2,0,P|479:40|476:-11,1,93.5000028533936,8|0,0:0|0:0,0:0:0:0:
343,236,55510,2,0,P|346:282|352:328,1,93.5000028533936,2|0,1:2|1:0,0:0:0:0:
358,346,55732,1,10,0:0:0:0:
358,346,55805,1,8,0:0:0:0:
194,154,55953,5,10,0:0:0:0:
194,154,56027,1,8,0:0:0:0:
194,154,56101,2,0,P|149:162|36:188,1,140.25000428009,6|0,1:2|0:0,0:0:0:0:
51,191,56397,2,0,P|48:137|38:84,1,93.5000028533936,8|0,0:0|0:0,0:0:0:0:
258,201,56692,5,2,1:2:0:0:
75,295,56840,1,0,1:0:0:0:
225,84,56988,2,0,P|281:97|325:99,1,93.5000028533936,8|0,0:0|0:0,0:0:0:0:
238,361,57283,6,0,B|203:324|155:319|155:319|137:371|66:379|67:379,1,187.000005706787,2|8,1:2|0:0,0:0:0:0:
373,252,57727,2,0,P|356:202|384:136,1,93.5000028533936,2|0,0:0|1:0,0:0:0:0:
474,332,58022,1,2,1:2:0:0:
504,260,58170,1,10,0:0:0:0:
342,384,58318,1,2,0:0:0:0:
480,134,58466,6,0,B|401:141|438:81|318:88,1,140.25000428009,4|0,1:2|0:0,0:0:0:0:
356,66,58761,2,0,P|304:75|257:73,1,93.5000028533936,8|2,0:0|0:0,0:0:0:0:
141,188,59057,1,2,1:2:0:0:
219,231,59204,2,0,P|212:177|217:125,1,93.5000028533936,0|0,1:0|0:0,0:0:0:0:
4,18,59500,6,0,P|10:79|18:211,1,187.000005706787,8|0,0:2|1:0,0:0:0:0:
197,316,59943,2,0,P|136:329|93:345,1,93.5000028533936,8|0,0:0|1:0,0:0:0:0:
216,133,60239,5,0,1:0:0:0:
230,136,60337,6,0,P|267:145|288:185,1,62.3333352355958,0|0,1:0|1:0,0:0:0:0:
351,134,60534,5,0,1:0:0:0:
359,145,60633,6,0,P|369:181|345:219,1,62.3333352355958,0|0,1:0|1:0,0:0:0:0:
237,235,60830,6,0,B|322:231|280:302|391:294,1,152.999995330811,2|2,1:2|1:2,0:0:0:0:
508,163,61421,1,10,0:0:0:0:
432,127,61569,2,0,P|437:185|443:235,1,76.4999976654053,2|0,0:0|1:0,0:0:0:0:
286,54,61865,6,0,P|238:62|126:78,1,152.999995330811,2|2,1:2|0:0,0:0:0:0:
36,196,62308,1,2,1:2:0:0:
107,149,62456,1,2,0:0:0:0:
24,43,62603,2,0,P|32:108|35:221,1,152.999995330811,10|2,0:0|1:2,0:0:0:0:
201,347,63195,6,0,B|221:309|270:304|270:304|296:331|343:336,1,152.999995330811,2|2,1:2|1:2,0:0:0:0:
449,218,63638,1,2,0:0:0:0:
395,162,63786,2,0,B|312:155|348:226|219:196,1,152.999995330811,10|2,0:0|1:2,0:0:0:0:
377,241,64229,1,2,1:2:0:0:
193,157,64377,6,0,P|210:108|183:9,2,152.999995330811,2|0|8,1:2|1:0|0:0,0:0:0:0:
196,156,65264,5,8,0:0:0:0:
306,46,65411,1,8,0:0:0:0:
113,176,65559,6,0,P|121:228|132:352,1,170,6|0,1:2|0:0,0:0:0:0:
131,344,66741,6,0,B|225:351|184:283|309:303,1,170,0|0,1:0|0:0,0:0:0:0:
457,71,67924,5,0,1:0:0:0:
294,188,68071,1,0,1:0:0:0:
469,266,68219,1,8,0:0:0:0:
323,87,68367,2,0,B|277:96|223:102,1,85,2|0,1:2|0:0,0:0:0:0:
93,260,68663,5,8,0:0:0:0:
121,263,68736,1,8,0:0:0:0:
146,275,68810,1,8,0:0:0:0:
166,296,68884,1,8,0:0:0:0:
186,315,68958,1,8,0:0:0:0:
212,325,69032,1,8,0:0:0:0:
240,329,69106,2,0,L|296:320,1,42.5,8|8,0:0|0:0,0:0:0:0:
134,89,69254,6,0,P|143:143|147:203,1,85,2|0,1:2|0:0,0:0:0:0:
327,1,69549,2,0,P|380:0|422:118,1,170,4|8,1:2|0:0,0:0:0:0:
345,293,69993,1,8,0:0:0:0:
258,96,70140,5,0,1:0:0:0:
258,96,70214,1,0,1:0:0:0:
258,96,70288,1,0,1:0:0:0:
350,163,70436,1,0,1:0:0:0:
181,303,70584,1,8,0:0:0:0:
181,303,70658,1,0,1:0:0:0:
181,303,70732,2,0,B|93:313|146:244|1:263,1,170,6|8,1:2|0:0,0:0:0:0:
27,181,71101,5,8,0:0:0:0:
29,160,71174,1,8,0:0:0:0:
31,139,71248,1,8,0:0:0:0:
33,118,71322,1,8,0:0:0:0:
36,97,71396,1,8,0:0:0:0:
38,76,71470,2,0,L|43:16,1,42.5,8|8,0:0|0:0,0:0:0:0:
169,223,71618,5,2,1:2:0:0:
169,223,71914,6,0,P|218:214|351:206,1,170,4|8,1:2|0:0,0:0:0:0:
161,101,72357,1,8,0:0:0:0:
261,293,72505,1,8,0:0:0:0:
351,91,72653,6,0,P|339:39|335:-1,1,85,0|0,1:0|1:0,0:0:0:0:
438,195,72948,1,8,0:0:0:0:
271,58,73096,2,2,P|223:70|184:69,1,85,2|0,1:2|0:2,1:2:0:0:
57,217,73392,5,8,0:0:0:0:
75,195,73465,1,8,0:0:0:0:
87,169,73539,1,8,0:0:0:0:
91,141,73613,1,8,0:0:0:0:
89,113,73687,1,8,0:0:0:0:
78,87,73761,1,8,0:0:0:0:
62,64,73835,2,0,L|11:74,1,42.5,8|8,0:0|0:0,0:0:0:0:
119,272,73983,6,0,P|161:274|219:291,1,85,2|0,1:2|0:0,0:0:0:0:
349,77,74278,2,0,P|338:139|328:242,1,127.5,4|0,0:0|0:0,0:0:0:0:
326,220,74574,1,8,0:0:0:0:
433,44,74722,1,8,0:0:0:0:
250,217,74869,5,0,1:0:0:0:
250,217,74943,1,0,1:0:0:0:
250,217,75017,2,0,B|350:213|309:283|405:280,1,170,4|0,1:2|0:0,0:0:0:0:
220,28,75461,6,0,P|154:32|117:146,1,170,4|0,1:2|0:0,0:0:0:0:
239,313,75904,6,0,B|219:275|169:265|169:265|146:302|84:310,1,170,4|0,1:2|0:0,0:0:0:0:
279,86,76347,6,0,P|337:99|447:114,1,170,4|0,1:2|0:0,0:0:0:0:
446,113,76791,6,0,B|351:107|390:179|267:171,1,191.250007295609,2|0,0:0|0:0,0:0:0:0:
279,86,77086,5,0,1:0:0:0:
445,191,77233,1,0,1:0:0:0:
337,28,77381,1,8,0:0:0:0:
265,192,77529,2,0,P|273:258|276:306,1,85,2|0,1:2|0:0,0:0:0:0:
48,160,77824,5,8,0:0:0:0:
47,131,77897,1,8,0:0:0:0:
56,105,77971,1,8,0:0:0:0:
74,83,78045,1,8,0:0:0:0:
98,68,78119,1,8,0:0:0:0:
125,63,78193,1,8,0:0:0:0:
153,68,78268,2,0,L|219:84,1,42.5,8|8,0:0|0:0,0:0:0:0:
100,263,78416,6,0,P|47:268|-9:280,1,85,2|0,1:2|0:0,0:0:0:0:
258,195,78711,2,0,P|239:151|266:25,1,170,4|8,1:2|0:0,0:0:0:0:
174,213,79154,1,8,0:0:0:0:
349,50,79302,5,0,1:1:0:0:
349,50,79376,1,0,1:1:0:0:
349,50,79450,1,0,1:0:0:0:
306,115,79598,1,0,1:0:0:0:
177,25,79746,1,8,0:0:0:0:
322,192,79893,2,0,P|380:181|499:170,1,170,2|8,1:2|0:0,0:0:0:0:
508,239,80263,5,8,0:0:0:0:
504,259,80336,1,8,0:0:0:0:
500,280,80410,1,8,0:0:0:0:
496,301,80484,1,8,0:0:0:0:
493,322,80558,1,8,0:0:0:0:
489,343,80632,2,0,L|479:397,1,42.5,8|8,0:0|0:0,0:0:0:0:
386,140,80780,5,2,1:2:0:0:
386,140,81076,2,0,B|355:105|310:115|310:115|286:160|224:149,1,170,4|8,1:2|0:0,0:0:0:0:
130,321,81519,1,12,0:0:0:0:
39,140,81667,1,0,1:0:0:0:
230,237,81815,6,0,P|222:282|218:340,1,85,0|0,1:0|1:0,0:0:0:0:
85,199,82110,1,8,0:0:0:0:
229,79,82258,2,0,P|174:94|134:91,1,85,2|0,1:2|0:0,0:0:0:0:
302,264,82553,5,8,0:0:0:0:
330,262,82626,1,8,0:0:0:0:
356,252,82700,1,8,0:0:0:0:
376,232,82774,1,8,0:0:0:0:
397,213,82848,1,8,0:0:0:0:
423,203,82922,1,8,0:0:0:0:
451,203,82997,2,0,L|508:211,1,42.5,8|8,0:0|0:0,0:0:0:0:
302,24,83145,2,0,P|309:103|311:144,1,85,2|0,1:2|0:0,0:0:0:0:
213,325,83440,6,0,P|201:278|119:252,1,127.5,4|0,1:2|0:0,0:0:0:0:
113,247,83736,1,8,0:0:0:0:
310,323,83884,1,8,0:0:0:0:
79,176,84031,5,0,1:0:0:0:
79,176,84105,1,0,1:0:0:0:
79,176,84179,2,0,P|132:175|241:115,1,170,4|0,1:2|0:0,0:0:0:0:
490,26,84622,6,0,P|439:31|404:137,1,170,4|0,1:2|0:0,0:0:0:0:
504,345,85066,6,0,B|476:303|427:307|427:307|399:337|350:338,1,170,4|0,1:2|0:0,0:0:0:0:
245,113,85509,6,0,P|252:161|267:379,1,255,4|0,1:2|0:0,0:0:0:0:
271,378,86408,5,0,1:0:0:0:
271,378,86484,1,0,1:0:0:0:
271,378,86561,1,0,1:0:0:0:
328,328,86713,1,0,1:0:0:0:
436,259,86865,5,0,1:0:0:0:
385,203,87017,1,0,1:0:0:0:
431,136,87134,6,0,P|384:171|265:197,1,170,4|0,1:2|0:0,0:0:0:0:
168,21,87577,6,0,P|221:44|303:134,1,170,4|0,1:2|0:0,0:0:0:0:
192,311,88020,6,0,P|185:252|222:136,1,170,4|0,1:2|0:0,0:0:0:0:
17,320,88464,6,0,B|116:317|72:401|183:382|183:382|142:379|115:347,1,255,4|0,1:2|0:0,0:0:0:0:
