osu file format v14

[General]
AudioFilename: audio.mp3
AudioLeadIn: 0
PreviewTime: 41715
Countdown: 0
SampleSet: Soft
StackLeniency: 0.4
Mode: 0
LetterboxInBreaks: 0
WidescreenStoryboard: 1

[Editor]
DistanceSpacing: 0.2
BeatDivisor: 4
GridSize: 4
TimelineZoom: 2.799999

[Metadata]
Title:3-pun 29-byou
TitleUnicode:3分29秒
Artist:hitorie
ArtistUnicode:ヒトリエ
Creator:Ryuusei Aika
Version:Flake's Insane
Source:86―エイティシックス―
Tags:japanese rock j-rock jrock Mocaotic Ducky- Stormiverse Flake Deca Fixxis Black Man Airiesu Mujina 3 san bun min 29 nijyuukyuu byou sec 86 eighty six eighty-six male vocal anime opening op イガラシ Igarashi シノダ Shinoda ゆーまお Yuumao
BeatmapID:3098285
BeatmapSetID:1457787

[Difficulty]
HPDrainRate:4.5
CircleSize:4
OverallDifficulty:7.6
ApproachRate:9
SliderMultiplier:1.5
SliderTickRate:1

[Events]
//Background and Video events
0,0,"BG.jpg",0,0
//Break Periods
2,1589,5666
2,138731,142809
//Storyboard Layer 0 (Background)
//Storyboard Layer 1 (Fail)
//Storyboard Layer 2 (Pass)
//Storyboard Layer 3 (Foreground)
//Storyboard Layer 4 (Overlay)
//Storyboard Sound Samples

[TimingPoints]
355,295.566502463054,4,2,1,60,1,0
10256,-100,4,2,1,40,0,0
10995,-80,4,2,1,70,0,0
18088,-100,4,2,1,60,0,0
20453,-133.333333333333,4,2,1,50,0,0
25330,-133.333333333333,4,2,1,60,0,0
27547,-133.333333333333,4,2,1,50,0,0
32276,-133.333333333333,4,2,1,55,0,0
39074,-200,4,2,1,55,0,0
39295,-133.333333333333,4,2,1,55,0,0
39369,-100,4,2,1,60,0,0
40995,-100,4,2,1,40,0,0
41734,-100,4,2,1,80,0,0
41955,-100,4,2,1,80,0,0
42029,-100,4,2,1,80,0,0
43581,-100,4,2,1,80,0,0
43655,-100,4,2,1,80,0,0
46685,-100,4,2,1,80,0,0
46758,-100,4,2,1,80,0,0
51414,-100,4,2,1,80,0,0
51488,-100,4,2,1,80,0,0
53039,-100,4,2,1,80,0,0
53113,-100,4,2,1,80,0,0
53778,-100,4,2,1,80,0,0
53852,-100,4,2,1,80,0,0
56143,-100,4,2,1,80,0,0
56217,-100,4,2,1,80,0,0
57325,-100,4,2,1,80,0,0
57399,-100,4,2,1,80,0,0
58507,-100,4,2,1,80,0,0
58581,-100,4,2,1,80,0,0
58803,-100,4,2,1,80,0,0
58877,-100,4,2,1,80,0,0
60059,-100,4,2,1,80,0,0
60650,-100,4,2,1,60,0,0
65379,-200,4,2,1,60,0,0
67744,-80,4,2,1,70,0,0
69591,-80,4,2,1,70,0,0
69665,-80,4,2,1,70,0,0
74320,-80,4,2,1,70,0,0
74394,-80,4,2,1,70,0,0
77202,-100,4,2,1,60,0,0
96118,-100,4,2,1,70,0,0
98409,-100,4,2,1,70,0,0
98483,-100,4,2,1,70,0,0
100182,-100,4,2,1,70,0,0
100256,-100,4,2,1,70,0,0
103138,-100,4,2,1,70,0,0
103212,-100,4,2,1,70,0,0
105798,-100,4,2,1,70,0,0
105872,-100,4,2,1,70,0,0
106241,-100,4,2,1,70,0,0
106315,-100,4,2,1,70,0,0
107276,-100,4,2,1,70,0,0
107350,-100,4,2,1,70,0,0
109640,-100,4,2,1,70,0,0
109714,-100,4,2,1,70,0,0
115034,-100,4,2,1,50,0,0
117103,-133.333333333333,4,2,1,50,0,0
124098,-133.333333333333,4,2,1,45,0,0
124492,-133.333333333333,4,2,1,40,0,0
125084,-133.333333333333,4,2,1,35,0,0
125675,-133.333333333333,4,2,1,30,0,0
126069,-133.333333333333,4,2,1,45,0,0
126266,-133.333333333333,4,2,1,50,0,0
131586,-133.333333333333,4,2,1,50,0,0
133951,-100,4,2,1,60,0,0
138680,-100,4,2,1,40,0,0
143409,-133.333333333333,4,2,1,50,0,0
145773,-133.333333333333,4,2,1,60,0,0
147399,-133.333333333333,4,2,1,40,0,0
148138,-100,4,2,1,80,0,0
148359,-100,4,2,1,80,0,0
148433,-100,4,2,1,80,0,0
149985,-100,4,2,1,80,0,0
150059,-100,4,2,1,80,0,0
150724,-100,4,2,1,80,0,0
150798,-100,4,2,1,80,0,0
157818,-100,4,2,1,80,0,0
157891,-100,4,2,1,80,0,0
176512,-100,4,2,1,60,0,0
185231,-100,4,2,1,40,0,0
185970,-80,4,2,1,70,0,0
193064,-100,4,2,1,60,0,0
195133,294.985250737463,4,2,1,70,1,0
195133,-80,4,2,1,70,0,0
202212,-100,4,2,1,60,0,0
204466,294.985250737463,4,2,1,50,1,0
205192,292.682926829268,4,2,1,60,1,0
205192,-100,4,2,1,60,0,0
207094,-100,4,2,1,5,0,0

[Colours]
Combo1 : 192,192,192
Combo2 : 128,128,128

[HitObjects]
176,193,355,5,8,2:0:0:0:
109,153,502,5,8,2:0:0:0:
118,135,576,1,8,2:0:0:0:
135,125,650,1,8,2:0:0:0:
176,272,798,5,8,2:0:0:0:
156,272,872,1,8,2:0:0:0:
139,262,946,1,0,3:2:0:0:
256,170,1093,5,10,2:0:0:0:
156,272,1241,5,10,2:0:0:0:
118,135,1389,5,10,2:0:0:0:
255,190,6266,5,6,3:2:0:0:
276,110,6414,2,0,P|349:99|410:56,1,150,2|8,3:2|2:0,0:0:0:0:
410,55,7005,5,0,3:2:0:0:
483,95,7153,2,0,P|504:125|509:162,1,75,8|0,2:0|0:0,0:0:0:0:
322,232,7448,5,2,3:2:0:0:
384,278,7596,1,10,2:0:0:0:
394,200,7744,1,2,3:2:0:0:
394,200,8039,6,0,P|372:169|367:132,1,75,8|10,2:0|2:0,0:0:0:0:
367,132,8261,1,8,2:0:0:0:
367,132,8335,1,0,3:2:0:0:
205,54,8483,5,8,2:3:0:0:
205,54,8556,1,8,2:3:0:0:
205,54,8630,2,0,P|144:41|20:151,3,225,6|6|6|6,3:1|3:1|3:1|3:1,0:0:0:0:
23,133,10995,5,6,3:2:0:0:
97,156,11143,1,0,3:2:0:0:
80,78,11290,1,8,2:0:0:0:
23,133,11438,6,0,P|73:122|174:212,1,187.5,6|8,3:2|2:0,0:0:0:0:
181,209,11808,1,8,2:0:0:0:
181,209,11882,2,0,P|201:203|230:177,4,46.875,8|8|8|8|8,2:0|2:0|2:0|2:0|2:0,0:0:0:0:
392,49,12325,6,0,L|299:36,1,93.75,2|0,3:1|0:0,0:0:0:0:
429,132,12621,2,0,L|216:104,1,187.5,2|10,3:1|2:0,0:0:0:0:
166,133,13064,1,10,2:0:0:0:
115,263,13212,1,10,2:0:0:0:
115,263,13286,1,8,2:0:0:0:
115,263,13359,5,6,3:2:0:0:
189,240,13507,1,0,3:2:0:0:
174,346,13654,1,8,2:0:0:0:
115,263,13803,6,0,P|171:259|296:305,1,187.5,6|8,3:2|2:0,0:0:0:0:
299,307,14172,1,8,2:0:0:0:
305,311,14246,2,0,P|297:285|298:256,4,46.875,8|8|8|8|8,2:0|2:0|2:0|2:0|2:0,0:0:0:0:
477,239,14689,6,0,L|461:331,1,93.75,2|0,3:1|0:0,0:0:0:0:
406,186,14985,2,0,L|375:371,1,187.5,2|10,3:1|2:0,0:0:0:0:
320,218,15428,1,10,2:0:0:0:
305,311,15575,1,10,2:0:0:0:
232,253,15724,6,0,P|204:251|141:274,1,93.75,6|0,3:2|3:2,0:0:0:0:
44,246,16020,1,8,2:0:0:0:
88,358,16167,6,0,P|126:273|127:180,1,187.5,6|8,3:2|2:0,0:0:0:0:
125,173,16537,1,8,2:0:0:0:
122,165,16611,2,0,P|143:170|167:174,4,46.875,8|8|8|8|8,2:0|2:0|2:0|2:0|2:0,0:0:0:0:
0,102,17054,6,0,L|105:85,1,93.75,2|0,3:1|0:0,0:0:0:0:
143,22,17350,2,0,L|353:56,1,187.5,2|10,3:1|2:0,0:0:0:0:
400,20,17793,1,10,2:0:0:0:
499,119,17941,1,10,2:0:0:0:
499,119,18015,1,8,2:0:0:0:
499,119,18088,6,0,P|438:106|314:216,3,225,6|6|6|6,3:1|3:1|3:1|3:1,0:0:0:0:
318,199,20453,6,0,P|322:166|295:88,1,112.500004291535,4|0,3:2|1:2,0:0:0:0:
214,111,21044,2,0,P|209:143|236:221,1,112.500004291535,0|0,1:2|1:2,0:0:0:0:
233,217,21488,1,2,2:0:0:0:
124,208,21635,5,2,1:2:0:0:
164,274,21783,2,0,L|147:333,1,56.2500021457673,2|0,2:0|1:2,0:0:0:0:
71,322,22079,2,0,L|65:261,1,56.2500021457673,2|0,2:0|1:2,0:0:0:0:
124,208,22374,1,2,3:2:0:0:
125,195,22522,2,0,L|132:134,1,56.2500021457673,2|2,1:2|3:2,0:0:0:0:
213,111,22818,6,0,P|211:166|233:217,1,112.500004291535,0|0,3:2|1:2,0:0:0:0:
318,198,23409,2,0,P|320:143|298:92,1,112.500004291535,0|0,1:2|1:2,0:0:0:0:
298,92,23852,1,2,2:0:0:0:
394,21,24000,5,2,1:2:0:0:
395,102,24148,2,0,L|511:80,2,112.500004291535,2|2|2,2:0|2:0|2:0,0:0:0:0:
464,167,24887,2,0,L|453:222,1,56.2500021457673,0|2,3:2|2:0,0:0:0:0:
188,295,25330,6,0,L|182:267,2,28.1250010728836,4|0|8,2:3|2:0|2:3,0:0:0:0:
266,311,25625,2,0,L|260:283,2,28.1250010728836,4|4|0,2:3|2:3|3:2,0:0:0:0:
211,367,25921,1,10,2:0:0:0:
188,295,26217,6,0,L|182:267,2,28.1250010728836,4|0|8,2:3|2:0|2:3,0:0:0:0:
266,311,26512,2,0,L|260:283,2,28.1250010728836,4|4|0,2:3|2:3|3:2,0:0:0:0:
211,367,26808,1,10,2:0:0:0:
233,217,27103,6,0,L|238:189,2,28.1250010728836,8|8|8,2:0|2:0|2:0,0:0:0:0:
233,217,27547,6,0,P|288:220|336:249,1,112.500004291535,6|0,3:2|1:2,0:0:0:0:
372,139,28138,2,0,P|316:135|268:106,1,112.500004291535,0|0,1:2|1:2,0:0:0:0:
268,106,28581,1,2,2:0:0:0:
166,141,28729,5,2,1:2:0:0:
103,102,28877,2,0,P|76:107|52:124,1,56.2500021457673,2|0,2:0|1:2,0:0:0:0:
50,196,29172,2,0,P|68:217|93:228,1,56.2500021457673,2|0,2:0|1:2,0:0:0:0:
166,259,29468,1,2,3:2:0:0:
167,268,29616,2,0,P|171:297|175:328,1,56.2500021457673,0|2,1:2|3:2,0:0:0:0:
336,249,29911,6,0,P|288:220|232:217,1,112.500004291535,0|0,3:2|1:2,0:0:0:0:
268,106,30502,2,0,P|316:135|371:139,1,112.500004291535,0|0,1:2|1:2,0:0:0:0:
345,59,30946,1,2,2:0:0:0:
471,40,31093,5,2,1:2:0:0:
469,51,31241,2,0,P|457:112|446:168,1,112.500004291535,2|2,2:0|2:0,0:0:0:0:
425,299,31685,6,0,P|438:304|456:319,2,37.5000014305115,8|8|8,2:3|2:3|2:3,0:0:0:0:
396,267,31980,2,0,P|394:252|398:229,2,37.5000014305115,8|4|4,2:3|2:3|2:3,0:0:0:0:
381,311,32276,5,6,3:2:0:0:
192,282,32571,1,0,3:2:0:0:
280,360,32867,2,0,P|288:307|299:233,1,112.500004291535,8|2,2:0|2:0,0:0:0:0:
298,237,33310,1,2,3:2:0:0:
276,162,33458,5,0,3:2:0:0:
465,133,33753,1,0,3:2:0:0:
377,211,34049,2,0,P|369:158|358:84,1,112.500004291535,8|2,2:0|2:0,0:0:0:0:
359,88,34492,1,0,0:0:0:0:
206,51,34640,6,0,P|183:61|157:89,1,56.2500021457673,2|0,3:2|0:0,0:0:0:0:
157,90,34862,1,0,0:0:0:0:
157,96,34936,1,2,3:2:0:0:
76,87,35084,1,0,0:0:0:0:
144,180,35231,2,0,P|106:176|69:172,2,75.000002861023,10|2|2,2:0|2:0|3:2,0:0:0:0:
0,245,35822,6,0,P|11:271|18:304,1,56.2500021457673,2|0,3:2|0:0,0:0:0:0:
93,356,36118,2,0,P|99:328|110:302,1,56.2500021457673,2|2,3:2|2:0,0:0:0:0:
195,292,36414,1,8,2:0:0:0:
273,63,36709,5,8,2:0:0:0:
216,116,36857,1,8,2:0:0:0:
260,177,37005,1,4,3:2:0:0:
260,177,37300,2,0,P|319:184|369:220,1,112.500004291535,2|8,3:2|2:0,0:0:0:0:
242,353,37891,1,2,2:0:0:0:
336,298,38039,1,2,3:2:0:0:
401,342,38187,2,0,P|460:336|515:330,2,112.500004291535,2|0|8,3:2|3:2|2:0,0:0:0:0:
241,352,39074,2,0,P|218:333|200:307,1,56.25,2|0,2:0|0:0,0:0:0:0:
88,275,39369,6,0,P|196:265|259:176,3,225,6|6|6|6,3:1|3:1|3:1|3:1,0:0:0:0:
259,176,41734,6,0,P|204:163|157:118,1,112.5,6|0,3:2|0:0,0:0:0:0:
93,90,42029,2,0,P|54:99|21:130,1,75,10|0,2:0|0:0,0:0:0:0:
98,200,42325,1,2,3:2:0:0:
158,41,42473,2,0,P|129:17|92:9,1,75,2|8,3:2|2:0,0:0:0:0:
15,203,42768,6,0,P|25:242|34:283,1,75,6|0,3:2|0:0,0:0:0:0:
189,239,43064,2,0,P|179:200|170:159,1,75,2|8,3:2|2:0,0:0:0:0:
104,320,43359,6,0,P|144:316|213:369,1,112.5,2|0,3:2|0:0,0:0:0:0:
281,365,43655,1,2,3:2:0:0:
363,267,43803,1,10,2:0:0:0:
490,307,43951,5,0,0:0:0:0:
486,313,44024,1,0,0:0:0:0:
483,319,44098,1,6,3:2:0:0:
420,359,44246,2,0,P|382:361|344:337,1,75,2|8,2:0|2:0,0:0:0:0:
258,223,44542,2,0,P|220:220|182:244,1,75,2|0,2:0|3:2,0:0:0:0:
104,320,44837,1,2,3:2:0:0:
34,289,44985,1,8,2:0:0:0:
58,378,45133,6,0,P|65:316|77:215,1,150,6|0,3:2|3:2,0:0:0:0:
140,176,45576,1,8,2:0:0:0:
52,124,45724,5,2,2:0:0:0:
108,68,45872,1,2,3:2:0:0:
185,76,46020,1,10,2:0:0:0:
191,80,46093,1,8,2:0:0:0:
196,85,46167,1,0,3:2:0:0:
259,245,46315,1,10,2:0:0:0:
265,241,46388,1,8,2:0:0:0:
273,235,46463,6,0,B|302:202|302:202|298:171|293:124,1,112.5,6|0,3:2|0:0,0:0:0:0:
282,57,46758,2,0,P|301:29|348:6,1,75,8|0,2:0|0:0,0:0:0:0:
506,145,47054,1,2,3:2:0:0:
433,106,47202,1,0,3:2:0:0:
381,168,47350,2,0,P|389:212|393:249,1,75,8|0,2:0|0:0,0:0:0:0:
489,347,47645,6,0,P|453:335|417:326,1,75,2|0,3:2|0:0,0:0:0:0:
232,355,47941,1,10,2:0:0:0:
324,291,48088,6,0,P|325:331|300:371,1,75,2|0,2:0|3:2,0:0:0:0:
62,247,48384,2,0,P|46:280|48:317,1,75,2|8,3:2|2:0,0:0:0:0:
124,328,48680,1,2,2:0:0:0:
0,196,48827,6,0,P|44:204|137:143,1,150,6|8,3:2|2:0,0:0:0:0:
126,35,49271,1,2,2:0:0:0:
209,72,49419,1,10,2:0:0:0:
55,95,49566,5,0,3:2:0:0:
215,71,49714,2,0,P|260:64|298:59,2,75,10|2|8,2:0|3:2|2:0,0:0:0:0:
158,255,50157,5,2,3:1:0:0:
158,255,50453,2,0,P|202:247|295:308,1,150,2|8,3:1|2:0,0:0:0:0:
297,304,50822,1,8,2:0:0:0:
297,304,50896,2,0,P|317:299|340:295,1,37.5,8|8,2:0|2:0,0:0:0:0:
427,361,51044,2,0,P|406:356|383:352,1,37.5,8|8,2:0|2:0,0:0:0:0:
293,182,51192,6,0,B|363:192|363:192|388:239,1,112.5,6|0,3:2|0:0,0:0:0:0:
444,277,51488,2,0,P|494:269|523:242,1,75,10|0,2:0|0:0,0:0:0:0:
425,143,51783,1,2,3:2:0:0:
297,304,51931,2,0,P|328:343|366:354,1,75,2|8,3:2|2:0,0:0:0:0:
425,143,52226,6,0,P|416:97|413:67,1,75,6|0,3:2|0:0,0:0:0:0:
214,170,52522,2,0,P|209:132|202:96,1,75,2|8,3:2|2:0,0:0:0:0:
337,40,52818,6,0,P|285:33|215:15,1,112.5,2|0,3:2|0:0,0:0:0:0:
149,36,53113,1,2,3:2:0:0:
78,106,53261,1,10,2:0:0:0:
126,197,53409,5,0,0:0:0:0:
122,203,53483,1,0,0:0:0:0:
117,208,53556,2,0,B|142:240|142:240|122:327,1,112.5,6|0,3:2|0:0,0:0:0:0:
63,369,53852,1,8,2:0:0:0:
63,369,54000,2,0,P|23:356|-5:325,1,75,2|0,2:0|3:2,0:0:0:0:
56,254,54295,1,2,3:2:0:0:
202,326,54443,1,8,2:0:0:0:
238,251,54591,6,0,L|220:79,1,150,6|0,3:2|3:2,0:0:0:0:
155,58,55034,1,8,2:0:0:0:
369,235,55330,6,0,L|376:160,1,75,2|10,3:2|2:0,0:0:0:0:
378,153,55552,1,8,2:0:0:0:
379,145,55625,1,0,3:2:0:0:
289,330,55773,5,10,2:0:0:0:
289,330,55847,1,8,2:0:0:0:
289,330,55921,2,0,B|315:347|315:347|395:337,1,112.5,6|0,3:2|0:0,0:0:0:0:
470,324,56217,2,0,P|491:289|494:245,1,75,8|0,2:0|0:0,0:0:0:0:
379,145,56512,1,2,3:2:0:0:
369,235,56660,1,0,3:2:0:0:
449,195,56808,1,8,2:0:0:0:
222,174,57103,6,0,P|183:178|126:227,1,112.5,2|0,3:2|0:0,0:0:0:0:
70,274,57399,1,10,2:0:0:0:
193,333,57547,2,0,P|199:295|209:254,1,75,2|0,2:0|0:0,0:0:0:0:
72,124,57842,2,0,P|66:161|57:197,1,75,2|8,3:2|2:0,0:0:0:0:
116,341,58138,1,2,2:0:0:0:
222,174,58286,6,0,P|214:136|261:70,1,112.5,6|0,3:2|0:0,0:0:0:0:
257,72,58581,2,0,P|294:84|328:158,1,112.5,8|0,2:0|0:0,0:0:0:0:
329,154,58877,1,2,3:2:0:0:
404,168,59024,2,0,P|437:160|469:126,1,75,2|0,3:2|0:0,0:0:0:0:
380,327,59320,6,0,B|398:291|385:248|352:229|352:229|307:231|275:272|281:315,1,225,10|10,2:0|2:0,0:0:0:0:
317,368,59911,1,0,3:2:0:0:
134,302,60059,6,0,P|114:308|88:338,2,50,8|8|8,2:0|2:0|2:0,0:0:0:0:
167,329,60354,2,0,P|171:308|158:271,2,50,4|8|8,2:3|2:3|2:3,0:0:0:0:
127,344,60650,5,6,3:2:0:0:
109,216,60946,1,2,3:2:0:0:
91,88,61241,1,10,2:0:0:0:
172,115,61685,1,2,3:2:0:0:
172,115,61832,5,0,3:2:0:0:
184,204,62127,1,2,3:2:0:0:
197,293,62423,1,10,2:0:0:0:
385,344,63015,5,2,3:2:0:0:
403,216,63311,1,2,3:2:0:0:
421,88,63606,1,10,2:0:0:0:
340,115,64050,1,0,3:2:0:0:
340,115,64197,5,2,3:2:0:0:
328,204,64492,1,0,3:2:0:0:
315,293,64788,1,8,2:0:0:0:
256,350,65084,5,10,2:0:0:0:
197,293,65231,1,8,2:0:0:0:
197,293,65379,2,0,L|42:318,1,150,6|2,3:2|2:0,0:0:0:0:
315,293,66561,2,0,L|470:318,1,150,6|2,3:2|2:0,0:0:0:0:
463,316,67744,6,0,P|424:323|373:363,1,93.75,6|0,3:2|3:2,0:0:0:0:
511,377,68039,1,8,2:0:0:0:
511,241,68187,2,0,B|501:208|468:187|430:190|430:190|416:245|351:246,1,187.5,6|8,3:2|2:0,0:0:0:0:
362,244,68556,1,8,2:0:0:0:
352,242,68630,2,0,P|325:223|312:204,4,46.875,8|8|8|8|8,2:0|2:0|2:0|2:0|2:0,0:0:0:0:
245,72,69074,6,0,P|233:124|247:165,1,93.75,2|0,3:1|0:0,0:0:0:0:
373,19,69369,2,0,P|321:23|256:91,1,140.625,2|0,3:1|0:0,0:0:0:0:
244,160,69665,1,10,2:0:0:0:
154,123,69813,1,10,2:0:0:0:
67,144,69960,5,10,2:0:0:0:
67,144,70034,1,8,2:0:0:0:
67,144,70108,2,0,P|32:176|16:218,1,93.75,6|0,3:2|3:2,0:0:0:0:
5,85,70404,1,8,2:0:0:0:
0,303,70552,2,0,B|11:349|68:353|68:353|84:303|139:300,1,187.5,6|8,3:2|2:0,0:0:0:0:
149,300,70921,1,8,2:0:0:0:
157,302,70995,2,0,P|185:318|197:335,4,46.875,8|8|8|8|8,2:0|2:0|2:0|2:0|2:0,0:0:0:0:
218,227,71438,6,0,P|240:189|288:160,1,93.75,2|0,3:1|0:0,0:0:0:0:
288,383,71734,2,0,P|249:355|240:219,1,187.5,2|10,3:1|2:0,0:0:0:0:
456,298,72177,1,10,2:0:0:0:
376,369,72325,1,10,2:0:0:0:
385,147,72473,6,0,P|402:106|451:79,1,93.75,6|0,3:2|3:2,0:0:0:0:
466,160,72768,1,8,2:0:0:0:
311,202,72916,2,0,B|307:155|250:142|250:142|230:90|282:37,1,187.5,6|8,3:2|2:0,0:0:0:0:
276,48,73286,1,8,2:0:0:0:
284,43,73359,2,0,P|307:37|334:37,4,46.875,8|8|8|8|8,2:0|2:0|2:0|2:0|2:0,0:0:0:0:
106,187,73803,6,0,P|55:183|8:147,1,93.75,2|0,3:1|0:0,0:0:0:0:
202,75,74098,2,0,P|174:129|89:172,1,140.625,2|0,3:1|0:0,0:0:0:0:
19,160,74394,1,10,2:0:0:0:
0,263,74542,1,10,2:0:0:0:
48,332,74689,5,10,2:0:0:0:
45,339,74763,1,8,2:0:0:0:
42,346,74837,2,0,L|142:331,1,93.75,6|0,3:2|0:0,0:0:0:0:
216,314,75133,2,0,P|225:292|229:268,3,46.875,8|8|10|8,3:2|2:0|2:0|2:0,0:0:0:0:
271,193,75428,2,0,P|285:211|303:227,3,46.875,8|8|8|8,3:2|2:0|2:0|2:0,0:0:0:0:
348,297,75724,2,0,P|324:299|301:307,4,46.875,8|8|8|8|8,3:2|2:0|2:0|2:0|2:0,0:0:0:0:
512,216,76167,6,0,P|494:189|432:157,1,93.75,2|0,3:1|0:0,0:0:0:0:
444,370,76463,2,0,P|481:345|487:213,1,187.5,2|8,3:1|2:0,0:0:0:0:
360,184,76906,1,8,2:0:0:0:
309,243,77054,5,8,2:0:0:0:
314,247,77128,1,8,2:0:0:0:
318,252,77202,2,0,L|147:230,1,150,6|10,3:2|2:0,0:0:0:0:
169,232,77793,1,2,3:2:0:0:
142,307,77941,2,0,B|107:298|92:260|92:260|47:261|18:299,1,150,2|10,3:2|2:0,0:0:0:0:
69,358,78384,5,2,2:0:0:0:
104,172,78532,2,0,P|76:146|38:138,1,75,2|10,3:2|2:0,0:0:0:0:
187,66,78827,2,0,P|197:101|189:137,1,75,2|0,2:0|3:2,0:0:0:0:
33,217,79123,1,2,3:2:0:0:
105,65,79271,1,8,2:0:0:0:
169,232,79566,6,0,L|318:252,1,150,2|10,3:2|2:0,0:0:0:0:
318,252,80157,1,2,3:2:0:0:
318,329,80305,2,0,B|353:332|381:301|381:301|423:318|437:363,1,150,2|10,3:2|2:0,0:0:0:0:
382,191,80749,1,2,2:0:0:0:
382,191,81044,6,0,P|379:154|358:122,1,75,10|0,2:0|0:0,0:0:0:0:
499,184,81340,2,0,P|482:218|451:239,1,75,2|0,3:2|3:2,0:0:0:0:
317,250,81635,2,0,P|284:235|246:237,1,75,10|2,2:0|2:0,0:0:0:0:
243,244,81857,1,0,0:0:0:0:
240,251,81931,6,0,L|260:89,1,150,2|10,3:2|2:0,0:0:0:0:
258,102,82522,1,2,3:2:0:0:
185,311,82670,2,0,B|156:281|164:240|164:240|145:277|98:283,1,150,2|10,3:2|2:0,0:0:0:0:
60,220,83113,6,0,P|35:194|-7:180,2,75,2|0|8,2:0|3:2|2:0,0:0:0:0:
126,68,83704,1,2,3:2:0:0:
51,92,83852,1,0,3:2:0:0:
108,147,84000,2,0,P|144:145|182:123,1,75,8|0,2:0|0:0,0:0:0:0:
258,102,84295,6,0,L|240:251,1,150,2|10,3:2|2:0,0:0:0:0:
240,251,84887,1,2,3:2:0:0:
336,138,85034,2,0,B|367:164|363:206|363:206|379:167|424:156,1,150,0|10,3:2|2:0,0:0:0:0:
419,357,85626,5,0,3:2:0:0:
300,300,85773,2,0,L|391:289,1,75,8|0,2:0|0:0,0:0:0:0:
152,372,86069,5,2,3:2:0:0:
202,315,86217,1,0,3:2:0:0:
128,303,86364,2,0,L|37:292,1,75,8|8,2:0|2:0,0:0:0:0:
50,302,86586,1,8,2:0:0:0:
47,308,86660,6,0,L|70:146,1,150,6|10,3:2|2:0,0:0:0:0:
68,159,87251,1,2,3:2:0:0:
140,126,87399,2,0,P|225:125|253:189,1,150,2|10,3:2|2:0,0:0:0:0:
336,107,87842,5,2,2:0:0:0:
424,203,87990,2,0,P|380:196|345:171,1,75,2|10,3:2|2:0,0:0:0:0:
273,55,88286,2,0,P|229:61|194:86,1,75,2|0,2:0|3:2,0:0:0:0:
141,126,88581,1,2,3:2:0:0:
9,109,88729,1,8,2:0:0:0:
68,159,88877,1,0,0:0:0:0:
68,159,89024,6,0,L|47:308,1,150,2|10,3:2|2:0,0:0:0:0:
47,308,89615,1,2,3:2:0:0:
111,352,89763,2,0,P|195:352|223:288,1,150,2|10,3:2|2:0,0:0:0:0:
205,170,90207,5,2,2:0:0:0:
205,170,90354,2,0,P|181:140|175:104,1,75,2|8,3:2|2:0,0:0:0:0:
94,239,90650,2,0,P|128:251|165:246,1,75,2|0,2:0|3:2,0:0:0:0:
284,159,90946,2,0,P|297:124|326:100,1,75,2|8,3:2|2:0,0:0:0:0:
512,311,91241,5,0,0:0:0:0:
512,311,91315,1,0,0:0:0:0:
512,311,91389,2,0,B|450:268|450:268|364:297,1,150,2|10,3:2|2:0,0:0:0:0:
379,291,91980,1,2,3:2:0:0:
305,314,92128,2,0,P|264:304|230:277,1,75,2|0,3:2|0:0,0:0:0:0:
216,213,92423,5,10,2:0:0:0:
79,241,92571,2,0,L|-3:256,2,75,2|0|8,2:0|3:2|2:0,0:0:0:0:
79,241,93162,5,2,3:2:0:0:
216,213,93310,1,0,3:2:0:0:
173,357,93458,2,0,L|158:275,1,75,10|0,2:0|0:0,0:0:0:0:
131,146,93754,6,0,P|148:101|249:50,1,150,2|8,3:2|2:0,0:0:0:0:
232,50,94345,1,2,3:2:0:0:
312,29,94492,2,0,L|297:111,1,75,0|0,3:2|0:0,0:0:0:0:
254,357,94788,6,0,L|224:193,1,150,10|2,2:0|3:2,0:0:0:0:
227,209,95231,1,8,2:0:0:0:
447,238,95527,6,0,P|467:247|485:265,3,37.5,8|8|10|8,3:2|2:0|2:0|2:0,0:0:0:0:
409,218,95822,2,0,P|404:196|414:159,3,37.5,8|8|10|8,3:2|2:0|2:0|2:0,0:0:0:0:
411,262,96118,6,0,B|372:297|372:297|265:276,1,150,6|8,3:2|2:0,0:0:0:0:
276,278,96709,2,0,P|239:286|210:313,1,75,0|0,3:2|3:2,0:0:0:0:
57,281,97005,1,8,2:0:0:0:
144,366,97153,6,0,L|124:206,1,150,2|0,3:2|3:2,0:0:0:0:
175,120,97596,1,8,2:0:0:0:
49,141,97891,5,0,3:2:0:0:
106,86,98039,1,0,3:2:0:0:
175,120,98187,2,0,P|215:112|272:62,1,112.5,8|0,2:0|0:0,0:0:0:0:
339,24,98483,6,0,P|396:27|461:101,1,150,2|8,3:2|2:0,0:0:0:0:
458,90,99074,2,0,P|420:100|392:127,1,75,0|0,3:2|3:2,0:0:0:0:
268,66,99369,1,8,2:0:0:0:
344,219,99517,2,0,L|322:372,1,150,2|2,3:2|3:2,0:0:0:0:
177,231,99960,2,0,L|193:344,1,112.5,10|0,2:0|0:0,0:0:0:0:
194,353,100256,5,0,3:2:0:0:
26,369,100404,1,0,3:2:0:0:
103,321,100552,2,0,L|91:240,1,75,8|0,2:0|0:0,0:0:0:0:
0,144,100847,6,0,P|42:163|110:95,1,150,2|10,3:2|2:0,0:0:0:0:
109,100,101438,1,2,3:2:0:0:
174,46,101586,1,2,3:2:0:0:
234,164,101734,5,10,2:0:0:0:
299,109,101882,2,0,L|383:96,1,75,2|0,3:2|0:0,0:0:0:0:
438,219,102177,5,2,3:2:0:0:
467,299,102325,1,10,2:0:0:0:
382,282,102473,2,0,L|298:268,2,75,2|0|0,2:0|3:2|3:2,0:0:0:0:
231,358,102916,2,0,B|213:280|213:280|236:234,1,112.5,10|0,2:0|0:0,0:0:0:0:
151,215,103212,6,0,L|2:238,1,150,2|10,3:2|2:0,0:0:0:0:
2,238,103803,2,0,P|26:203|32:162,1,75,2|2,3:2|3:2,0:0:0:0:
86,263,104098,5,10,2:0:0:0:
61,97,104246,2,0,L|49:22,2,75,6|0|2,3:2|0:0|3:2,0:0:0:0:
224,147,104689,1,10,2:0:0:0:
224,147,104985,6,0,P|215:126|192:109,2,37.5,8|8|8,3:2|2:0|2:0,0:0:0:0:
233,242,105281,6,0,P|219:260|216:288,2,37.5,8|8|8,3:2|2:0|2:0,0:0:0:0:
350,254,105576,6,0,P|372:256|452:203,1,112.5,6|0,3:2|0:0,0:0:0:0:
452,203,105872,1,10,2:0:0:0:
418,123,106020,6,0,P|395:120|315:173,1,112.5
316,174,106316,1,0,3:2:0:0:
427,278,106463,1,10,2:0:0:0:
295,353,106611,6,0,L|206:336,1,75,2|0,3:2|0:0,0:0:0:0:
144,360,106906,1,0,3:2:0:0:
27,226,107054,2,0,B|74:218|74:218|83:225|83:225|146:214,1,112.5,8|0,2:0|0:0,0:0:0:0:
147,213,107350,5,2,3:1:0:0:
72,299,107497,1,0,0:0:0:0:
132,137,107645,1,0,0:0:0:0:
251,264,107793,1,0,0:0:0:0:
251,264,107867,1,0,0:0:0:0:
251,264,107941,6,0,B|268:203|268:203|257:181|257:181|276:108,1,150,2|10,3:2|2:0,0:0:0:0:
239,47,108384,1,0,0:0:0:0:
349,184,108532,2,0,L|438:167,2,75,2|2|10,3:2|3:2|2:0,0:0:0:0:
485,21,108975,5,2,3:2:0:0:
427,77,109123,2,0,L|353:62,1,75,0|2,0:0|3:2,0:0:0:0:
165,18,109419,2,0,B|118:29|118:29|109:45|109:45|46:59,1,112.5,10|0,2:0|0:0,0:0:0:0:
18,117,109714,5,2,3:1:0:0:
99,153,109862,1,0,0:0:0:0:
25,201,110010,2,0,L|35:283,1,75
163,331,110305,6,0,B|175:275|175:275|164:255|164:255|182:175,1,150,6|10,3:2|2:0,0:0:0:0:
179,186,110896,1,2,3:2:0:0:
317,156,111044,1,2,3:2:0:0:
232,112,111192,1,10,2:0:0:0:
260,233,111340,2,0,P|295:255|335:259,1,75,2|0,3:2|0:0,0:0:0:0:
416,176,111635,5,2,3:2:0:0:
493,192,111783,1,10,2:0:0:0:
460,264,111931,2,0,L|444:106,1,150,2|0,2:0|3:2,0:0:0:0:
433,36,112374,1,10,2:0:0:0:
194,70,112670,6,0,P|170:104|163:216,1,150,6|8,3:2|2:0,0:0:0:0:
260,233,113113,6,0,P|295:167|293:93,1,150,6|10,3:2|2:0,0:0:0:0:
293,93,113556,1,6,3:2:0:0:
48,204,113852,6,0,P|21:209|-2:214,2,50,6|8|8,3:2|2:0|2:0,0:0:0:0:
89,221,114148,6,0,P|83:194|78:170,2,50,8|8|8,2:0|2:0|2:0,0:0:0:0:
72,262,114443,6,0,P|98:256|122:251,2,50,4|4|4,2:3|2:3|2:3,0:0:0:0:
31,245,114739,6,0,P|36:271|41:295,2,50,8|8|8,2:3|2:3|2:3,0:0:0:0:
7,134,115034,1,6,3:2:0:0:
7,134,117103,5,10,2:0:0:0:
72,34,117251,1,8,2:0:0:0:
72,34,117694,5,0,0:0:0:0:
174,81,117990,2,0,B|223:71|223:71|228:56|228:56|288:45,1,112.500004291535,10|2,2:0|2:0,0:0:0:0:
343,8,118433,1,2,3:2:0:0:
381,79,118581,2,0,L|358:200,2,112.500004291535,2|2|8,3:2|3:2|2:0,0:0:0:0:
490,298,119763,5,2,3:2:0:0:
309,334,120354,1,8,2:0:0:0:
309,334,120798,5,2,3:2:0:0:
238,292,120946,2,0,L|119:312,2,112.500004291535,2|0|8,3:2|3:2|2:0,0:0:0:0:
364,272,121832,2,0,P|389:257|412:229,1,56.2500021457673,2|0,2:0|0:0,0:0:0:0:
416,148,122128,5,2,3:2:0:0:
290,114,122423,1,2,3:2:0:0:
370,68,122719,5,10,2:0:0:0:
336,194,123014,1,2,2:0:0:0:
336,194,123162,1,0,3:2:0:0:
254,211,123310,6,0,B|212:203|212:203|199:212|199:212|137:199,1,112.500004291535,2|0,3:2|3:2,0:0:0:0:
179,70,123901,6,0,L|175:32,2,37.5000014305115,10|0|8,2:0|0:0|2:0,0:0:0:0:
182,92,124197,2,0,L|185:129,2,37.5000014305115,0|8|8,0:0|2:0|2:0,0:0:0:0:
99,57,124492,6,0,B|49:49|49:49|24:58,2,75.000002861023,8|8|8,2:0|2:0|2:0,0:0:0:0:
228,202,125084,2,0,B|277:209|277:209|302:200,2,75.000002861023,4|4|4,2:3|2:3|2:3,0:0:0:0:
141,196,125675,6,0,L|128:269,2,75.000002861023,4|4|0,2:3|2:3|3:2,0:0:0:0:
171,23,126266,1,8,2:0:0:0:
171,23,126857,6,0,P|218:21|325:113,1,187.500007152558,6|2,3:2|2:0,0:0:0:0:
339,184,127448,1,10,2:0:0:0:
339,184,127891,5,0,0:0:0:0:
398,136,128039,2,0,B|400:106|400:106|418:84,1,56.2500021457673,2|0,3:2|0:0,0:0:0:0:
491,111,128335,2,0,B|489:141|489:141|471:163,1,56.2500021457673,2|2,3:2|2:0,0:0:0:0:
493,236,128630,1,10,2:0:0:0:
339,184,128926,1,2,2:0:0:0:
274,231,129221,1,2,3:2:0:0:
274,231,129517,2,0,P|236:220|171:264,1,112.500004291535,2|8,3:2|2:0,0:0:0:0:
23,247,130108,1,2,2:0:0:0:
23,247,130182,1,0,0:0:0:0:
23,247,130256,1,2,3:2:0:0:
90,318,130404,2,0,L|105:199,1,112.500004291535,2|0,3:2|3:2,0:0:0:0:
192,49,130995,6,0,P|207:33|240:23,2,37.5000014305115,8|8|8,2:0|2:0|2:0,0:0:0:0:
197,88,131290,2,0,P|175:83|150:59,2,37.5000014305115,8|8|4,2:3|2:3|2:3,0:0:0:0:
223,69,131586,6,0,P|255:44|190:176,1,675.000025749207,6|2,3:2|2:0,0:0:0:0:
193,193,133951,6,0,P|122:110|13:109,3,225,6|6|6|6,3:1|3:1|3:1|3:1,0:0:0:0:
319,193,136315,6,1,P|389:110|498:109,3,225,6|14|14|6,3:1|3:1|3:1|3:1,0:0:0:0:
498,109,137941,1,8,2:3:0:0:
495,115,138015,1,0,0:0:0:0:
492,121,138088,1,0,3:2:0:0:
489,128,138162,1,0,3:2:0:0:
486,134,138236,2,0,L|474:55,2,75,10|10|10,2:0|2:0|2:0,0:0:0:0:
457,221,143409,5,6,3:2:0:0:
457,221,143556,2,0,L|394:215,1,56.2500021457673,0|0,3:2|0:0,0:0:0:0:
336,169,143852,2,0,P|301:174|251:230,1,112.500004291535,8|0,2:0|3:2,0:0:0:0:
288,304,144295,1,8,2:0:0:0:
19,328,144591,5,2,3:2:0:0:
92,367,144739,1,8,2:0:0:0:
92,367,144887,2,0,P|122:356|147:335,1,56.2500021457673,2|10,3:2|2:0,0:0:0:0:
139,260,145182,2,0,P|113:248|92:230,1,56.2500021457673,8|10,2:0|2:0,0:0:0:0:
89,150,145478,1,4,2:3:0:0:
160,183,145625,1,8,2:3:0:0:
15,218,145773,6,0,L|20:184,4,28.1250010728836,14|8|8|8|8,3:2|2:0|2:0|2:0|2:0,0:0:0:0:
89,150,146217,2,0,L|94:116,4,28.1250010728836,14|8|8|8|8,3:2|2:0|2:0|2:0|2:0,0:0:0:0:
140,260,146660,2,0,L|145:226,4,28.1250010728836,14|8|8|8|8,3:2|2:0|2:0|2:0|2:0,0:0:0:0:
214,192,147103,1,14,3:2:0:0:
240,354,148138,6,0,P|277:353|349:301,1,112.5,6|0,3:2|0:0,0:0:0:0:
404,270,148433,2,0,L|390:185,1,75,10|0,2:0|0:0,0:0:0:0:
320,239,148729,1,2,3:2:0:0:
443,344,148877,2,0,P|471:318|485:281,1,75,2|8,3:2|2:0,0:0:0:0:
478,136,149172,6,0,B|449:110|449:110|408:116,1,75,6|0,3:2|0:0,0:0:0:0:
391,195,149468,2,0,B|419:220|419:220|460:214,1,75,2|8,3:2|2:0,0:0:0:0:
304,59,149763,6,0,L|283:189,1,112.5,2|0,3:2|0:0,0:0:0:0:
320,239,150059,1,2,3:2:0:0:
211,316,150207,1,10,2:0:0:0:
138,219,150354,5,0,0:0:0:0:
138,219,150428,1,0,0:0:0:0:
138,219,150502,2,0,P|81:222|33:271,1,112.5,6|0,3:2|0:0,0:0:0:0:
0,324,150798,1,10,2:0:0:0:
44,150,150946,2,0,P|28:116|-9:90,1,75,2|0,2:0|3:2,0:0:0:0:
40,256,151241,1,2,3:2:0:0:
117,296,151389,1,8,2:0:0:0:
70,365,151537,2,0,P|104:332|207:329,1,150,6|0,3:2|3:2,0:0:0:0:
433,301,151980,1,8,2:0:0:0:
298,361,152276,6,0,P|283:326|285:288,1,75,2|10,3:2|2:0,0:0:0:0:
284,289,152497,1,8,2:0:0:0:
284,289,152571,1,0,3:2:0:0:
358,225,152719,5,10,2:0:0:0:
358,225,152793,1,8,2:0:0:0:
358,225,152867,2,0,B|420:257|420:257|472:190,1,150,6|8,3:2|2:0,0:0:0:0:
377,46,153310,1,0,0:0:0:0:
431,122,153458,2,0,P|391:123|354:144,1,75,2|0,3:2|3:2,0:0:0:0:
292,297,153754,1,8,2:0:0:0:
163,192,154049,6,0,L|185:68,1,112.5,2|0,3:2|0:0,0:0:0:0:
136,19,154345,1,10,2:0:0:0:
0,114,154492,6,0,L|74:100,1,75,2|0,2:0|0:0,0:0:0:0:
112,293,154788,2,0,L|38:279,1,75,2|8,3:2|2:0,0:0:0:0:
86,207,155084,1,2,2:0:0:0:
277,235,155231,6,0,P|327:263|367:356,1,150,6|8,3:2|2:0,0:0:0:0:
473,259,155675,1,2,2:0:0:0:
409,193,155822,5,10,2:0:0:0:
448,343,155970,1,2,3:2:0:0:
264,315,156118,2,0,L|179:336,2,75,10|2|10,2:0|3:2|2:0,0:0:0:0:
86,207,156561,5,2,3:1:0:0:
86,207,156857,2,0,B|183:184|183:184|227:210,1,150,2|8,3:1|2:0,0:0:0:0:
232,214,157226,1,8,2:0:0:0:
237,218,157300,2,0,L|245:178,1,37.5,8|8,2:0|2:0,0:0:0:0:
201,71,157448,2,0,L|209:111,1,37.5,8|8,2:0|2:0,0:0:0:0:
317,216,157596,6,0,B|353:200|353:200|369:124,1,112.5,6|0,3:2|0:0,0:0:0:0:
378,51,157891,2,0,P|406:26|444:15,1,75,10|0,2:0|0:0,0:0:0:0:
450,103,158187,1,2,3:2:0:0:
298,85,158335,2,0,P|290:48|299:9,1,75,2|8,3:2|2:0,0:0:0:0:
437,186,158630,6,0,P|471:192|511:197,1,75,6|0,3:2|0:0,0:0:0:0:
332,318,158926,2,0,P|298:312|257:306,1,75,2|8,3:2|2:0,0:0:0:0:
219,151,159221,2,2,P|293:141|367:128,1,150,2|2,3:2|3:2,0:1:0:0:
181,9,159665,2,2,B|156:36|156:36|170:72,1,75,10|0,2:0|0:0,0:1:0:0:
174,77,159887,1,0,0:0:0:0:
179,82,159960,6,0,L|43:67,1,112.5,6|0,3:2|0:0,0:0:0:0:
0,32,160256,1,8,2:0:0:0:
24,172,160404,2,0,L|42:250,1,75,2|0,2:0|3:2,0:0:0:0:
191,215,160699,1,2,3:2:0:0:
120,143,160847,1,8,2:0:0:0:
83,314,160995,2,0,P|139:318|227:373,1,150,6|0,3:2|3:2,0:0:0:0:
415,297,161438,1,8,2:0:0:0:
191,215,161734,6,0,P|219:213|263:185,1,75,2|10,3:2|2:0,0:0:0:0:
258,189,161955,1,8,2:0:0:0:
258,189,162029,1,0,3:2:0:0:
337,60,162177,5,10,2:0:0:0:
337,60,162251,1,8,2:0:0:0:
337,60,162325,2,0,P|377:54|457:128,1,150,6|8,3:2|2:0,0:0:0:0:
498,192,162768,1,0,0:0:0:0:
429,231,162916,2,0,B|405:262|405:262|417:306,1,75,2|0,3:2|3:2,0:0:0:0:
456,365,163212,1,8,2:0:0:0:
335,314,163359,5,2,2:0:0:0:
271,359,163507,1,2,3:2:0:0:
271,359,163655,2,0,L|197:346,1,75,2|8,2:0|2:0,0:0:0:0:
31,222,163951,2,0,P|47:256|54:300,1,75,2|0,2:0|3:2,0:0:0:0:
167,258,164246,2,0,P|150:223|144:179,1,75,2|8,3:2|2:0,0:0:0:0:
263,163,164542,1,2,2:0:0:0:
189,66,164689,5,14,3:2:0:0:
180,64,164763,1,8,2:0:0:0:
172,62,164837,1,10,2:0:0:0:
163,61,164911,1,8,2:0:0:0:
155,59,164985,1,8,2:0:0:0:
61,117,165133,2,0,L|51:74,4,37.5,14|8|8|8|8,3:2|2:0|2:0|2:0|2:0,0:0:0:0:
263,163,165576,5,14,3:2:0:0:
272,161,165650,1,8,2:0:0:0:
280,159,165724,1,8,2:0:0:0:
289,158,165798,1,8,2:0:0:0:
297,156,165872,1,8,2:0:0:0:
401,199,166020,2,0,L|411:156,4,37.5,14|8|8|8|10,3:2|2:0|2:0|2:0|2:0,0:0:0:0:
200,262,166463,6,0,P|220:247|246:240,3,37.5,14|8|10|8,3:2|2:0|2:0|2:0,0:0:0:0:
273,264,166758,2,0,P|275:288|269:314,3,37.5,14|8|8|8,3:2|2:0|2:0|2:0,0:0:0:0:
286,340,167054,6,0,L|402:358,1,112.5,6|0,3:2|0:0,0:0:0:0:
472,364,167350,2,0,B|495:333|495:333|477:298,1,75,10|0,2:0|0:0,0:0:0:0:
401,199,167645,1,2,3:2:0:0:
324,186,167793,2,0,B|307:152|307:152|330:122,1,75,2|8,3:2|2:0,0:0:0:0:
470,62,168088,6,0,L|396:75,1,75,6|0,3:2|0:0,0:0:0:0:
273,264,168384,2,0,L|199:251,1,75,2|8,3:2|2:0,0:0:0:0:
183,96,168680,2,2,L|338:123,1,150,2|2,3:2|3:2,0:1:0:0:
488,271,169123,2,2,B|482:256|463:247|463:247|464:269|456:291,1,75,10|2,2:0|0:0,0:1:0:0:
452,292,169345,1,0,0:0:0:0:
448,298,169419,6,0,P|454:248|428:142,1,150,6|8,3:2|2:0,0:0:0:0:
396,74,169862,2,0,P|421:72|471:51,1,75,2|0,2:0|3:2,0:0:0:0:
273,264,170157,2,0,P|239:247|202:244,1,75,2|8,3:2|2:0,0:0:0:0:
354,228,170453,5,6,3:2:0:0:
325,126,170601,1,0,0:0:0:0:
359,236,170749,2,0,L|343:324,1,75,2|8,3:2|2:0,0:0:0:0:
126,213,171044,5,2,2:0:0:0:
186,164,171192,1,2,3:2:0:0:
117,137,171340,2,0,L|73:129,2,37.5,10|8|0,2:0|2:0|3:2,0:0:0:0:
66,359,171635,5,10,2:0:0:0:
66,359,171709,1,8,2:0:0:0:
66,359,171783,2,0,P|129:330|217:325,1,150,6|8,3:2|2:0,0:0:0:0:
208,324,172374,1,2,3:2:0:0:
363,295,172522,1,0,3:2:0:0:
278,268,172670,2,0,L|292:357,1,75,8|0,2:0|0:0,0:0:0:0:
419,360,172965,2,0,L|451:292,1,75,2|0,3:2|0:0,0:0:0:0:
511,243,173261,1,10,2:0:0:0:
372,95,173409,6,0,P|338:106|308:140,1,75,2|0,2:0|3:2,0:0:0:0:
360,206,173704,2,0,P|393:194|423:160,1,75,2|8,3:2|2:0,0:0:0:0:
498,142,174000,1,2,2:0:0:0:
451,68,174148,5,6,3:2:0:0:
419,360,174443,5,8,2:0:0:0:
109,143,174739,5,2,3:2:0:0:
123,274,174887,1,0,3:2:0:0:
123,274,175182,2,0,P|151:247|272:219,1,150,10|2,2:0|3:2,0:0:0:0:
339,199,175625,2,0,L|323:282,1,75,10|0,2:0|3:2,0:0:0:0:
440,305,175921,6,0,B|457:291|457:291|490:292,2,50,8|8|8,2:0|2:0|2:0,0:0:0:0:
408,333,176217,2,0,B|410:355|410:355|393:383,2,50,4|8|8,2:3|2:3|2:3,0:0:0:0:
392,296,176512,5,6,3:2:0:0:
259,214,176808,1,2,3:2:0:0:
120,276,177103,1,10,2:0:0:0:
182,328,177547,1,2,3:2:0:0:
190,248,177694,5,0,3:2:0:0:
65,218,177990,1,2,3:2:0:0:
156,109,178286,1,10,2:0:0:0:
140,188,178877,5,2,3:2:0:0:
273,106,179173,1,2,3:2:0:0:
412,168,179468,1,10,2:0:0:0:
350,220,179912,1,0,3:2:0:0:
342,140,180059,5,2,3:2:0:0:
467,110,180355,1,0,3:2:0:0:
376,1,180651,1,8,2:0:0:0:
376,1,180946,2,0,L|300:18,1,75,10|8,2:0|2:0,0:0:0:0:
226,32,181241,5,6,3:2:0:0:
226,32,182423,5,6,3:2:0:0:
226,32,183606,5,6,3:2:0:0:
226,32,185970,6,0,B|179:32|179:32|222:62,1,93.75,6|0,3:2|3:2,0:0:0:0:
296,65,186266,1,8,2:0:0:0:
109,81,186414,2,0,B|48:155|48:155|146:177,1,187.5,6|8,3:2|2:0,0:0:0:0:
146,177,186783,1,8,2:0:0:0:
155,179,186857,2,0,L|170:232,4,46.875,8|8|8|8|8,2:0|2:0|2:0|2:0|2:0,0:0:0:0:
351,199,187300,6,0,L|328:306,1,93.75,2|0,3:1|0:0,0:0:0:0:
276,141,187596,2,0,L|230:356,1,187.5,2|10,3:1|2:0,0:0:0:0:
159,358,188039,1,10,2:0:0:0:
71,212,188187,5,10,2:0:0:0:
71,212,188261,1,8,2:0:0:0:
71,212,188335,2,0,B|72:166|72:166|108:205,1,93.75,6|0,3:2|3:2,0:0:0:0:
107,286,188630,1,8,2:0:0:0:
102,84,188778,2,0,B|168:15|168:15|184:109,1,187.5,6|8,3:2|2:0,0:0:0:0:
185,115,189148,1,8,2:0:0:0:
186,124,189221,2,0,L|237:135,4,46.875,8|8|8|8|8,2:0|2:0|2:0|2:0|2:0,0:0:0:0:
328,172,189665,6,0,P|309:129|315:83,1,93.75,2|0,3:1|0:0,0:0:0:0:
451,17,189960,2,0,P|491:100|482:192,1,187.5,2|10,3:1|2:0,0:0:0:0:
412,312,190404,1,10,2:0:0:0:
480,372,190552,1,10,2:0:0:0:
316,334,190699,6,0,B|280:362|280:362|335:358,1,93.75,6|0,3:2|3:2,0:0:0:0:
412,312,190995,1,8,2:0:0:0:
265,218,191143,2,0,B|169:210|169:210|229:284,1,187.5,6|8,3:2|2:0,0:0:0:0:
233,287,191512,1,8,2:0:0:0:
239,293,191586,2,0,L|177:287,4,46.875,8|8|8|8|8,2:0|2:0|2:0|2:0|2:0,0:0:0:0:
0,221,192029,6,0,B|26:237|26:237|42:303,1,93.75,2|0,3:1|0:0,0:0:0:0:
110,148,192325,2,0,B|89:184|89:184|124:336,1,187.5,2|10,3:1|2:0,0:0:0:0:
191,362,192768,1,10,2:0:0:0:
265,217,192916,5,10,2:0:0:0:
265,217,192990,1,8,2:0:0:0:
265,217,193064,2,0,P|373:227|436:316,3,225,6|6|6|6,3:1|3:1|3:1|3:1,0:0:0:0:
436,316,195133,6,0,B|444:280|444:280|437:268|437:268|447:222,1,93.75,6|0,3:2|3:2,0:0:0:0:
505,171,195427,1,8,2:0:0:0:
363,216,195575,2,0,B|347:144|347:144|361:120|361:120|341:28,1,187.5,6|8,3:2|2:0,0:0:0:0:
335,29,195944,1,8,2:0:0:0:
328,22,196017,2,0,L|281:31,4,46.875,8|8|8|8|8,2:0|2:0|2:0|2:0|2:0,0:0:0:0:
130,46,196460,6,0,B|174:32|174:32|207:69,1,93.75,2|0,3:1|0:0,0:0:0:0:
211,191,196755,2,0,B|148:120|148:120|60:148,1,187.5,2|10,3:1|2:0,0:0:0:0:
124,215,197197,1,10,2:0:0:0:
105,294,197345,1,10,2:0:0:0:
105,294,197419,1,8,2:0:0:0:
105,294,197492,6,0,B|66:304|66:304|56:298|56:298|13:309,1,93.75,6|0,3:2|3:2,0:0:0:0:
17,230,197787,1,8,2:0:0:0:
126,368,197935,2,0,B|202:346|202:346|213:326|213:326|297:303,1,187.5,6|8,3:2|2:0,0:0:0:0:
304,300,198304,1,8,2:0:0:0:
312,296,198377,2,0,L|325:347,4,46.875,8|8|8|8|8,2:0|2:0|2:0|2:0|2:0,0:0:0:0:
405,318,198820,6,0,B|452:332|452:332|491:295,1,93.75,2|0,3:1|0:0,0:0:0:0:
496,176,199115,2,0,B|431:237|431:237|337:209,1,187.5,2|10,3:1|2:0,0:0:0:0:
406,144,199557,1,10,2:0:0:0:
387,66,199705,1,10,2:0:0:0:
311,86,199852,6,0,B|273:80|273:80|269:68|269:68|219:62,1,93.75,6|0,3:2|3:2,0:0:0:0:
160,16,200147,1,8,2:0:0:0:
213,144,200295,2,0,B|137:156|137:156|129:180|129:180|29:192,1,187.5,6|8,3:2|2:0,0:0:0:0:
36,185,200663,1,8,2:0:0:0:
27,180,200737,2,0,L|34:235,4,46.875,8|8|8|8|8,2:0|2:0|2:0|2:0|2:0,0:0:0:0:
179,244,201180,6,0,B|150:279|150:279|172:332,1,93.75,2|0,3:1|0:0,0:0:0:0:
242,372,201475,2,0,B|298:301|298:301|255:194,1,187.5,2|10,3:1|2:0,0:0:0:0:
307,143,201917,1,10,2:0:0:0:
200,78,202065,5,10,2:0:0:0:
200,78,202138,1,8,2:0:0:0:
200,78,202212,2,0,P|92:88|29:177,3,225,6|6|6|6,3:1|3:1|3:1|3:1,0:0:0:0:
69,248,204466,2,0,L|109:260,1,37.5,0|0,3:2|3:2,0:0:0:0:
120,256,204613,6,0,P|110:291|108:333,1,75,0|0,1:2|3:2,0:0:0:0:
186,343,204908,2,0,P|196:308|198:266,1,75,0|0,1:2|3:2,0:0:0:0:
308,162,205192,6,0,P|416:172|479:261,3,225,6|6|6|6,3:1|3:1|3:1|3:1,0:0:0:0:
