osu file format v14

[General]
AudioFilename: audio.mp3
AudioLeadIn: 0
PreviewTime: 41715
Countdown: 0
SampleSet: Soft
StackLeniency: 1
Mode: 0
LetterboxInBreaks: 0
WidescreenStoryboard: 0

[Editor]
DistanceSpacing: 0.8
BeatDivisor: 4
GridSize: 4
TimelineZoom: 3.899998

[Metadata]
Title:3-pun 29-byou
TitleUnicode:3分29秒
Artist:hitorie
ArtistUnicode:ヒトリエ
Creator:Ryuusei Aika
Version:Encore
Source:86―エイティシックス―
Tags:japanese rock j-rock jrock Mocaotic Ducky- Stormiverse Flake Deca Fixxis Black Man Airiesu Mujina 3 san bun min 29 nijyuukyuu byou sec 86 eighty six eighty-six male vocal anime opening op イガラシ Igarashi シノダ Shinoda ゆーまお Yuumao
BeatmapID:2995939
BeatmapSetID:1457787

[Difficulty]
HPDrainRate:6
CircleSize:4
OverallDifficulty:8.7
ApproachRate:9.3
SliderMultiplier:2
SliderTickRate:1

[Events]
//Background and Video events
0,0,"BG.jpg",0,0
//Break Periods
//Storyboard Layer 0 (Background)
//Storyboard Layer 1 (Fail)
//Storyboard Layer 2 (Pass)
//Storyboard Layer 3 (Foreground)
//Storyboard Layer 4 (Overlay)
//Storyboard Sound Samples

[TimingPoints]
355,295.566502463054,4,2,1,60,1,0
6266,-133.333333333333,4,2,1,60,0,0
8630,-100,4,2,1,60,0,0
9517,-133.333333333333,4,2,1,60,0,0
10256,-133.333333333333,4,2,1,40,0,0
10404,-200,4,2,1,40,0,0
10847,-133.333333333333,4,2,1,40,0,0
10995,-100,4,2,1,70,0,0
11438,-66.6666666666667,4,2,1,70,0,0
12473,-100,4,2,1,70,0,0
13803,-66.6666666666667,4,2,1,70,0,0
14985,-80,4,2,1,70,0,0
15724,-100,4,2,1,70,0,0
16167,-66.6666666666667,4,2,1,70,0,0
17202,-100,4,2,1,70,0,0
18088,-100,4,2,1,60,0,0
18975,-133.333333333333,4,2,1,60,0,0
19862,-200,4,2,1,60,0,0
20453,-166.666666666667,4,2,1,50,0,0
25330,-100,4,2,1,60,0,0
27547,-100,4,2,1,50,0,0
27842,-166.666666666667,4,2,1,50,0,0
32276,-166.666666666667,4,2,1,55,0,0
36709,-133.333333333333,4,2,1,55,0,0
37300,-166.666666666667,4,2,1,55,0,0
39074,-80,4,2,1,55,0,0
39369,-100,4,2,1,60,0,0
40256,-133.333333333333,4,2,1,60,0,0
40995,-133.333333333333,4,2,1,40,0,0
41069,-200,4,2,1,40,0,0
41586,-133.333333333333,4,2,1,40,0,0
41734,-90.9090909090909,4,2,1,80,0,1
50453,-80,4,2,1,80,0,1
51192,-90.9090909090909,4,2,1,80,0,1
60354,-90.9090909090909,4,2,1,80,0,0
60650,-111.111111111111,4,2,1,60,0,0
65379,-200,4,2,1,60,0,0
67448,-133.333333333333,4,2,1,60,0,0
67744,-100,4,2,1,70,0,0
68187,-66.6666666666667,4,2,1,70,0,0
69369,-100,4,2,1,70,0,0
70552,-66.6666666666667,4,2,1,70,0,0
71734,-80,4,2,1,70,0,0
72473,-100,4,2,1,70,0,0
72916,-66.6666666666667,4,2,1,70,0,0
74098,-100,4,2,1,70,0,0
76463,-80,4,2,1,70,0,0
77202,-153.846153846154,4,2,1,60,0,0
96118,-125,4,2,1,70,0,0
105576,-100,4,2,1,70,0,1
115034,-200,4,2,1,50,0,0
117399,-166.666666666667,4,2,1,50,0,0
124098,-166.666666666667,4,2,1,45,0,0
124492,-166.666666666667,4,2,1,40,0,0
125084,-166.666666666667,4,2,1,35,0,0
125675,-166.666666666667,4,2,1,30,0,0
126069,-166.666666666667,4,2,1,45,0,0
126266,-166.666666666667,4,2,1,50,0,0
127251,-125,4,2,1,50,0,0
131586,-166.666666666667,4,2,1,50,0,0
133655,-125,4,2,1,50,0,0
133951,-100,4,2,1,60,0,0
134837,-125,4,2,1,60,0,0
135724,-200,4,2,1,60,0,0
136315,-100,4,2,1,60,0,0
137202,-125,4,2,1,60,0,0
138236,-100,4,2,1,60,0,0
138680,-166.666666666667,4,2,1,40,0,0
143409,-125,4,2,1,50,0,0
145773,-83.3333333333333,4,2,1,60,0,0
147251,-200,4,2,1,60,0,0
147399,-200,4,2,1,40,0,0
147990,-125,4,2,1,40,0,0
148138,-90.9090909090909,4,2,1,80,0,1
156857,-83.3333333333333,4,2,1,80,0,1
157596,-90.9090909090909,4,2,1,80,0,1
176512,-125,4,2,1,60,0,0
181241,-200,4,2,1,60,0,0
183310,-133.333333333333,4,2,1,60,0,0
183606,-100,4,2,1,60,0,0
185231,-200,4,2,1,40,0,0
185749,-125,4,2,1,40,0,0
185822,-100,4,2,1,40,0,0
185970,-100,4,2,1,70,0,0
186413,-66.6666666666667,4,2,1,70,0,0
187448,-100,4,2,1,70,0,0
188778,-66.6666666666667,4,2,1,70,0,0
189960,-80,4,2,1,70,0,0
190699,-100,4,2,1,70,0,0
191142,-66.6666666666667,4,2,1,70,0,0
192177,-100,4,2,1,70,0,0
193064,-100,4,2,1,60,0,0
193950,-133.333333333333,4,2,1,60,0,0
194837,-80,4,2,1,60,0,0
195133,294.985250737463,4,2,1,70,1,0
195133,-100,4,2,1,70,0,0
195575,-66.6666666666667,4,2,1,70,0,0
196755,-100,4,2,1,70,0,0
197935,-66.6666666666667,4,2,1,70,0,0
199115,-80,4,2,1,70,0,0
200295,-66.6666666666667,4,2,1,70,0,0
201475,-100,4,2,1,70,0,0
202212,-100,4,2,1,60,0,0
203097,-125,4,2,1,60,0,0
204466,294.985250737463,4,2,1,50,1,0
204466,-200,4,2,1,50,0,0
205192,292.682926829268,4,2,1,60,1,0
205192,-66.6666666666667,4,2,1,60,0,0
206070,-80,4,2,1,60,0,0
206948,-26.0416666666663,4,2,1,60,0,0
207094,-26.0416666666663,4,2,1,5,0,0

[Colours]
Combo1 : 192,192,192
Combo2 : 128,128,128

[HitObjects]
256,0,355,5,8,2:0:0:0:
224,98,502,1,8,2:0:0:0:
219,133,576,1,8,2:0:0:0:
214,168,650,1,8,2:0:0:0:
326,221,798,1,8,2:0:0:0:
331,256,872,1,8,2:0:0:0:
336,291,946,2,0,B|337:313|337:313|330:322|330:322|324:353,1,50,0|0,3:2|3:2,0:0:0:0:
183,282,1093,6,0,L|171:234,1,50,10|0,2:0|0:0,0:0:0:0:
420,288,1241,2,0,L|408:336,1,50,10|0,2:0|0:0,0:0:0:0:
256,384,1389,2,0,L|244:336,1,50,10|0,2:0|0:0,0:0:0:0:
256,259,1537,1,2,2:0:0:0:
266,276,6266,5,6,3:2:0:0:
266,276,6414,2,0,P|223:334|140:325,1,150.000005722046,2|8,3:2|2:0,0:0:0:0:
78,302,6857,2,0,L|66:405,2,75.0000028610231,2|0|8,2:0|3:2|2:0,0:0:0:0:
139,185,7300,1,0,0:0:0:0:
139,185,7448,2,0,P|158:227|163:267,1,75.0000028610231,2|10,3:2|2:0,0:0:0:0:
64,226,7744,1,2,3:2:0:0:
77,71,7891,2,0,P|80:107|54:156,1,75.0000028610231,2|8,2:0|2:0,0:0:0:0:
5,91,8187,1,10,2:0:0:0:
3,52,8261,1,8,2:0:0:0:
22,20,8335,1,0,3:2:0:0:
148,33,8483,5,8,2:3:0:0:
148,33,8556,1,8,2:3:0:0:
148,33,8630,2,0,P|258:93|384:93,1,250,6|0,3:1|0:0,0:0:0:0:
451,69,9074,2,0,P|273:148|240:216,1,250,6|0,3:1|0:0,0:0:0:0:
205,97,9517,6,0,P|251:127|333:233,1,187.500007152558,6|0,3:1|0:0,0:0:0:0:
350,228,9960,2,0,P|334:315|338:380,1,150.000005722046,6|2,3:1|2:1,0:0:0:0:
337,376,10330,1,2,2:1:0:0:
337,376,10404,1,2,2:0:0:0:
423,387,10552,6,0,L|419:361,1,25,2|2,2:1|2:1,0:0:0:0:
491,277,10699,5,2,2:0:0:0:
474,286,10773,1,2,2:0:0:0:
457,295,10847,2,0,L|464:243,1,37.5000014305115,2|2,2:1|2:1,0:0:0:0:
480,173,10995,6,0,P|469:124|449:78,1,100,6|0,3:2|3:2,0:0:0:0:
423,47,11217,1,0,3:2:0:0:
390,25,11290,1,8,2:0:0:0:
272,224,11438,6,0,P|402:169|387:138,1,225.000008583069,6|0,3:2|0:0,0:0:0:0:
316,102,11734,1,8,2:0:0:0:
264,85,11808,1,8,2:0:0:0:
209,90,11882,1,8,2:0:0:0:
168,124,11955,1,8,2:0:0:0:
163,177,12029,1,8,2:0:0:0:
208,142,12103,1,8,2:0:0:0:
227,93,12177,1,8,2:0:0:0:
220,43,12251,1,8,2:0:0:0:
191,0,12325,2,0,P|120:-13|68:36,1,150.000005722046,2|0,3:1|0:0,0:0:0:0:
38,297,12621,6,0,P|76:204|93:79,1,200,2|10,3:1|2:0,0:0:0:0:
6,167,13064,1,10,2:0:0:0:
136,317,13212,1,10,2:0:0:0:
178,345,13286,1,8,2:0:0:0:
220,373,13359,2,0,P|266:371|325:328,1,100,6|0,3:2|3:2,0:0:0:0:
431,253,13655,5,8,2:0:0:0:
432,311,13729,1,8,0:0:0:0:
390,343,13803,2,0,P|271:341|240:252,1,225.000008583069,6|0,3:2|0:0,0:0:0:0:
276,188,14098,1,8,2:0:0:0:
321,157,14172,1,8,2:0:0:0:
374,148,14246,1,8,2:0:0:0:
426,163,14320,1,8,2:0:0:0:
459,206,14394,1,8,2:0:0:0:
431,253,14468,1,8,2:0:0:0:
380,244,14542,1,8,2:0:0:0:
361,193,14616,1,8,2:0:0:0:
388,146,14689,2,0,P|415:72|410:3,1,150.000005722046,2|0,3:1|0:0,0:0:0:0:
157,102,14985,6,0,P|280:88|386:47,1,187.5,2|0,3:1|0:0,0:0:0:0:
321,49,15281,2,0,P|291:43|252:45,1,62.5,10|0,2:0|0:0,0:0:0:0:
191,15,15428,2,0,P|165:24|130:27,1,62.5,10|0,2:0|0:0,0:0:0:0:
56,58,15576,2,0,P|71:88|83:130,1,62.5,10|0,2:0|0:0,0:0:0:0:
103,306,15724,5,6,3:2:0:0:
33,176,15872,2,0,P|22:227|56:300,1,100,0|8,3:2|2:0,0:0:0:0:
50,369,16167,6,0,P|141:319|291:327,1,225.000008583069,6|0,3:2|0:0,0:0:0:0:
327,352,16463,1,8,2:0:0:0:
374,380,16537,1,8,2:0:0:0:
431,375,16611,1,8,2:0:0:0:
473,341,16685,1,8,2:0:0:0:
490,291,16758,1,8,2:0:0:0:
470,240,16832,1,8,2:0:0:0:
426,209,16906,1,8,2:0:0:0:
374,219,16980,1,8,2:0:0:0:
340,259,17054,2,0,P|255:262|208:213,1,150.000005722046,2|0,3:1|0:0,0:0:0:0:
285,100,17350,6,0,P|272:154|122:149,1,200,2|10,3:1|2:0,0:0:0:0:
465,23,17793,1,10,2:0:0:0:
475,156,17941,5,10,2:0:0:0:
450,122,18014,1,8,2:0:0:0:
423,92,18088,2,0,P|344:71|157:130,1,250,6|0,3:1|0:0,0:0:0:0:
233,55,18532,2,0,P|190:168|165:324,1,250,6|0,3:1|0:0,0:0:0:0:
109,345,18975,6,0,P|188:316|306:331,1,187.500007152558,6|0,3:1|0:0,0:0:0:0:
243,267,19419,2,0,P|179:348|71:362,1,187.500007152558,6|0,3:1|0:0,0:0:0:0:
30,344,19862,1,0,0:0:0:0:
8,271,20010,2,0,L|13:245,2,25
74,204,20305,5,0,0:0:0:0:
74,204,20379,1,0,0:0:0:0:
74,204,20453,2,0,P|55:152|58:79,1,119.999996337891,4|0,3:2|1:2,0:0:0:0:
110,35,20896,1,0,0:0:0:0:
69,98,21044,2,0,P|117:116|211:104,1,119.999996337891,0|0,1:2|1:2,0:0:0:0:
184,113,21488,1,2,2:0:0:0:
334,22,21635,5,2,1:2:0:0:
259,15,21783,2,0,L|249:91,1,59.9999981689454,2|0,2:0|1:2,0:0:0:0:
318,159,22079,2,0,P|324:129|322:100,1,59.9999981689454,2|0,2:0|1:2,0:0:0:0:
230,177,22374,5,2,3:2:0:0:
230,177,22522,1,2,1:2:0:0:
298,284,22670,1,2,3:2:0:0:
298,284,22818,2,0,P|242:307|174:310,1,119.999996337891,0|0,3:2|1:2,0:0:0:0:
183,236,23261,1,0,0:0:0:0:
169,308,23409,2,0,L|278:366,1,119.999996337891,0|0,1:2|1:2,0:0:0:0:
349,369,23852,1,2,2:0:0:0:
474,273,24000,5,2,1:2:0:0:
474,273,24148,2,0,L|461:348,1,59.9999981689454,2|0,2:0|1:2,0:0:0:0:
394,285,24443,1,2,2:0:0:0:
394,285,24517,1,0,0:0:0:0:
394,285,24591,1,0,1:2:0:0:
419,213,24739,2,0,P|431:185|431:142,2,59.9999981689454,2|0|2,2:0|3:2|2:0,0:0:0:0:
395,92,25182,1,0,0:0:0:0:
446,21,25330,5,4,2:3:0:0:
414,50,25404,1,0,2:0:0:0:
372,58,25478,1,8,2:3:0:0:
336,46,25552,1,0,2:0:0:0:
317,23,25625,1,4,2:3:0:0:
307,0,25699,1,4,2:3:0:0:
313,48,25773,1,0,3:2:0:0:
289,82,25847,1,0,3:2:0:0:
238,59,25921,1,10,2:0:0:0:
27,128,26217,5,4,2:3:0:0:
59,99,26291,1,0,2:0:0:0:
101,91,26365,1,8,2:3:0:0:
137,103,26439,1,0,2:0:0:0:
156,126,26512,1,4,2:3:0:0:
166,149,26586,1,4,2:3:0:0:
160,101,26660,1,0,3:2:0:0:
184,67,26734,1,0,3:2:0:0:
238,59,26808,1,10,2:0:0:0:
92,196,27103,5,8,2:0:0:0:
87,245,27177,1,8,2:0:0:0:
82,294,27251,2,0,P|127:307|197:266,1,100,8|4,2:0|2:3,0:0:0:0:
207,269,27473,1,4,2:3:0:0:
231,242,27547,2,0,P|259:296|264:380,1,100,6|0,3:2|0:0,0:0:0:0:
356,258,27842,6,0,P|344:310|337:399,2,119.999996337891,0|0|0,1:2|1:2|1:2,0:0:0:0:
425,289,28581,1,2,2:0:0:0:
271,170,28729,1,2,1:2:0:0:
331,128,28877,2,0,P|344:151|352:202,1,59.9999981689454,2|0,2:0|1:2,0:0:0:0:
445,154,29172,2,0,L|421:221,1,59.9999981689454,2|0,2:0|1:2,0:0:0:0:
398,89,29468,1,2,3:2:0:0:
398,89,29616,2,0,P|431:81|474:57,1,59.9999981689454,0|2,1:2|3:2,0:0:0:0:
283,18,29911,6,0,P|367:17|428:6,1,119.999996337891,0|0,3:2|1:2,0:0:0:0:
294,40,30354,1,0,0:0:0:0:
294,40,30502,2,0,P|251:23|227:20,2,59.9999981689454,0|0|0,1:2|0:0|1:2,0:0:0:0:
172,55,30946,1,2,2:0:0:0:
102,93,31093,2,0,L|178:77,2,59.9999981689454,2|2|0,1:2|2:0|3:2,0:0:0:0:
51,41,31537,1,2,2:0:0:0:
53,154,31685,5,8,2:3:0:0:
86,186,31783,5,8,2:3:0:0:
98,226,31882,5,8,2:3:0:0:
92,262,31980,5,8,2:3:0:0:
71,287,32079,5,4,2:3:0:0:
74,314,32177,5,4,2:3:0:0:
90,322,32276,6,0,L|221:302,2,119.999996337891,6|0|8,3:2|3:2|2:0,0:0:0:0:
473,261,33162,2,0,L|461:334,1,59.9999981689454,2|2,2:0|3:2,0:0:0:0:
370,252,33458,2,0,P|386:317|396:385,2,119.999996337891,0|0|8,3:2|3:2|2:0,0:0:0:0:
283,296,34345,2,0,P|292:236|307:178,1,119.999996337891,2|2,2:0|3:2,0:0:0:0:
443,149,34837,5,2,2:0:0:0:
443,149,34936,6,0,P|414:155|394:155,1,49.9999984741211,2|2,3:2|2:0,0:0:0:0:
363,85,35231,6,0,P|370:129|381:172,1,79.9999975585938,10|2,2:0|2:0,0:0:0:0:
417,29,35625,5,2,3:2:0:0:
348,0,35822,6,0,L|219:26,1,119.999996337891,2|2,3:2|3:2,0:0:0:0:
110,53,36266,2,0,L|174:66,1,59.9999981689454,2|8,2:0|2:0,0:0:0:0:
168,64,36561,1,2,2:0:0:0:
43,16,36709,5,8,2:0:0:0:
229,112,36857,1,8,2:0:0:0:
168,160,37005,2,0,P|159:196|154:256,1,75.0000028610231,4|0,3:2|0:0,0:0:0:0:
141,332,37300,6,0,P|159:285|223:269,2,119.999996337891,2|8|2,3:2|2:0|2:0,0:0:0:0:
141,332,38039,1,2,3:2:0:0:
69,295,38187,1,2,3:2:0:0:
254,377,38483,1,0,3:2:0:0:
445,324,38778,2,0,P|403:309|349:317,1,89.9999972534181,8|0,2:0|0:0,0:0:0:0:
334,380,39074,6,0,P|307:314|295:258,1,125,2|0,2:0|0:0,0:0:0:0:
324,52,39369,6,0,P|283:118|116:113,1,250,6|0,3:1|0:0,0:0:0:0:
84,183,39813,2,0,P|144:64|288:48,1,250,6|0,3:1|0:0,0:0:0:0:
298,126,40256,6,0,P|210:102|170:21,1,187.500007152558,6|0,3:1|0:0,0:0:0:0:
316,136,40699,2,0,P|390:89|466:92,1,150.000005722046,6|2,3:1|2:1,0:0:0:0:
468,98,41069,1,2,2:1:0:0:
469,98,41143,2,0,P|469:129|462:165,1,50,2|2,2:0|2:1,0:0:0:0:
400,190,41364,5,2,2:1:0:0:
416,206,41438,5,2,2:0:0:0:
389,240,41512,1,2,2:0:0:0:
400,282,41586,2,0,P|402:300|408:318,1,37.5000014305115,2|2,2:1|2:1,0:0:0:0:
488,257,41734,6,0,P|352:315|304:380,1,220.000006713867,6|10,3:2|2:0,0:0:0:0:
101,188,42177,1,0,0:0:0:0:
153,355,42325,2,0,L|163:236,1,110.000003356934,2|2,3:2|3:2,0:0:0:0:
223,152,42621,1,8,2:0:0:0:
236,381,42768,2,0,P|212:294|202:153,1,220.000006713867,6|2,3:2|3:2,0:0:0:0:
329,57,43212,1,8,2:0:0:0:
108,51,43359,2,0,P|161:111|307:115,1,220.000006713867,2|2,3:2|3:2,0:0:0:0:
15,282,43803,6,0,L|35:103,1,165.000005035401,10|0,2:0|0:0,0:0:0:0:
24,91,44098,1,6,3:2:0:0:
101,188,44246,2,0,L|114:310,1,110.000003356934,2|8,2:0|2:0,0:0:0:0:
265,18,44542,1,2,2:0:0:0:
196,45,44689,5,0,3:2:0:0:
329,57,44837,1,2,3:2:0:0:
449,0,44985,1,8,2:0:0:0:
446,280,45133,2,0,P|406:156|409:52,1,220.000006713867,6|0,3:2|3:2,0:0:0:0:
267,207,45576,2,0,P|317:206|324:286,1,110.000003356934,8|2,2:0|2:0,0:0:0:0:
341,254,45798,1,0,0:0:0:0:
341,254,45872,2,0,P|253:298|202:306,1,110.000003356934,2|10,3:2|2:0,0:0:0:0:
212,285,46093,1,8,2:0:0:0:
191,259,46167,1,0,3:2:0:0:
4,290,46315,5,10,2:0:0:0:
11,335,46389,1,8,2:0:0:0:
48,360,46463,2,0,P|90:268|80:149,2,220.000006713867,6|8|2,3:2|2:0|3:2,0:0:0:0:
133,381,47202,1,0,3:2:0:0:
58,230,47350,2,0,P|87:277|132:308,1,110.000003356934,8|0,2:0|0:0,0:0:0:0:
241,199,47645,6,0,P|301:154|337:97,1,110.000003356934,2|0,3:2|0:0,0:0:0:0:
271,66,47941,1,10,2:0:0:0:
224,352,48088,2,0,P|205:284|159:221,1,110.000003356934,2|0,2:0|3:2,0:0:0:0:
146,93,48384,2,0,L|129:219,1,110.000003356934,2|8,3:2|2:0,0:0:0:0:
300,347,48680,1,2,2:0:0:0:
431,215,48827,2,0,P|376:239|315:239,1,110.000003356934,6|0,3:2|0:0,0:0:0:0:
512,343,49123,5,8,2:0:0:0:
425,136,49271,1,2,2:0:0:0:
260,204,49419,1,10,2:0:0:0:
503,250,49566,1,0,3:2:0:0:
259,283,49714,1,10,2:0:0:0:
497,168,49862,2,0,P|514:120|509:49,1,110.000003356934,2|8,3:2|2:0,0:0:0:0:
391,280,50157,6,0,P|381:308|379:342,1,55.0000016784668,2|0,3:1|0:0,0:0:0:0:
400,360,50305,1,0,0:0:0:0:
355,157,50453,2,0,P|311:90|177:81,1,187.5,2|0,3:1|0:0,0:0:0:0:
136,108,50749,1,8,2:0:0:0:
97,142,50822,1,8,2:0:0:0:
82,191,50896,1,8,2:0:0:0:
96,240,50970,1,8,2:0:0:0:
134,275,51044,1,8,2:0:0:0:
184,285,51118,1,8,2:0:0:0:
232,266,51192,2,0,P|318:243|445:281,1,220.000006713867,6|10,3:2|2:0,0:0:0:0:
477,346,51635,1,0,0:0:0:0:
491,99,51783,2,0,L|469:212,1,110.000003356934,2|2,3:2|3:2,0:0:0:0:
469,206,52079,1,8,2:0:0:0:
325,350,52226,6,0,P|305:214|272:99,1,220.000006713867,6|2,3:2|3:2,0:0:0:0:
220,90,52670,1,8,2:0:0:0:
420,17,52818,2,0,P|418:72|396:152,1,110.000003356934,2|0,3:2|0:0,0:0:0:0:
374,196,53113,1,2,3:2:0:0:
242,14,53261,2,0,P|291:37|376:52,1,110.000003356934,10|0,2:0|0:0,0:0:0:0:
195,170,53556,6,0,P|183:92|41:28,1,220.000006713867,6|8,3:2|2:0,0:0:0:0:
31,220,54000,2,0,P|83:205|118:163,1,110.000003356934,2|0,2:0|3:2,0:0:0:0:
118,163,54295,1,2,3:2:0:0:
157,301,54443,1,8,2:0:0:0:
36,128,54591,2,0,L|80:377,1,220.000006713867,6|0,3:2|3:2,0:0:0:0:
269,198,55034,2,0,P|252:248|254:323,1,110.000003356934,8|2,2:0|2:0,0:0:0:0:
477,368,55330,1,2,3:2:0:0:
349,362,55478,1,10,2:0:0:0:
315,369,55551,1,8,2:0:0:0:
281,377,55625,1,0,3:2:0:0:
363,255,55773,5,10,2:0:0:0:
386,294,55847,1,8,2:0:0:0:
427,312,55921,2,0,P|472:203|466:65,2,220.000006713867,6|8|2,3:2|2:0|3:2,0:0:0:0:
407,69,56660,1,0,3:2:0:0:
293,170,56808,2,0,P|342:179|402:175,1,110.000003356934,8|0,2:0|0:0,0:0:0:0:
471,30,57103,5,2,3:2:0:0:
334,103,57251,2,0,L|200:132,1,110.000003356934,0|10,0:0|2:0,0:0:0:0:
430,31,57547,2,0,P|346:56|219:-1,1,220.000006713867,2|2,2:0|3:2,0:0:0:0:
89,24,57990,1,8,2:0:0:0:
89,24,58064,1,8,2:0:0:0:
89,24,58138,1,2,2:0:0:0:
5,178,58286,6,0,P|8:118|25:69,1,110.000003356934,6|0,3:2|0:0,0:0:0:0:
161,40,58581,2,0,P|183:131|196:282,1,220.000006713867,8|2,2:0|3:2,0:0:0:0:
0,384,59024,1,2,3:2:0:0:
0,384,59320,2,0,P|69:316|116:178,1,220.000006713867,10|2,2:0|3:2,0:0:0:0:
246,363,59763,2,0,P|186:332|111:351,1,110.000003356934,10|0,2:0|3:2,0:0:0:0:
313,319,60059,5,8,2:0:0:0:
361,303,60157,5,8,2:0:0:0:
393,268,60256,5,8,2:0:0:0:
401,229,60354,5,4,2:3:0:0:
393,197,60453,5,8,2:3:0:0:
376,177,60552,5,8,2:3:0:0:
361,170,60650,6,0,P|392:288|454:357,1,179.999994506836,6|2,3:2|3:2,0:0:0:0:
495,309,61093,1,0,0:0:0:0:
452,147,61241,1,10,2:0:0:0:
501,200,61389,2,0,L|482:309,1,89.9999972534181,2|0,2:0|0:0,0:0:0:0:
434,125,61685,2,0,L|455:33,2,89.9999972534181,2|0|2,3:2|3:2|2:0,0:0:0:0:
348,13,62128,2,0,L|361:124,1,89.9999972534181,2|2,3:2|2:0,0:0:0:0:
435,24,62423,6,0,P|360:89|245:107,1,179.999994506836,10|2,2:0|2:0,0:0:0:0:
74,135,63015,2,0,P|149:200|264:218,2,179.999994506836,2|2|10,3:2|3:2|2:0,0:0:0:0:
128,82,63754,1,0,0:0:0:0:
74,135,63901,2,0,P|53:184|56:252,1,89.9999972534181,2|0,2:0|3:2,0:0:0:0:
101,374,64197,5,2,3:2:0:0:
256,152,64492,1,0,3:2:0:0:
411,374,64788,2,0,P|364:353|297:352,1,89.9999972534181,8|0,2:0|0:0,0:0:0:0:
228,382,65084,1,10,2:0:0:0:
367,277,65231,1,8,2:0:0:0:
302,362,65379,6,0,P|324:267|336:155,1,200,6|2,3:2|2:0,0:0:0:0:
210,22,66561,2,0,P|198:70|193:120,1,100,6|2,3:2|2:0,0:0:0:0:
185,201,67153,1,2,2:0:0:0:
218,282,67448,2,0,L|274:228,1,75.0000028610231,2|0,2:0|0:0,0:0:0:0:
37,135,67744,6,0,P|35:186|23:242,1,100,6|0,3:2|3:2,0:0:0:0:
7,307,68039,1,8,2:0:0:0:
82,74,68187,6,0,P|156:37|312:63,1,225.000008583069,6|0,3:2|0:0,0:0:0:0:
362,100,68483,1,8,2:0:0:0:
384,149,68556,1,8,2:0:0:0:
383,202,68630,1,8,2:0:0:0:
359,249,68704,1,8,2:0:0:0:
314,277,68778,1,8,2:0:0:0:
339,229,68852,1,8,2:0:0:0:
364,181,68926,1,8,2:0:0:0:
389,133,69000,1,8,2:0:0:0:
414,85,69074,2,0,B|473:134|473:134|455:226,1,150.000005722046,2|0,3:1|0:0,0:0:0:0:
289,351,69369,6,0,L|75:376,1,200,2|10,3:1|2:0,0:0:0:0:
363,339,69813,1,10,2:0:0:0:
235,204,69960,1,10,2:0:0:0:
212,178,70034,1,8,2:0:0:0:
189,152,70108,2,0,P|160:161|136:200,2,50,6|0|0,3:2|0:0|3:2,0:0:0:0:
238,283,70404,1,8,2:0:0:0:
38,317,70552,6,0,P|72:222|13:61,1,225.000008583069,6|0,3:2|0:0,0:0:0:0:
3,41,70847,1,8,2:0:0:0:
47,10,70921,1,8,2:0:0:0:
100,18,70995,1,8,2:0:0:0:
137,59,71069,1,8,2:0:0:0:
141,109,71143,1,8,2:0:0:0:
193,102,71217,1,8,2:0:0:0:
245,95,71290,1,8,2:0:0:0:
297,88,71365,1,8,2:0:0:0:
349,81,71438,2,0,L|499:115,1,150.000005722046,2|0,3:1|0:0,0:0:0:0:
255,17,71734,6,0,P|215:127|214:251,1,187.5,2|0,3:1|0:0,0:0:0:0:
189,210,72029,2,0,P|207:242|223:284,1,62.5,10|0,2:0|0:0,0:0:0:0:
393,165,72177,2,0,P|375:197|359:239,1,62.5,10|0,2:0|0:0,0:0:0:0:
139,304,72325,2,0,P|170:322|205:351,1,62.5,10|0,2:0|0:0,0:0:0:0:
268,361,72473,2,0,P|285:315|294:266,1,100,6|0,3:2|3:2,0:0:0:0:
420,338,72768,5,8,2:0:0:0:
420,338,72842,1,8,0:0:0:0:
420,338,72916,2,0,B|329:271|329:271|308:147,1,225.000008583069,6|0,3:2|0:0,0:0:0:0:
306,84,73212,1,8,2:0:0:0:
344,48,73286,1,8,2:0:0:0:
382,12,73359,1,8,2:0:0:0:
394,62,73433,1,8,2:0:0:0:
406,113,73507,1,8,2:0:0:0:
356,98,73581,1,8,2:0:0:0:
306,84,73655,1,8,2:0:0:0:
256,70,73729,1,8,2:0:0:0:
206,56,73803,2,0,B|133:38|133:38|50:84,1,150.000005722046,2|0,3:1|0:0,0:0:0:0:
52,335,74098,6,0,P|92:219|98:112,1,200,2|10,3:1|2:0,0:0:0:0:
131,347,74542,1,10,2:0:0:0:
62,209,74689,1,10,2:0:0:0:
38,186,74762,1,8,2:0:0:0:
15,165,74837,2,0,P|0:219|4:283,1,100,6|0,3:2|0:0,0:0:0:0:
211,367,75133,5,8,3:2:0:0:
261,349,75207,1,8,2:0:0:0:
294,309,75281,1,10,2:0:0:0:
293,256,75354,1,8,2:0:0:0:
259,215,75428,1,8,3:2:0:0:
255,266,75502,1,8,2:0:0:0:
278,315,75576,1,8,2:0:0:0:
322,345,75650,1,8,2:0:0:0:
381,338,75724,1,8,3:2:0:0:
425,313,75798,1,8,2:0:0:0:
433,260,75872,1,8,2:0:0:0:
441,207,75946,1,8,2:0:0:0:
449,154,76020,1,8,2:0:0:0:
373,37,76167,6,0,P|375:90|357:147,1,100,2|0,3:1|0:0,0:0:0:0:
278,46,76463,2,0,P|323:108|362:237,1,187.5,2|0,3:1|0:0,0:0:0:0:
415,5,76758,2,0,P|388:20|358:28,1,62.5,8|0,2:0|0:0,0:0:0:0:
273,59,76906,2,0,P|235:58|182:45,1,62.5,8|0,2:0|0:0,0:0:0:0:
154,6,77054,1,8,2:0:0:0:
108,7,77128,1,8,2:0:0:0:
71,27,77202,1,6,3:2:0:0:
75,31,77497,6,0,P|56:87|62:179,1,129.999994049073,10|2,2:0|3:2,0:0:0:0:
137,147,77941,1,2,3:2:0:0:
137,147,78088,2,0,L|121:210,1,64.9999970245363,0|10,0:0|2:0,0:0:0:0:
55,362,78384,1,2,2:0:0:0:
32,287,78532,1,2,3:2:0:0:
127,339,78680,1,10,2:0:0:0:
104,264,78827,2,0,P|134:240|175:227,1,64.9999970245363,2|0,2:0|3:2,0:0:0:0:
291,159,79123,1,2,3:2:0:0:
315,232,79271,2,0,P|323:269|324:301,1,64.9999970245363,8|2,2:0|2:0,0:0:0:0:
234,210,79566,6,0,L|221:355,2,129.999994049073,2|10|2,3:2|2:0|3:2,0:0:0:0:
293,366,80305,1,2,3:2:0:0:
487,346,80601,1,10,2:0:0:0:
487,346,80749,2,0,L|503:266,1,64.9999970245363,2|0,2:0|3:2,0:0:0:0:
414,372,81044,2,0,L|395:222,1,129.999994049073,10|2,2:0|3:2,0:0:0:0:
484,176,81488,1,0,3:2:0:0:
416,148,81635,2,0,P|386:168|346:178,1,64.9999970245363,10|2,2:0|2:0,0:0:0:0:
474,100,81931,6,0,L|314:80,1,129.999994049073,2|10,3:2|2:0,0:0:0:0:
111,27,82522,1,2,3:2:0:0:
111,27,82670,2,0,L|188:11,1,64.9999970245363,2|0,3:2|0:0,0:0:0:0:
318,17,82965,1,10,2:0:0:0:
248,31,83113,2,0,P|221:91|220:102,2,64.9999970245363,2|0|8,2:0|3:2|2:0,0:0:0:0:
211,105,83556,1,2,2:0:0:0:
124,105,83704,2,0,P|151:165|152:176,2,64.9999970245363,2|0|8,3:2|3:2|2:0,0:0:0:0:
46,106,84148,5,0,0:0:0:0:
46,106,84295,2,0,L|86:262,1,129.999994049073,2|10,3:2|2:0,0:0:0:0:
42,295,84739,1,2,2:0:0:0:
62,223,84887,1,2,3:2:0:0:
116,274,85034,2,0,B|181:277|181:277|255:219,1,129.999994049073,0|10,3:2|2:0,0:0:0:0:
102,349,85478,2,0,L|169:378,1,64.9999970245363,2|0,2:0|3:2,0:0:0:0:
351,338,85773,2,0,P|306:321|229:338,1,129.999994049073,8|2,2:0|3:2,0:0:0:0:
339,350,86217,1,0,3:2:0:0:
418,378,86364,6,0,L|432:292,1,64.9999970245363,8|8,2:0|2:0,0:0:0:0:
423,297,86586,1,8,2:0:0:0:
417,280,86660,2,0,P|402:256|417:152,2,129.999994049073,6|10|2,3:2|2:0|3:2,0:0:0:0:
488,257,87399,1,2,3:2:0:0:
337,42,87694,1,10,2:0:0:0:
407,19,87842,2,0,P|425:46|436:107,1,64.9999970245363,2|2,2:0|3:2,0:0:0:0:
434,76,88138,1,10,2:0:0:0:
349,117,88286,2,0,L|263:127,1,64.9999970245363,2|0,2:0|3:2,0:0:0:0:
220,88,88581,1,2,3:2:0:0:
196,19,88729,1,8,2:0:0:0:
239,265,89024,6,0,P|272:201|268:129,2,129.999994049073,2|10|2,3:2|2:0|3:2,0:0:0:0:
169,239,89763,1,2,3:2:0:0:
55,47,90059,1,10,2:0:0:0:
121,115,90207,2,0,L|130:43,1,64.9999970245363,2|2,2:0|3:2,0:0:0:0:
129,50,90502,1,8,2:0:0:0:
42,124,90650,1,2,2:0:0:0:
42,124,90798,2,0,P|56:151|58:209,1,64.9999970245363,0|2,3:2|3:2,0:0:0:0:
35,364,91093,1,8,2:0:0:0:
35,364,91389,6,0,P|57:287|97:247,2,129.999994049073,2|10|2,3:2|2:0|3:2,0:0:0:0:
144,304,92128,1,2,3:2:0:0:
448,319,92423,1,10,2:0:0:0:
388,269,92571,2,0,L|304:289,2,64.9999970245363,2|0|8,2:0|3:2|2:0,0:0:0:0:
255,249,93015,1,2,2:0:0:0:
217,309,93162,2,0,L|206:388,1,64.9999970245363,2|0,3:2|3:2,0:0:0:0:
255,249,93458,2,0,P|272:219|279:168,1,64.9999970245363,10|0,2:0|0:0,0:0:0:0:
174,41,93754,6,0,B|172:100|220:98|208:185,1,129.999994049073,2|8,3:2|2:0,0:0:0:0:
157,230,94197,1,2,2:0:0:0:
209,163,94345,1,2,3:2:0:0:
209,163,94492,2,0,P|137:197|64:197,1,129.999994049073,0|10,3:2|2:0,0:0:0:0:
279,107,94936,1,2,2:0:0:0:
323,45,95084,2,0,L|411:60,2,64.9999970245363,2|8|2,3:2|2:0|2:0,0:0:0:0:
451,101,95527,5,8,3:2:0:0:
474,143,95601,1,8,2:0:0:0:
469,182,95675,1,10,2:0:0:0:
451,199,95749,1,8,2:0:0:0:
414,214,95822,1,8,3:2:0:0:
388,249,95896,1,8,2:0:0:0:
399,289,95970,1,10,2:0:0:0:
425,297,96044,1,8,2:0:0:0:
449,291,96118,2,0,P|381:346|299:362,2,160,6|8|0,3:2|2:0|3:2,0:0:0:0:
258,305,96857,2,0,L|170:347,1,80,0|8,3:2|2:0,0:0:0:0:
99,360,97153,6,0,L|111:264,1,80,2|0,3:2|0:0,0:0:0:0:
108,280,97448,1,0,3:2:0:0:
153,184,97596,2,0,L|197:275,1,80,8|0,2:0|0:0,0:0:0:0:
33,276,97891,1,0,3:2:0:0:
47,205,98039,1,0,3:2:0:0:
61,134,98187,2,0,P|69:87|63:42,1,80,8|0,2:0|0:0,0:0:0:0:
66,55,98483,6,0,P|138:80|236:69,1,160,2|8,3:2|2:0,0:0:0:0:
482,168,99074,2,0,L|472:260,1,80,0|0,3:2|3:2,0:0:0:0:
443,100,99369,1,8,2:0:0:0:
380,56,99517,2,0,P|325:120|237:149,1,160,2|2,3:2|3:2,0:0:0:0:
336,363,99960,2,0,P|308:283|326:192,1,160,10|0,2:0|3:2,0:0:0:0:
396,210,100404,1,0,3:2:0:0:
484,345,100552,2,0,L|406:331,1,80,8|0,2:0|0:0,0:0:0:0:
406,331,100847,6,0,P|337:362|251:382,2,160,2|10|2,3:2|2:0|3:2,0:0:0:0:
214,306,101586,2,0,L|157:379,1,80,2|10,3:2|2:0,0:0:0:0:
290,299,101882,2,0,P|268:241|158:191,1,160,2|2,3:2|3:2,0:0:0:0:
83,358,102325,1,10,2:0:0:0:
83,358,102473,2,0,L|90:264,1,80,2|0,2:0|3:2,0:0:0:0:
20,245,102768,1,0,3:2:0:0:
101,130,102916,2,0,L|118:223,1,80,10|0,2:0|0:0,0:0:0:0:
26,106,103212,6,0,P|92:98|164:14,1,160,2|10,3:2|2:0,0:0:0:0:
156,34,103655,1,0,0:0:0:0:
196,109,103803,1,2,3:2:0:0:
268,86,103951,1,2,3:2:0:0:
340,63,104098,1,10,2:0:0:0:
228,13,104246,2,0,L|315:176,1,160,6|2,3:2|3:2,0:0:0:0:
372,294,104689,1,10,2:0:0:0:
372,294,104837,2,0,P|388:266|411:247,1,40,10|8,2:0|2:0,0:0:0:0:
493,225,104985,5,8,3:2:0:0:
453,225,105059,1,8,2:0:0:0:
413,225,105132,1,8,2:0:0:0:
373,226,105206,1,8,2:0:0:0:
333,227,105280,1,8,3:2:0:0:
293,228,105354,1,8,2:0:0:0:
253,229,105428,1,8,2:0:0:0:
213,230,105502,1,8,2:0:0:0:
173,231,105576,2,0,B|159:257|159:257|171:296,1,50,6|0,3:2|0:0,0:0:0:0:
92,295,105724,2,0,B|77:320|77:320|89:359,1,50
258,372,105872,2,0,B|243:346|243:346|274:206|274:206|234:211,1,200,10|2,2:0|3:2,0:0:0:0:
424,315,106241,1,0,0:0:0:0:
440,316,106315,1,0,3:2:0:0:
438,334,106389,2,0,B|406:336|406:336|380:321,1,50,0|10,0:0|2:0,0:0:0:0:
490,254,106537,2,0,B|461:239|461:239|446:213,1,50,0|2,0:0|3:2,0:0:0:0:
464,142,106685,1,0,0:0:0:0:
464,142,106758,2,0,B|488:71|488:71|459:99,1,100,0|0,0:0|3:2,0:0:0:0:
315,144,106980,1,0,0:0:0:0:
298,132,107054,2,0,B|281:118|281:118|380:102|380:102|402:74,1,150,8|0,2:0|0:0,0:0:0:0:
445,22,107350,2,0,B|405:14|405:14|378:34|378:34|380:84|380:84|345:125|345:125|336:121|336:121|329:122|329:122|321:121|321:121|314:121|314:121|304:120|304:120|297:118|297:118|288:118|288:118|280:114|280:114|272:115|272:115|263:115|263:115|254:113|254:113|247:115|247:115|242:111|242:111|234:109|234:109|228:109|228:109|221:106|221:106|213:108|213:108|204:108|204:108|183:74,1,350,2|0,3:1|0:0,0:0:0:0:
202,63,107941,2,0,B|228:48|228:48|265:49,1,50,2|0,3:2|0:0,0:0:0:0:
123,57,108088,2,0,B|111:73|111:73|110:103,1,50
106,231,108236,2,0,B|68:170|68:170|59:168|59:168|34:124|34:124|10:117,1,150,10|0,2:0|0:0,0:0:0:0:
0,115,108532,2,0,B|10:143|10:143|-10:185,1,50,2|0,3:2|0:0,0:0:0:0:
21,233,108680,2,0,B|11:261|11:261|31:303,1,50,2|0,3:2|0:0,0:0:0:0:
155,361,108827,2,0,B|170:333|170:333|171:286,1,50,10|0,2:0|0:0,0:0:0:0:
45,350,108975,2,0,B|84:344|84:344|153:292|153:292|200:308,1,150,2|0,3:2|0:0,0:0:0:0:
238,368,109271,2,0,L|284:331,1,50,2|0,3:2|0:0,0:0:0:0:
388,321,109419,2,0,B|423:308|423:308|356:266|356:266|324:276,1,150,10|0,2:0|0:0,0:0:0:0:
338,383,109714,2,2,B|349:373|349:373|357:367|357:367|368:357|368:357|380:343|380:343|389:326|389:326|391:315|391:315|395:302|395:302|401:294|401:294|402:289|402:289|405:281|405:281|408:279|408:279|413:266|413:266|421:258|421:258|423:254|423:254|427:248|427:248|430:244|430:244|434:238|434:238|444:224|444:224|448:216|448:216|454:200|454:200|458:189|458:189|467:179|467:179|473:167|473:167|475:161|475:161|480:151|480:151|421:105,1,350,2|0,3:1|0:0,0:1:0:0:
464,43,110305,2,0,B|421:45|421:45|396:97|396:97|340:138|340:138|350:96,2,200,6|10|2,3:2|2:0|3:2,0:0:0:0:
482,26,110970,2,0,B|446:8|446:8|403:10,1,50,0|2,0:0|3:2,0:0:0:0:
353,18,111118,2,0,B|322:40|322:40|285:47,1,50,0|10,0:0|2:0,0:0:0:0:
169,17,111266,1,0,0:0:0:0:
169,17,111340,2,0,B|176:35|176:35|268:91,1,100,2|0,3:2|0:0,0:0:0:0:
189,10,111561,1,0,0:0:0:0:
169,57,111635,2,0,L|116:79,1,50,2|0,3:2|0:0,0:0:0:0:
60,37,111783,2,0,B|39:50|39:50|16:93,1,50,10|0,2:0|0:0,0:0:0:0:
9,252,111931,2,0,B|86:242|86:242|96:203,1,100,2|0,2:0|3:2,0:0:0:0:
48,156,112153,1,0,0:0:0:0:
71,148,112226,2,0,B|93:131|93:131|103:92,1,50,0|0,3:2|0:0,0:0:0:0:
71,148,112374,2,0,B|95:166|95:166|149:253|149:253|183:219,1,150,10|0,2:0|0:0,0:0:0:0:
181,226,112670,2,0,B|140:311|140:311|142:333|142:333|85:369,1,150,6|8,3:2|2:0,0:0:0:0:
74,347,112965,2,0,B|39:360|39:360|58:346,1,50,8|8,2:0|2:0,0:0:0:0:
154,350,113113,2,0,B|173:369|173:369|209:364,1,50,6|8,3:2|2:0,0:0:0:0:
254,280,113261,2,0,B|271:295|271:295|271:312|271:312|285:327,1,50,10|8,2:0|2:0,0:0:0:0:
310,209,113409,2,0,B|327:224|327:224|327:241|327:241|341:256,1,50,10|8,2:0|2:0,0:0:0:0:
358,331,113556,2,0,B|356:322|375:346|375:346|375:363|375:363|389:378,1,50,6|8,3:2|2:0,0:0:0:0:
267,384,113704,2,0,B|289:365|289:365|286:305,1,50,10|8,2:0|2:0,0:0:0:0:
405,269,113852,5,6,3:2:0:0:
428,232,113951,5,8,2:0:0:0:
427,189,114049,5,8,2:0:0:0:
404,146,114148,5,8,2:0:0:0:
366,122,114246,5,8,2:0:0:0:
322,120,114345,5,8,2:0:0:0:
300,77,114443,5,4,2:3:0:0:
273,96,114542,5,4,2:3:0:0:
265,70,114640,5,4,2:3:0:0:
245,92,114739,5,8,2:3:0:0:
250,67,114837,5,8,2:3:0:0:
237,72,114936,5,8,2:3:0:0:
224,0,115034,5,6,3:2:0:0:
224,0,115625,6,0,L|112:25,1,100,0|2,0:0|2:0,0:0:0:0:
50,28,116069,1,2,2:0:0:0:
50,28,116217,2,0,P|65:71|71:141,1,100
36,190,116808,1,0,0:0:0:0:
211,356,117103,1,10,2:0:0:0:
72,327,117251,1,8,2:0:0:0:
131,276,117399,6,0,P|127:247|110:223,1,59.9999981689454,2|2,2:0|2:0,0:0:0:0:
130,230,117621,1,2,2:0:0:0:
130,230,117694,2,0,L|173:223,1,39.9999987792969
284,181,117990,2,0,P|264:234|264:304,1,119.999996337891,10|2,2:0|2:0,0:0:0:0:
283,312,118359,1,2,2:0:0:0:
283,312,118433,2,0,L|339:295,1,29.9999990844727,2|0,3:2|0:0,0:0:0:0:
373,264,118581,2,0,L|353:395,1,119.999996337891,2|2,3:2|3:2,0:0:0:0:
451,304,119024,6,0,L|440:367,2,59.9999981689454,2|8|0,2:0|2:0|0:0,0:0:0:0:
476,286,119394,1,2,2:0:0:0:
476,286,119468,1,2,2:0:0:0:
437,215,119616,1,2,2:0:0:0:
437,215,119689,1,0,0:0:0:0:
437,215,119763,2,0,P|456:185|456:143,1,59.9999981689454,2|0,3:2|0:0,0:0:0:0:
414,38,120059,2,0,P|402:109|370:160,1,119.999996337891,2|8,2:0|2:0,0:0:0:0:
364,135,120428,2,0,P|377:118|381:98,2,29.9999990844727
349,121,120650,2,0,P|319:120|281:132,1,59.9999981689454,2|2,2:0|3:2,0:0:0:0:
323,43,120946,6,0,L|186:76,2,119.999996337891,2|0|8,3:2|3:2|2:0,0:0:0:0:
323,43,121611,1,0,0:0:0:0:
323,43,121685,1,0,0:0:0:0:
246,10,121832,1,2,2:0:0:0:
246,10,121906,1,0,0:0:0:0:
246,10,121980,1,0,0:0:0:0:
139,45,122128,2,0,P|158:93|170:187,1,119.999996337891,2|2,3:2|3:2,0:0:0:0:
90,335,122719,2,0,P|110:277|107:213,1,119.999996337891,10|2,2:0|2:0,0:0:0:0:
70,157,123162,1,0,3:2:0:0:
10,207,123310,6,0,L|38:82,2,119.999996337891,2|0|10,3:2|3:2|2:0,0:0:0:0:
32,363,124098,1,8,2:0:0:0:
178,313,124295,2,0,P|203:302|238:308,1,39.9999987792969,8|8,2:0|2:0,0:0:0:0:
250,307,124492,6,0,P|276:272|277:219,1,79.9999975585938,8|8,2:0|2:0,0:0:0:0:
247,114,124887,1,8,2:0:0:0:
269,144,124985,1,8,2:0:0:0:
304,160,125084,6,0,P|348:154|395:127,1,79.9999975585938,4|4,2:3|2:3,0:0:0:0:
333,331,125478,1,4,2:3:0:0:
343,311,125576,1,4,2:3:0:0:
364,300,125675,6,0,L|455:336,1,79.9999975585938,4|4,2:3|2:3,0:0:0:0:
506,192,126069,2,0,P|489:201|451:211,1,39.9999987792969,0|0,3:2|3:2,0:0:0:0:
352,228,126266,1,8,2:0:0:0:
498,18,126561,5,2,3:2:0:0:
325,43,126857,2,0,P|380:70|459:58,1,119.999996337891,6|2,3:2|3:2,0:0:0:0:
328,129,127251,6,0,P|347:121|335:138,1,53.3333333333333,2|2,2:0|2:0,0:0:0:0:
237,98,127448,2,0,P|240:77|249:96,1,53.3333333333333,10|2,2:0|2:0,0:0:0:0:
165,161,127645,2,0,P|149:148|169:149,1,53.3333333333333,2|2,2:0|2:0,0:0:0:0:
240,186,127842,5,2,2:0:0:0:
269,206,127941,1,2,2:0:0:0:
289,235,128039,2,0,P|301:274|284:327,1,80,2|0,3:2|0:0,0:0:0:0:
192,353,128335,2,0,L|298:388,1,80,2|2,3:2|2:0,0:0:0:0:
32,368,128630,2,0,P|49:328|49:259,1,80,10|2,2:0|2:0,0:0:0:0:
84,218,128926,2,0,P|95:310|123:388,1,160,2|2,2:0|3:2,0:0:0:0:
395,373,129517,2,0,P|419:297|428:218,2,160,2|8|2,3:2|2:0|2:0,0:0:0:0:
183,339,130256,5,2,3:2:0:0:
329,339,130404,1,2,3:2:0:0:
230,128,130699,2,1,B|256:141|272:149|256:170|256:170|239:149|256:141|280:128,1,120,0|0,3:2|0:0,0:0:0:0:
313,116,130995,5,8,2:0:0:0:
306,164,131093,1,8,2:0:0:0:
278,201,131192,1,8,2:0:0:0:
234,201,131290,1,8,2:3:0:0:
206,164,131389,1,8,2:3:0:0:
199,116,131487,1,4,2:3:0:0:
255,61,131586,6,0,B|289:20|289:20|336:25|336:25|361:49|361:49|360:87|360:87|342:133|342:133|252:228|252:228|204:156|204:156|161:133|161:133|143:86|143:86|143:49|143:49|165:24|165:24|213:19|213:19|255:61,1,689.999978942872,6|0,3:2|0:0,0:0:0:0:
259,74,133359,2,0,B|254:113|254:113|259:120|259:120|253:164,1,89.9999972534181,2|0,2:0|0:0,0:0:0:0:
220,136,133655,2,0,B|257:120|257:120|297:127,1,80,2|0,2:0|0:0,0:0:0:0:
125,274,133951,6,0,P|8:237|64:154,1,250,6|0,3:1|0:0,0:0:0:0:
234,315,134394,2,0,P|114:341|121:241,1,250,6|0,3:1|0:0,0:0:0:0:
194,251,134837,6,0,P|246:263|172:321,1,200,6|0,3:1|0:0,0:0:0:0:
163,327,135281,2,0,P|111:315|185:257,1,200,6|0,3:1|0:0,0:0:0:0:
332,320,135724,6,0,L|338:264,1,50,0|0,1:2|0:0,0:0:0:0:
253,341,136020,2,0,L|259:285,1,50,0|0,1:2|0:0,0:0:0:0:
373,46,136315,6,1,B|382:15|382:15|340:14|276:78|312:171,1,200,6|0,3:1|3:2,0:0:0:0:
446,321,136758,2,1,B|469:342|469:342|433:364|346:340|330:242,1,200,14|0,3:1|3:2,0:0:0:0:
392,198,137202,6,1,L|493:215,1,80,14|0,3:1|0:0,0:0:0:0:
217,170,137497,2,1,L|117:153,1,80,8|6,2:3|3:1,0:0:0:0:
115,152,137719,1,8,2:3:0:0:
91,147,137793,1,8,2:3:0:0:
235,75,137941,2,1,L|135:58,1,80,8|0,2:3|3:2,0:0:0:0:
133,57,138163,1,0,3:2:0:0:
109,52,138236,2,0,L|39:67,1,50,10|0,2:0|0:0,0:0:0:0:
91,147,138384,2,0,L|21:162,1,50,10|0,2:0|0:0,0:0:0:0:
73,242,138532,2,0,L|3:257,1,50,10|0,2:0|0:0,0:0:0:0:
55,337,138680,1,2,2:0:0:0:
266,276,142079,5,2,2:0:0:0:
266,276,142153,1,2,2:0:0:0:
266,276,142226,2,0,L|279:205,1,59.9999981689454,2|2,2:0|2:0,0:0:0:0:
184,262,142522,2,0,L|194:321,1,59.9999981689454,2|2,2:0|2:0,0:0:0:0:
376,320,142818,1,2,2:0:0:0:
376,320,142965,2,0,P|327:349|254:352,1,119.999996337891,2|2,2:0|2:0,0:0:0:0:
460,176,143409,5,6,3:2:0:0:
430,376,143556,2,0,P|402:292|394:200,1,160,0|8,3:2|2:0,0:0:0:0:
418,62,144000,2,0,L|390:153,1,80,2|0,2:0|3:2,0:0:0:0:
356,0,144295,2,0,L|328:91,1,80,8|0,2:0|0:0,0:0:0:0:
428,41,144591,1,2,3:2:0:0:
332,76,144739,2,0,P|292:88|220:92,1,80,8|2,2:0|3:2,0:0:0:0:
123,55,145034,1,10,2:0:0:0:
89,37,145108,1,8,2:0:0:0:
47,34,145182,1,8,2:0:0:0:
224,23,145330,1,10,2:0:0:0:
160,125,145478,1,4,2:3:0:0:
215,184,145625,1,8,2:3:0:0:
64,313,145773,5,14,3:2:0:0:
45,275,145847,1,8,2:0:0:0:
60,236,145921,1,8,2:0:0:0:
95,209,145995,1,8,2:0:0:0:
138,206,146069,1,8,2:0:0:0:
174,229,146143,1,8,2:0:0:0:
181,279,146217,5,14,3:2:0:0:
221,241,146290,1,8,2:0:0:0:
268,238,146364,1,8,2:0:0:0:
307,263,146438,1,8,2:0:0:0:
321,301,146512,1,8,2:0:0:0:
283,333,146586,1,8,2:0:0:0:
234,326,146660,5,14,3:2:0:0:
221,272,146733,1,8,2:0:0:0:
241,230,146807,1,8,2:0:0:0:
283,208,146881,1,8,2:0:0:0:
323,215,146955,1,8,2:0:0:0:
343,165,147029,1,8,2:0:0:0:
363,115,147103,2,0,P|346:92|303:75,1,59.9999981689454,14|8,3:2|2:0,0:0:0:0:
453,331,147399,5,2,2:1:0:0:
464,340,147473,1,2,2:1:0:0:
475,349,147547,1,2,2:0:0:0:
449,232,147694,6,0,L|460:194,1,25,2|2,2:1|2:1,0:0:0:0:
453,110,147842,5,2,2:0:0:0:
485,85,147916,1,2,2:0:0:0:
485,45,147990,2,0,P|467:32|444:21,1,40,2|2,2:1|2:1,0:0:0:0:
363,14,148138,6,0,P|278:59|159:100,1,220.000006713867,6|10,3:2|2:0,0:0:0:0:
55,279,148581,1,0,0:0:0:0:
73,83,148729,2,0,L|113:204,1,110.000003356934,2|2,3:2|3:2,0:0:0:0:
130,260,149024,1,8,2:0:0:0:
31,15,149172,2,0,L|-3:247,1,220.000006713867,6|2,3:2|3:2,0:0:0:0:
120,333,149616,1,8,2:0:0:0:
321,270,149763,2,0,P|228:327|120:333,1,220.000006713867,2|2,3:2|3:2,0:0:0:0:
487,347,150207,2,0,P|494:291|518:210,1,110.000003356934,10|0,2:0|0:0,0:0:0:0:
366,159,150502,6,0,P|398:247|412:382,1,220.000006713867,6|10,3:2|2:0,0:0:0:0:
338,365,150946,1,2,2:0:0:0:
434,201,151093,1,0,3:2:0:0:
281,148,151241,1,2,3:2:0:0:
442,75,151389,1,8,2:0:0:0:
329,18,151537,2,0,P|252:26|218:111,1,165.000005035401,6|0,3:2|0:0,0:0:0:0:
214,117,151832,2,0,L|143:137,1,55.0000016784668,0|0,3:2|0:0,0:0:0:0:
199,202,151980,2,0,L|180:253,1,55.0000016784668,8|0,2:0|0:0,0:0:0:0:
257,278,152128,2,0,L|400:236,1,110.000003356934,2|2,2:0|3:2,0:0:0:0:
362,143,152423,1,10,2:0:0:0:
366,115,152496,1,8,2:0:0:0:
371,88,152570,1,0,3:2:0:0:
117,38,152719,5,10,2:0:0:0:
93,73,152793,1,8,2:0:0:0:
87,115,152867,2,0,P|89:232|149:347,2,220.000006713867,6|8|2,3:2|2:0|3:2,0:0:0:0:
151,16,153606,1,0,3:2:0:0:
45,180,153754,2,0,P|40:236|13:308,1,110.000003356934,8|0,2:0|0:0,0:0:0:0:
17,74,154049,1,2,3:2:0:0:
45,180,154197,2,0,L|166:204,1,110.000003356934,0|10,0:0|2:0,0:0:0:0:
393,216,154492,2,0,P|297:278|170:266,1,220.000006713867,2|2,2:0|3:2,0:0:0:0:
131,324,154936,2,0,L|24:365,1,110.000003356934,8|2,2:0|2:0,0:0:0:0:
247,379,155231,6,0,P|277:258|288:116,1,220.000006713867,6|8,3:2|2:0,0:0:0:0:
343,308,155675,1,2,2:0:0:0:
250,99,155822,1,10,2:0:0:0:
419,296,155970,1,2,3:2:0:0:
192,145,156118,1,10,2:0:0:0:
490,276,156266,1,2,3:2:0:0:
325,67,156414,6,0,P|317:50|316:25,1,27.5000008392334,10|0,2:0|0:0,0:0:0:0:
458,193,156561,2,0,P|412:221|358:229,1,110.000003356934,2|0,3:1|0:0,0:0:0:0:
492,43,156857,2,0,P|445:117|325:123,1,179.999994506836,2|0,3:1|0:0,0:0:0:0:
298,88,157153,1,8,2:0:0:0:
250,69,157226,1,8,2:0:0:0:
197,71,157300,1,8,2:0:0:0:
149,98,157374,1,8,2:0:0:0:
123,145,157448,1,8,2:0:0:0:
130,200,157522,1,8,2:0:0:0:
165,243,157596,2,0,P|192:292|202:365,1,110.000003356934,6|0,3:2|0:0,0:0:0:0:
41,144,157891,2,0,P|52:96|61:8,1,110.000003356934,10|0,2:0|0:0,0:0:0:0:
122,367,158187,5,2,3:2:0:0:
19,234,158335,1,2,3:2:0:0:
53,317,158483,1,8,2:0:0:0:
202,171,158630,2,0,P|287:167|365:307,1,220.000006713867,6|2,3:2|3:2,0:0:0:0:
264,379,159074,2,2,B|265:353|265:353|276:344|276:344|279:305,1,55.0000016784668,8|0,2:0|0:0,0:1:0:0:
351,331,159221,2,2,B|352:305|352:305|363:296|363:296|366:257,1,55.0000016784668,2|0,3:2|0:0,0:1:0:0:
438,283,159369,2,2,B|439:257|439:257|450:248|450:248|453:209,1,55.0000016784668,2|0,0:0|0:0,0:1:0:0:
506,182,159517,2,2,B|505:156|505:156|494:147|494:147|491:108,1,55.0000016784668,2|0,3:2|0:0,0:1:0:0:
400,29,159665,2,2,B|407:99|407:99|418:108|418:108|419:134,1,110.000003356934,10|0,2:0|0:0,0:1:0:0:
120,102,159960,6,0,B|227:120|227:120|366:50,1,220.000006713867,6|8,3:2|2:0,0:0:0:0:
160,31,160404,1,2,2:0:0:0:
275,182,160552,1,0,3:2:0:0:
160,267,160699,1,2,3:2:0:0:
260,326,160847,1,8,2:0:0:0:
199,179,160995,2,0,P|112:209|72:329,1,220.000006713867,6|0,3:2|3:2,0:0:0:0:
315,273,161438,2,0,L|470:312,1,110.000003356934,8|2,2:0|2:0,0:0:0:0:
201,371,161734,1,2,3:2:0:0:
321,377,161882,1,10,2:0:0:0:
347,371,161955,1,8,2:0:0:0:
374,365,162029,1,0,3:2:0:0:
512,274,162177,5,10,2:0:0:0:
512,312,162251,1,8,2:0:0:0:
498,346,162325,2,0,P|449:262|447:134,2,220.000006713867,6|8|2,3:2|2:0|3:2,0:0:0:0:
444,141,163064,1,0,3:2:0:0:
444,141,163212,2,0,P|394:146|330:170,1,110.000003356934,8|2,2:0|2:0,0:0:0:0:
148,16,163507,2,0,L|284:69,1,110.000003356934,2|2,3:2|2:0,0:0:0:0:
75,134,163803,1,8,2:0:0:0:
75,134,163877,1,0,0:0:0:0:
75,134,163951,2,0,P|48:184|-18:243,1,110.000003356934,2|0,2:0|3:2,0:0:0:0:
73,32,164246,1,2,3:2:0:0:
155,152,164394,2,0,L|297:128,1,110.000003356934,8|2,2:0|2:0,0:0:0:0:
170,325,164689,5,14,3:2:0:0:
137,358,164763,1,8,2:0:0:0:
91,361,164837,1,10,2:0:0:0:
48,343,164911,1,8,2:0:0:0:
32,298,164985,1,8,2:0:0:0:
51,252,165059,1,8,2:0:0:0:
88,234,165133,5,14,3:2:0:0:
127,271,165206,1,8,2:0:0:0:
177,294,165280,1,8,2:0:0:0:
231,301,165354,1,8,2:0:0:0:
285,290,165428,1,8,2:0:0:0:
332,262,165502,1,8,2:0:0:0:
360,215,165576,5,14,3:2:0:0:
401,231,165650,1,8,2:0:0:0:
431,264,165724,1,8,2:0:0:0:
438,309,165798,1,8,2:0:0:0:
421,349,165872,1,8,2:0:0:0:
384,371,165945,1,8,2:0:0:0:
342,369,166020,5,14,3:2:0:0:
304,337,166093,1,8,2:0:0:0:
296,287,166167,1,8,2:0:0:0:
323,237,166241,1,8,2:0:0:0:
304,186,166315,1,10,2:0:0:0:
263,150,166389,1,8,2:0:0:0:
211,162,166463,5,14,3:2:0:0:
273,132,166536,1,8,2:0:0:0:
335,103,166610,1,10,2:0:0:0:
397,73,166684,1,8,2:0:0:0:
459,44,166758,5,14,3:2:0:0:
391,55,166832,1,8,2:0:0:0:
323,67,166906,1,8,2:0:0:0:
256,80,166980,1,8,2:0:0:0:
188,92,167054,2,0,B|157:195|157:195|205:301,1,220.000006713867,6|10,3:2|2:0,0:0:0:0:
203,297,167497,1,0,0:0:0:0:
125,136,167645,1,2,3:2:0:0:
26,255,167793,2,0,P|80:241|125:211,1,110.000003356934,2|8,3:2|2:0,0:0:0:0:
43,62,168088,6,0,P|33:172|8:279,1,220.000006713867,6|2,3:2|3:2,0:0:0:0:
96,333,168532,2,2,B|69:336|69:336|66:346|66:346|18:353,1,55.0000016784668,8|0,2:0|0:0,0:1:0:0:
176,330,168680,2,2,B|149:333|149:333|146:343|146:343|98:350,1,55.0000016784668,2|0,3:2|0:0,0:1:0:0:
272,333,168827,2,2,B|250:349|250:349|252:359|252:359|214:389,1,55.0000016784668,2|0,0:0|0:0,0:1:0:0:
347,308,168975,2,2,B|349:335|349:335|360:338|360:338|367:386,1,55.0000016784668,2|0,3:2|0:0,0:1:0:0:
466,204,169123,2,2,B|468:231|468:231|479:234|479:234|481:250,1,55.0000016784668,10|0,2:0|0:0,0:1:0:0:
459,278,169271,2,2,B|448:302|448:302|455:310|455:310|437:355,1,55.0000016784668,2|0,0:0|0:0,0:1:0:0:
435,358,169419,2,0,B|373:262|373:262|401:159,1,220.000006713867,6|8,3:2|2:0,0:0:0:0:
419,86,169862,2,0,P|465:55|516:-2,1,110.000003356934,2|0,2:0|3:2,0:0:0:0:
339,125,170157,2,0,L|199:158,1,110.000003356934,2|8,3:2|2:0,0:0:0:0:
27,29,170453,2,0,P|32:80|67:159,1,110.000003356934,6|0,3:2|0:0,0:0:0:0:
244,228,170749,5,2,3:2:0:0:
122,106,170896,1,8,2:0:0:0:
84,320,171044,2,0,P|136:305|185:279,1,110.000003356934,2|2,2:0|3:2,0:0:0:0:
29,208,171340,1,10,2:0:0:0:
12,246,171414,1,8,2:0:0:0:
10,291,171488,1,0,3:2:0:0:
194,81,171635,5,10,2:0:0:0:
211,55,171709,1,8,2:0:0:0:
228,29,171783,2,0,P|308:17|432:79,2,220.000006713867,6|8|2,3:2|2:0|3:2,0:0:0:0:
103,219,172522,1,0,3:2:0:0:
197,284,172670,2,0,L|168:179,1,110.000003356934,8|0,2:0|0:0,0:0:0:0:
363,368,172965,2,0,L|384:245,1,110.000003356934,2|0,3:2|0:0,0:0:0:0:
381,259,173261,1,10,2:0:0:0:
296,109,173409,2,0,P|312:153|309:223,1,110.000003356934,2|0,2:0|3:2,0:0:0:0:
156,367,173704,1,2,3:2:0:0:
156,367,173852,2,0,L|288:344,1,110.000003356934,8|2,2:0|2:0,0:0:0:0:
395,156,174148,6,0,P|443:208|505:367,1,220.000006713867,6|8,3:2|2:0,0:0:0:0:
501,343,174517,1,0,0:0:0:0:
501,343,174591,1,2,2:0:0:0:
487,132,174739,2,0,B|484:109|484:109|490:103|490:103|484:71,2,55.0000016784668,2|0|0,3:2|0:0|3:2,0:0:0:0:
439,20,175034,1,0,0:0:0:0:
230,63,175182,2,0,P|340:64|440:19,1,220.000006713867,10|2,2:0|3:2,0:0:0:0:
159,4,175625,2,0,P|206:46|250:108,1,110.000003356934,10|0,2:0|3:2,0:0:0:0:
234,265,175921,5,8,2:0:0:0:
184,322,176020,5,8,2:0:0:0:
123,346,176118,5,8,2:0:0:0:
66,346,176217,5,4,2:3:0:0:
108,319,176315,5,8,2:3:0:0:
148,323,176414,5,8,2:3:0:0:
148,323,176512,6,0,P|135:222|110:164,1,160,6|2,3:2|3:2,0:0:0:0:
182,142,176955,1,0,0:0:0:0:
32,85,177103,1,10,2:0:0:0:
108,69,177251,2,0,L|86:181,1,80,2|0,2:0|0:0,0:0:0:0:
216,216,177547,1,2,3:2:0:0:
216,216,177694,2,0,L|242:312,1,80,0|2,3:2|2:0,0:0:0:0:
366,301,177990,2,0,L|351:392,1,80,2|2,3:2|2:0,0:0:0:0:
306,250,178286,2,0,P|312:159|335:73,1,160,10|2,2:0|2:0,0:0:0:0:
71,372,178877,6,0,P|41:285|-2:208,1,160,2|2,3:2|3:2,0:0:0:0:
69,174,179320,1,0,0:0:0:0:
165,358,179468,2,0,P|165:317|155:276,1,80,10|0,2:0|0:0,0:0:0:0:
209,176,179763,2,0,L|122:215,1,80,2|0,2:0|3:2,0:0:0:0:
88,99,180059,1,2,3:2:0:0:
88,99,180206,2,0,P|129:110|176:109,1,80,0|0,0:0|3:2,0:0:0:0:
221,52,180502,1,0,0:0:0:0:
366,87,180650,2,0,L|399:184,1,80,8|0,2:0|0:0,0:0:0:0:
456,198,180946,5,10,2:0:0:0:
460,50,181094,1,8,2:0:0:0:
272,112,181241,1,6,3:2:0:0:
320,178,181832,1,2,2:0:0:0:
256,384,182423,6,0,L|375:352,1,100,6|2,3:2|2:0,0:0:0:0:
352,358,182867,1,0,0:0:0:0:
226,318,183015,2,0,P|233:296|235:258,1,50,2|0,2:0|0:0,0:0:0:0:
129,231,183310,2,0,P|135:268|148:303,1,75.0000028610231,2|0,2:0|0:0,0:0:0:0:
223,197,183606,2,0,L|256:0,1,200,6|0,3:2|0:0,0:0:0:0:
266,11,185231,6,0,L|309:18,1,25,2|2,2:1|2:1,0:0:0:0:
290,15,185379,1,2,2:0:0:0:
251,184,185527,2,0,L|256:160,1,25,2|2,2:1|2:1,0:0:0:0:
204,53,185675,5,2,2:0:0:0:
216,73,185749,1,2,2:0:0:0:
232,85,185822,2,0,P|208:102|169:112,1,50,2|2,2:1|2:1,0:0:0:0:
122,71,185970,6,0,P|70:62|14:95,1,100,6|0,3:2|3:2,0:0:0:0:
256,160,186266,1,8,2:0:0:0:
82,141,186414,6,0,P|23:221|55:355,1,225.000008583069,6|0,3:2|0:0,0:0:0:0:
112,375,186709,1,8,2:0:0:0:
162,355,186783,1,8,2:0:0:0:
192,310,186857,1,8,2:0:0:0:
188,257,186931,1,8,2:0:0:0:
233,288,187005,1,8,2:0:0:0:
286,292,187079,1,8,2:0:0:0:
339,278,187153,1,8,2:0:0:0:
370,234,187226,1,8,2:0:0:0:
371,179,187300,2,0,P|313:125|224:138,1,150.000005722046,2|0,3:1|0:0,0:0:0:0:
440,362,187596,6,0,P|478:277|488:213,1,150,2|0,3:1|0:0,0:0:0:0:
465,205,187891,2,0,P|451:178|445:143,1,50,10|0,2:0|0:0,0:0:0:0:
494,0,188039,2,0,P|492:30|478:68,1,50,10|0,2:0|0:0,0:0:0:0:
425,88,188187,1,10,2:0:0:0:
391,106,188261,1,8,2:0:0:0:
351,115,188335,2,0,L|221:88,1,100,6|0,3:2|3:2,0:0:0:0:
56,14,188630,5,8,2:0:0:0:
35,37,188704,1,8,0:0:0:0:
28,67,188778,2,0,P|28:139|150:242,1,225.000008583069,6|0,3:2|0:0,0:0:0:0:
208,256,189074,1,8,2:0:0:0:
258,235,189148,1,8,2:0:0:0:
278,187,189221,1,8,2:0:0:0:
263,137,189295,1,8,2:0:0:0:
218,112,189369,1,8,2:0:0:0:
165,130,189443,1,8,2:0:0:0:
192,83,189517,1,8,2:0:0:0:
240,59,189591,1,8,2:0:0:0:
295,61,189665,2,0,P|365:79|401:164,1,150.000005722046,2|0,3:1|0:0,0:0:0:0:
319,325,189960,6,0,P|261:363|150:312,1,187.5,2|0,3:1|0:0,0:0:0:0:
137,317,190256,2,0,L|64:351,1,62.5,10|0,2:0|0:0,0:0:0:0:
238,322,190404,2,0,L|215:387,1,62.5,10|0,2:0|0:0,0:0:0:0:
334,249,190552,2,0,L|417:283,1,62.5,10|0,2:0|0:0,0:0:0:0:
509,368,190699,5,6,3:2:0:0:
473,235,190847,2,0,P|450:270|454:352,1,100,0|8,3:2|2:0,0:0:0:0:
480,50,191143,6,0,P|437:151|302:149,1,225.000008583069,6|0,3:2|0:0,0:0:0:0:
272,121,191438,1,8,2:0:0:0:
225,95,191512,1,8,2:0:0:0:
173,108,191586,1,8,2:0:0:0:
143,152,191660,1,8,2:0:0:0:
149,205,191734,1,8,2:0:0:0:
189,242,191808,1,8,2:0:0:0:
242,250,191882,1,8,2:0:0:0:
290,226,191955,1,8,2:0:0:0:
291,172,192029,2,0,P|303:272|271:327,1,150.000005722046,2|0,3:1|0:0,0:0:0:0:
70,104,192325,6,0,L|33:335,1,200,2|10,3:1|2:0,0:0:0:0:
19,157,192768,1,10,2:0:0:0:
90,362,192916,1,10,2:0:0:0:
130,354,192989,1,8,2:0:0:0:
171,346,193064,2,0,P|202:242|224:74,1,250,6|0,3:1|0:0,0:0:0:0:
141,117,193507,2,0,P|188:232|282:313,1,250,6|0,3:1|0:0,0:0:0:0:
256,384,193951,6,0,P|290:314|409:289,1,187.500007152558,6|0,3:1|0:0,0:0:0:0:
325,253,194394,2,0,P|440:294|486:370,1,187.500007152558,6|0,3:1|0:0,0:0:0:0:
478,359,194837,6,0,B|462:276|462:276|468:259|468:259|455:175,1,187.5,2|0,2:0|0:0,0:0:0:0:
462,15,195133,5,6,3:2:0:0:
381,159,195280,1,0,3:2:0:0:
298,19,195427,5,8,2:0:0:0:
298,19,195501,1,8,0:0:0:0:
298,19,195575,2,0,P|220:44|220:184,1,225.000008583069,6|0,3:2|0:0,0:0:0:0:
259,233,195870,1,8,2:0:0:0:
304,200,195944,1,8,2:0:0:0:
322,150,196017,1,8,2:0:0:0:
298,99,196091,1,8,2:0:0:0:
303,155,196165,1,8,2:0:0:0:
346,191,196239,1,8,2:0:0:0:
399,193,196312,1,8,2:0:0:0:
365,235,196386,1,8,2:0:0:0:
331,277,196460,2,0,B|283:336|283:336|209:326,1,150.000005722046,2|0,3:1|0:0,0:0:0:0:
143,18,196755,6,0,B|170:89|170:89|124:148,1,150.000005722046,2|0,3:1|0:0,0:0:0:0:
102,136,197050,2,0,L|33:153,1,50,10|0,2:0|0:0,0:0:0:0:
10,304,197197,2,0,L|58:292,1,50,10|0,2:0|0:0,0:0:0:0:
158,216,197345,5,10,2:0:0:0:
133,221,197419,1,8,2:0:0:0:
109,227,197492,2,0,P|111:292|174:312,1,100,6|0,3:2|3:2,0:0:0:0:
132,328,197714,1,0,0:0:0:0:
128,345,197787,2,0,L|188:331,1,50,8|0,2:0|0:0,0:0:0:0:
243,367,197935,6,0,P|353:343|383:197,1,225.000008583069,6|0,3:2|0:0,0:0:0:0:
363,178,198230,1,8,2:0:0:0:
320,143,198304,1,8,2:0:0:0:
269,158,198377,1,8,2:0:0:0:
254,211,198451,1,8,2:0:0:0:
295,249,198525,1,8,2:0:0:0:
243,231,198599,1,8,2:0:0:0:
232,178,198672,1,8,2:0:0:0:
247,127,198746,1,8,2:0:0:0:
297,109,198820,2,0,L|476:143,1,150.000005722046,2|0,3:1|0:0,0:0:0:0:
209,30,199115,6,0,P|164:95|25:95,1,187.5,2|0,3:1|0:0,0:0:0:0:
36,41,199410,2,0,P|65:26|108:28,1,62.5,10|0,2:0|0:0,0:0:0:0:
160,129,199557,2,0,P|154:166|134:204,1,62.5,10|0,2:0|0:0,0:0:0:0:
41,314,199705,2,0,P|26:286|16:239,1,62.5,10|0,2:0|0:0,0:0:0:0:
58,193,199852,1,6,3:2:0:0:
58,193,199926,1,0,3:0:0:0:
58,193,200000,1,0,3:2:0:0:
160,288,200147,5,8,2:0:0:0:
154,320,200221,1,8,0:0:0:0:
148,352,200295,2,0,P|213:280|339:301,1,225.000008583069,6|0,3:2|0:0,0:0:0:0:
396,337,200590,1,8,2:0:0:0:
405,288,200663,1,8,2:0:0:0:
414,239,200737,1,8,2:0:0:0:
423,190,200811,1,8,2:0:0:0:
432,141,200885,1,8,2:0:0:0:
383,132,200958,1,8,2:0:0:0:
334,123,201032,1,8,2:0:0:0:
285,114,201106,1,8,2:0:0:0:
236,105,201180,2,0,L|66:145,1,150.000005722046,2|0,3:1|0:0,0:0:0:0:
333,384,201475,6,0,L|479:349,1,150.000005722046,2|0,3:1|0:0,0:0:0:0:
486,360,201770,2,0,B|499:338|499:338|495:294,1,50,10|0,2:0|0:0,0:0:0:0:
496,229,201917,2,0,B|509:207|509:207|505:163,1,50,10|0,2:0|0:0,0:0:0:0:
461,61,202065,1,10,2:0:0:0:
419,31,202138,1,8,2:0:0:0:
365,37,202212,2,0,P|279:72|221:234,1,250,6|0,3:1|0:0,0:0:0:0:
282,16,202655,2,0,P|301:110|278:272,1,250,6|0,3:1|0:0,0:0:0:0:
221,82,203097,6,0,P|301:102|407:206,1,200,6|0,3:1|0:0,0:0:0:0:
409,163,203540,2,0,P|367:282|367:370,1,200,6|0,3:1|0:0,0:0:0:0:
384,365,203982,1,0,0:0:0:0:
128,365,204466,5,0,3:2:0:0:
128,365,204539,1,0,3:2:0:0:
128,365,204613,2,0,L|139:311,1,50,0|0,1:2|3:2,0:0:0:0:
204,384,204908,2,0,L|215:330,1,50,0|0,1:2|3:2,0:0:0:0:
29,27,205192,6,0,B|82:83|82:83|101:284|213:334,1,375.000014305115,6|0,3:1|0:0,0:0:0:0:
298,334,205631,2,0,B|410:284|429:83|429:83|483:27,1,375.000014305115,6|0,3:1|0:0,0:0:0:0:
500,44,206070,6,0,B|439:181|336:240|336:240|283:232,1,312.5,6|0,3:1|0:0,0:0:0:0:
11,340,206509,2,0,B|73:203|176:144|176:144|227:151,1,312.5,6|0,3:1|0:0,0:0:0:0:
256,40,206948,6,1,B|246:25|269:8|278:25|291:6|311:16|317:45|307:57|306:81|262:64|260:85|260:85|259:82|259:82|258:80|258:80|256:79|256:79|256:77|256:77|254:77|254:77|252:77|252:77|251:75|251:75|249:75|249:75|248:74|248:74|246:74|246:74|244:73|244:73|244:73|244:73|242:73|242:73|240:73|240:73|240:71|240:71|238:72|238:72|235:69|235:69|235:71|235:71|232:71|232:71|231:69|231:69|230:67|230:67|228:69|228:69|226:66|226:66|227:67|227:67|225:65|225:65|224:64|224:64|224:63|224:63|222:61|222:61|222:59|222:59|220:59|220:59|220:57|220:57|220:55|220:55|218:55|218:55|219:52|219:52|217:51|217:51|218:49|218:49|217:49|217:49|218:47|218:47|216:47|216:47|217:45|217:45|217:44|217:44|215:43|215:43|217:41|217:41|216:40|216:40|216:39|216:39|218:38|218:38|216:36|216:36|219:35|219:35|217:34|217:34|220:33|220:33|218:32|218:32|220:32|220:32|219:30|219:30|221:29|221:29|221:28|221:28|222:27|222:27|222:26|222:26|224:25|224:25|225:24|225:24|225:23|225:23|226:21|226:21|228:22|228:22|229:20|229:20|229:22|229:22|231:19|231:19|232:20|232:20|232:18|232:18|234:20|234:20|235:18|235:18|236:20|236:20|238:18|238:18|240:19|240:19|240:17|240:17|241:18|241:18|243:19|243:19|244:17|244:17|244:18|244:18|246:19|246:19|247:17|247:17|248:19|248:19|248:18|248:18|250:19|250:19|252:18|252:18|251:19|251:19|252:19|252:19|253:20|253:20|254:19|254:19|254:21|254:21|256:20|256:20|256:20|256:20|257:22|257:22|258:20|258:20|259:22|259:22|260:20|260:20|261:22|261:22|260:23|260:23|262:22|262:22|261:24|261:24|263:24|263:24|263:25|263:25|263:24|263:24|263:26|263:26|265:26|265:26|264:27|264:27|265:27|265:27|265:28|265:28|265:28|265:28|265:29|265:29|266:29|266:29|265:30|265:30|265:30|265:30|265:32|265:32|266:31|266:31|265:33|265:33|266:33|266:33|264:34|264:34|266:34|266:34|264:36|264:36|265:36|265:36|264:37|264:37|265:36|265:36|264:38|264:38|265:37|265:37|264:39|264:39|265:38|265:38|264:40|264:40|263:40|263:40,1,384.000009375,0|0,0:0|0:0,0:0:0:0:
