osu file format v14

[General]
AudioFilename: audio.mp3
AudioLeadIn: 0
PreviewTime: -1
Countdown: 0
SampleSet: None
StackLeniency: 0.7
Mode: 3
LetterboxInBreaks: 0
SpecialStyle: 0
WidescreenStoryboard: 0

[Editor]
Bookmarks: 19926,49617,69411,89205,118895
DistanceSpacing: 0.8
BeatDivisor: 4
GridSize: 32
TimelineZoom: 1.9

[Metadata]
Title:idea
TitleUnicode:idea
Artist:hirota
ArtistUnicode:hirota
Creator:Lenfried-
Version:Afterthought
Source:
Tags:ambient
BeatmapID:2045910
BeatmapSetID:977516

[Difficulty]
HPDrainRate:7
CircleSize:4
OverallDifficulty:7
ApproachRate:5
SliderMultiplier:1.4
SliderTickRate:1

[Events]
//Background and Video events
0,0,"darrel-collins-40644-unsplash.jpg",0,0
//Break Periods
//Storyboard Layer 0 (Background)
//Storyboard Layer 1 (Fail)
//Storyboard Layer 2 (Pass)
//Storyboard Layer 3 (Foreground)
//Storyboard Sound Samples

[TimingPoints]
133,309.278350515464,4,1,1,30,1,0
2607,-133.333333333333,4,1,1,30,0,0
3225,-83.3333333333333,4,1,1,30,0,0
3535,-100,4,1,1,30,0,0
5081,-200,4,1,1,30,0,0
5700,-71.4285714285714,4,1,1,30,0,0
6009,-100,4,1,1,30,0,0
7555,-400,4,1,1,30,0,0
8174,-62.5,4,1,1,30,0,0
8483,-100,4,1,1,30,0,0
10029,618.556701030928,4,1,1,30,1,0
10029,-250,4,1,1,30,0,0
10648,-27.7777777777778,4,1,1,30,0,0
10957,-50,4,1,1,30,0,0
12504,-333.333333333333,4,1,1,30,0,0
13122,-25,4,1,1,30,0,0
13431,-50,4,1,1,30,0,0
14978,-500,4,1,1,30,0,0
15596,-22.7272727272727,4,1,1,30,0,0
15906,-50,4,1,1,30,0,0
17452,-1000,4,1,1,30,0,0
18071,-20.8333333333333,4,1,1,30,0,0
18380,-50,4,1,1,30,0,0
19925,309.278350515464,4,1,1,30,1,0
19925,-133.333333333333,4,1,1,30,0,0
20543,-83.3333333333333,4,1,1,30,0,0
20853,-100,4,1,1,30,0,0
22399,-200,4,1,1,30,0,0
23018,-71.4285714285714,4,1,1,30,0,0
23327,-100,4,1,1,30,0,0
24873,-400,4,1,1,30,0,0
25492,-62.5,4,1,1,30,0,0
25801,-100,4,1,1,30,0,0
27347,618.556701030928,4,1,1,30,1,0
27347,-250,4,1,1,30,0,0
27966,-27.7777777777778,4,1,1,30,0,0
28275,-50,4,1,1,30,0,0
29822,-333.333333333333,4,1,1,30,0,0
30440,-25,4,1,1,30,0,0
30749,-50,4,1,1,30,0,0
32296,-500,4,1,1,30,0,0
32914,-22.7272727272727,4,1,1,30,0,0
33224,-50,4,1,1,30,0,0
34770,-1000,4,1,1,30,0,0
35389,-20.8333333333333,4,1,1,30,0,0
35698,-50,4,1,1,30,0,0
37243,60000000000,4,1,1,30,1,0
37862,309.278350515464,4,1,1,30,1,0
37862,-40,4,1,1,30,0,0
38171,-100,4,1,1,30,0,0
39717,60000000000,4,1,1,30,1,0
40336,309.278350515464,4,1,1,30,1,0
40336,-38.4615384615385,4,1,1,30,0,0
40645,-100,4,1,1,30,0,0
42191,60000000000,4,1,1,30,1,0
42810,309.278350515464,4,1,1,30,1,0
42810,-37.037037037037,4,1,1,30,0,0
43119,-100,4,1,1,30,0,0
44665,60000000000,4,1,1,30,1,0
45284,309.278350515464,4,1,1,30,1,0
45284,-35.7142857142857,4,1,1,30,0,0
45593,-100,4,1,1,30,0,0
52088,-90.9090909090909,4,1,1,30,0,0
52397,-111.111111111111,4,1,1,30,0,0
52552,-100,4,1,1,30,0,0
52706,-125,4,1,1,30,0,0
53015,-111.111111111111,4,1,1,30,0,0
53170,-100,4,1,1,30,0,0
53634,-111.111111111111,4,1,1,30,0,0
53789,-100,4,1,1,30,0,0
54407,-111.111111111111,4,1,1,30,0,0
54562,-83.3333333333333,4,1,1,30,0,0
54871,-125,4,1,1,30,0,0
55026,-100,4,1,1,30,0,0
55180,-166.666666666667,4,1,1,30,0,0
55489,-125,4,1,1,30,0,0
55644,-100,4,1,1,30,0,0
56108,-125,4,1,1,30,0,0
56263,-100,4,1,1,30,0,0
56881,-125,4,1,1,30,0,0
57036,-76.9230769230769,4,1,1,30,0,0
57345,-142.857142857143,4,1,1,30,0,0
57500,-100,4,1,1,30,0,0
57654,-250.000000000001,4,1,1,30,0,0
57963,-142.857142857143,4,1,1,30,0,0
58118,-100,4,1,1,30,0,0
58582,-142.857142857143,4,1,1,30,0,0
58737,-100,4,1,1,30,0,0
59355,-142.857142857143,4,1,1,30,0,0
59510,-71.4285714285714,4,1,1,30,0,0
59819,-166.666666666667,4,1,1,30,0,0
59974,-100,4,1,1,30,0,0
60128,-500.000000000003,4,1,1,30,0,0
60437,-166.666666666667,4,1,1,30,0,0
60592,-100,4,1,1,30,0,0
61056,-166.666666666667,4,1,1,30,0,0
61211,-100,4,1,1,30,0,0
61829,-166.666666666667,4,1,1,30,0,0
61984,-66.6666666666667,4,1,1,30,0,0
62293,-200,4,1,1,30,0,0
62448,-100,4,1,1,30,0,0
62602,-1000.00000000001,4,1,1,30,0,0
62911,-200,4,1,1,30,0,0
63066,-100,4,1,1,30,0,0
63530,-200,4,1,1,30,0,0
63685,-100,4,1,1,30,0,0
64303,-200,4,1,1,30,0,0
64458,-62.5,4,1,1,30,0,0
64767,-200,4,1,1,30,0,0
64922,-100,4,1,1,30,0,0
65076,618.556701030928,4,1,1,30,1,0
65076,-1000.00000000001,4,1,1,30,0,0
65385,309.278350515464,4,1,1,30,1,0
65385,-200,4,1,1,30,0,0
65540,-100,4,1,1,30,0,0
66004,-200,4,1,1,30,0,0
66159,-100,4,1,1,30,0,0
66777,-200,4,1,1,30,0,0
66932,-58.8235294117647,4,1,1,30,0,0
67241,-250.000000000001,4,1,1,30,0,0
67396,-100,4,1,1,30,0,0
67550,1237.11340206186,4,1,1,30,1,0
67550,-1000.00000000001,4,1,1,30,0,0
67859,309.278350515464,4,1,1,30,1,0
67859,-250,4,1,1,30,0,0
68014,-100,4,1,1,30,0,0
68478,-250,4,1,1,30,0,0
68633,-100,4,1,1,30,0,0
69251,-250,4,1,1,30,0,0
69406,-55.5555555555556,4,1,1,30,0,0
69715,-333.333333333336,4,1,1,30,0,0
69870,-100,4,1,1,30,0,0
70024,2474.22680412371,4,1,1,30,1,0
70024,-1000.00000000001,4,1,1,30,0,0
70333,309.278350515464,4,1,1,30,1,0
70333,-333.333333333333,4,1,1,30,0,0
70488,-100,4,1,1,30,0,0
70952,-333.333333333333,4,1,1,30,0,0
71107,-100,4,1,1,30,0,0
71725,-333.333333333333,4,1,1,30,0,0
71880,-52.6315789473684,4,1,1,30,0,0
72189,-500.000000000005,4,1,1,30,0,0
72344,-100,4,1,1,30,0,0
72498,60000000000,4,1,1,30,1,0
72498,-1000.00000000001,4,1,1,30,0,0
72807,309.278350515464,4,1,1,30,1,0
72807,-500,4,1,1,30,0,0
72962,-100,4,1,1,30,0,0
73426,-500,4,1,1,30,0,0
73581,-100,4,1,1,30,0,0
74199,-500,4,1,1,30,0,0
74354,-50,4,1,1,30,0,0
74663,-1000.00000000002,4,1,1,30,0,0
74818,-100,4,1,1,30,0,0
74972,60000000000,4,1,1,30,1,0
74972,-1000.00000000001,4,1,1,30,0,0
75281,309.278350515464,4,1,1,30,1,0
75281,-1000,4,1,1,30,0,0
75436,-100,4,1,1,30,0,0
75900,-1000,4,1,1,30,0,0
76055,-100,4,1,1,30,0,0
76673,-1000,4,1,1,30,0,0
76828,-50,4,1,1,30,0,0
77137,-1000.00000000002,4,1,1,30,0,0
77292,-100,4,1,1,30,0,0
77446,60000000000,4,1,1,30,1,0
77446,-1000.00000000001,4,1,1,30,0,0
77755,309.278350515464,4,1,1,30,1,0
77755,-1000,4,1,1,30,0,0
77910,-100,4,1,1,30,0,0
78374,-1000,4,1,1,30,0,0
78529,-100,4,1,1,30,0,0
79147,-1000,4,1,1,30,0,0
79302,-50,4,1,1,30,0,0
79611,-1000.00000000002,4,1,1,30,0,0
79766,-100,4,1,1,30,0,0
79920,60000000000,4,1,1,30,1,0
79920,-1000.00000000001,4,1,1,30,0,0
80229,309.278350515464,4,1,1,30,1,0
80229,-1000,4,1,1,30,0,0
80384,-100,4,1,1,30,0,0
80848,-1000,4,1,1,30,0,0
81003,-100,4,1,1,30,0,0
81621,-1000,4,1,1,30,0,0
81775,-50,4,1,1,30,0,0
82084,-1000.00000000002,4,1,1,30,0,0
82239,-100,4,1,1,30,0,0
82393,60000000000,4,1,1,30,1,0
82393,-1000.00000000001,4,1,1,30,0,0
82702,309.278350515464,4,1,1,30,1,0
82702,-1000,4,1,1,30,0,0
82857,-100,4,1,1,30,0,0
83321,-1000,4,1,1,30,0,0
83476,-100,4,1,1,30,0,0
84094,-1000,4,1,1,30,0,0
84249,-50,4,1,1,30,0,0
84558,-1000.00000000002,4,1,1,30,0,0
84713,-100,4,1,1,30,0,0
84867,60000000000,4,1,1,30,1,0
84867,-1000.00000000001,4,1,1,30,0,0
85176,309.278350515464,4,1,1,30,1,0
85176,-1000,4,1,1,30,0,0
85331,-100,4,1,1,30,0,0
85795,-1000,4,1,1,30,0,0
85950,-100,4,1,1,30,0,0
86568,-1000,4,1,1,30,0,0
86722,-100,4,1,1,30,0,0
87655,309.278350515464,4,1,1,30,1,0
91675,-125,4,1,1,30,0,0
91984,-111.111111111111,4,1,1,30,0,0
92139,-90.9090909090909,4,1,1,30,0,0
92294,-125,4,1,1,30,0,0
92603,-90.9090909090909,4,1,1,30,0,0
92758,-100,4,1,1,30,0,0
93222,-111.111111111111,4,1,1,30,0,0
93376,-100,4,1,1,30,0,0
93531,-90.9090909090909,4,1,1,30,0,0
93685,-100,4,1,1,30,0,0
93840,-90.9090909090909,4,1,1,30,0,0
93995,-100,4,1,1,30,0,0
94149,-166.666666666667,4,1,1,30,0,0
94458,-125,4,1,1,30,0,0
94613,-83.3333333333333,4,1,1,30,0,0
94768,-166.666666666667,4,1,1,30,0,0
95077,-83.3333333333333,4,1,1,30,0,0
95232,-100,4,1,1,30,0,0
95696,-125,4,1,1,30,0,0
95850,-100,4,1,1,30,0,0
96005,-83.3333333333333,4,1,1,30,0,0
96159,-100,4,1,1,30,0,0
96314,-83.3333333333333,4,1,1,30,0,0
96469,-100,4,1,1,30,0,0
96623,-250,4,1,1,30,0,0
96932,-142.857142857143,4,1,1,30,0,0
97087,-76.9230769230769,4,1,1,30,0,0
97242,-250,4,1,1,30,0,0
97551,-76.9230769230769,4,1,1,30,0,0
97706,-100,4,1,1,30,0,0
98170,-142.857142857143,4,1,1,30,0,0
98324,-100,4,1,1,30,0,0
98479,-76.9230769230769,4,1,1,30,0,0
98633,-100,4,1,1,30,0,0
98788,-76.9230769230769,4,1,1,30,0,0
98943,-100,4,1,1,30,0,0
99097,-500,4,1,1,30,0,0
99406,-166.666666666667,4,1,1,30,0,0
99561,-71.4285714285714,4,1,1,30,0,0
99716,-500,4,1,1,30,0,0
100025,-71.4285714285714,4,1,1,30,0,0
100180,-100,4,1,1,30,0,0
100644,-166.666666666667,4,1,1,30,0,0
100798,-100,4,1,1,30,0,0
100953,-71.4285714285714,4,1,1,30,0,0
101107,-100,4,1,1,30,0,0
101262,-71.4285714285714,4,1,1,30,0,0
101417,-100,4,1,1,30,0,0
101571,-1000,4,1,1,30,0,0
101880,-200,4,1,1,30,0,0
102035,-66.6666666666667,4,1,1,30,0,0
102190,-1000,4,1,1,30,0,0
102499,-71.4285714285714,4,1,1,30,0,0
102654,-100,4,1,1,30,0,0
103118,-200,4,1,1,30,0,0
103272,-100,4,1,1,30,0,0
103427,-66.6666666666667,4,1,1,30,0,0
103581,-100,4,1,1,30,0,0
103736,-66.6666666666667,4,1,1,30,0,0
103891,-100,4,1,1,30,0,0
104046,618.556701030928,4,1,1,30,1,0
104046,-1000,4,1,1,30,0,0
104354,309.278350515464,4,1,1,30,1,0
104354,-250,4,1,1,30,0,0
104509,-62.5,4,1,1,30,0,0
104664,618.556701030928,4,1,1,30,1,0
104664,-1000,4,1,1,30,0,0
104973,309.278350515464,4,1,1,30,1,0
104973,-62.5,4,1,1,30,0,0
105128,-100,4,1,1,30,0,0
105592,-250,4,1,1,30,0,0
105746,-100,4,1,1,30,0,0
105901,-62.5,4,1,1,30,0,0
106055,-100,4,1,1,30,0,0
106210,-62.5,4,1,1,30,0,0
106365,-100,4,1,1,30,0,0
106520,1237.11340206186,4,1,1,30,1,0
106520,-1000,4,1,1,30,0,0
106828,309.278350515464,4,1,1,30,1,0
106828,-333.333333333333,4,1,1,30,0,0
106983,-58.8235294117647,4,1,1,30,0,0
107138,1237.11340206186,4,1,1,30,1,0
107138,-1000,4,1,1,30,0,0
107447,309.278350515464,4,1,1,30,1,0
107447,-58.8235294117647,4,1,1,30,0,0
107602,-100,4,1,1,30,0,0
108066,-333.333333333333,4,1,1,30,0,0
108220,-100,4,1,1,30,0,0
108375,-58.8235294117647,4,1,1,30,0,0
108529,-100,4,1,1,30,0,0
108684,-58.8235294117647,4,1,1,30,0,0
108839,-100,4,1,1,30,0,0
108994,2474.22680412371,4,1,1,30,1,0
108994,-1000,4,1,1,30,0,0
109302,309.278350515464,4,1,1,30,1,0
109302,-500,4,1,1,30,0,0
109457,-55.5555555555556,4,1,1,30,0,0
109612,2474.22680412371,4,1,1,30,1,0
109612,-1000,4,1,1,30,0,0
109921,309.278350515464,4,1,1,30,1,0
109921,-55.5555555555556,4,1,1,30,0,0
110076,-100,4,1,1,30,0,0
110540,-500,4,1,1,30,0,0
110694,-100,4,1,1,30,0,0
110849,-55.5555555555556,4,1,1,30,0,0
111003,-100,4,1,1,30,0,0
111158,-55.5555555555556,4,1,1,30,0,0
111313,-100,4,1,1,30,0,0
111468,60000000000,4,1,1,30,1,0
111776,309.278350515464,4,1,1,30,1,0
111776,-1000,4,1,1,30,0,0
111931,-52.6315789473684,4,1,1,30,0,0
112086,60000000000,4,1,1,30,1,0
112395,309.278350515464,4,1,1,30,1,0
112395,-52.6315789473684,4,1,1,30,0,0
112550,-100,4,1,1,30,0,0
113014,-1000,4,1,1,30,0,0
113168,-100,4,1,1,30,0,0
113323,-52.6315789473684,4,1,1,30,0,0
113477,-100,4,1,1,30,0,0
113632,-52.6315789473684,4,1,1,30,0,0
113787,-100,4,1,1,30,0,0
113942,60000000000,4,1,1,30,1,0
114250,309.278350515464,4,1,1,30,1,0
114250,-1000,4,1,1,30,0,0
114405,-50,4,1,1,30,0,0
114560,60000000000,4,1,1,30,1,0
114869,309.278350515464,4,1,1,30,1,0
114869,-50,4,1,1,30,0,0
115024,-100,4,1,1,30,0,0
115488,-1000,4,1,1,30,0,0
115642,-100,4,1,1,30,0,0
115797,-50,4,1,1,30,0,0
115951,-100,4,1,1,30,0,0
116106,-50,4,1,1,30,0,0
116261,-100,4,1,1,30,0,0
116416,60000000000,4,1,1,30,1,0
116724,309.278350515464,4,1,1,30,1,0
116724,-1000,4,1,1,30,0,0
116879,-50,4,1,1,30,0,0
117034,60000000000,4,1,1,30,1,0
117343,309.278350515464,4,1,1,30,1,0
117343,-50,4,1,1,30,0,0
117498,-100,4,1,1,30,0,0
117962,-1000,4,1,1,30,0,0
118116,-100,4,1,1,30,0,0
118271,-50,4,1,1,30,0,0
118425,-100,4,1,1,30,0,0
118580,-50,4,1,1,30,0,0
118735,-100,4,1,1,30,0,0
119353,-100,4,1,1,30,0,0
119453,-50,4,1,1,30,0,0
119507,-142.857142857143,4,1,1,30,0,0

[HitObjects]
192,192,133,5,0,0:0:0:0:
64,192,133,1,0,0:0:0:0:
192,192,287,1,0,0:0:0:0:
64,192,287,1,0,0:0:0:0:
320,192,751,128,0,1060:0:0:0:0:
448,192,751,128,0,1060:0:0:0:0:
192,192,2607,5,0,0:0:0:0:
64,192,2607,1,0,0:0:0:0:
64,192,2761,1,0,0:0:0:0:
192,192,2761,1,0,0:0:0:0:
448,192,3225,128,0,3535:0:0:0:0:
320,192,3225,128,0,3535:0:0:0:0:
192,192,5081,5,0,0:0:0:0:
64,192,5081,1,0,0:0:0:0:
192,192,5236,1,0,0:0:0:0:
64,192,5236,1,0,0:0:0:0:
320,192,5700,128,0,6009:0:0:0:0:
448,192,5700,128,0,6009:0:0:0:0:
192,192,7555,5,0,0:0:0:0:
64,192,7555,1,0,0:0:0:0:
64,192,7710,1,0,0:0:0:0:
192,192,7710,1,0,0:0:0:0:
448,192,8174,128,0,8483:0:0:0:0:
320,192,8174,128,0,8483:0:0:0:0:
192,192,10029,5,0,0:0:0:0:
64,192,10029,1,0,0:0:0:0:
192,192,10184,1,0,0:0:0:0:
64,192,10184,1,0,0:0:0:0:
320,192,10648,128,0,10957:0:0:0:0:
448,192,10648,128,0,10957:0:0:0:0:
192,192,12504,5,0,0:0:0:0:
64,192,12504,1,0,0:0:0:0:
64,192,12658,1,0,0:0:0:0:
192,192,12658,1,0,0:0:0:0:
448,192,13122,128,0,13431:0:0:0:0:
320,192,13122,128,0,13431:0:0:0:0:
192,192,14978,5,0,0:0:0:0:
64,192,14978,1,0,0:0:0:0:
192,192,15133,1,0,0:0:0:0:
64,192,15133,1,0,0:0:0:0:
320,192,15596,128,0,15906:0:0:0:0:
448,192,15596,128,0,15906:0:0:0:0:
192,192,17452,5,0,0:0:0:0:
64,192,17452,1,0,0:0:0:0:
64,192,17607,1,0,0:0:0:0:
192,192,17607,1,0,0:0:0:0:
448,192,18071,128,0,18380:0:0:0:0:
320,192,18071,128,0,18380:0:0:0:0:
192,192,19926,5,0,0:0:0:0:
64,192,19926,1,0,0:0:0:0:
192,192,20081,1,0,0:0:0:0:
64,192,20081,1,0,0:0:0:0:
320,192,20545,128,0,20854:0:0:0:0:
448,192,20545,128,0,20854:0:0:0:0:
64,192,20854,1,0,0:0:0:0:
192,192,21009,1,0,0:0:0:0:
320,192,21163,1,0,0:0:0:0:
320,192,21473,1,0,0:0:0:0:
192,192,21627,1,0,0:0:0:0:
64,192,21782,1,0,0:0:0:0:
320,192,21937,1,0,0:0:0:0:
320,192,22246,1,0,0:0:0:0:
192,192,22401,5,0,0:0:0:0:
64,192,22401,1,0,0:0:0:0:
192,192,22555,1,0,0:0:0:0:
64,192,22555,1,0,0:0:0:0:
320,192,23019,128,0,23328:0:0:0:0:
448,192,23019,128,0,23328:0:0:0:0:
64,192,23328,1,0,0:0:0:0:
192,192,23483,1,0,0:0:0:0:
320,192,23638,1,0,0:0:0:0:
448,192,23947,1,0,0:0:0:0:
320,192,24102,1,0,0:0:0:0:
64,192,24256,1,0,0:0:0:0:
192,192,24411,1,0,0:0:0:0:
320,192,24720,1,0,0:0:0:0:
192,192,24875,5,0,0:0:0:0:
64,192,24875,1,0,0:0:0:0:
64,192,25029,1,0,0:0:0:0:
192,192,25029,1,0,0:0:0:0:
448,192,25493,128,0,25803:0:0:0:0:
320,192,25493,128,0,25803:0:0:0:0:
64,192,25803,1,0,0:0:0:0:
192,192,25957,1,0,0:0:0:0:
320,192,26112,1,0,0:0:0:0:
192,192,26421,1,0,0:0:0:0:
448,192,26576,1,0,0:0:0:0:
320,192,26730,1,0,0:0:0:0:
64,192,26885,1,0,0:0:0:0:
320,192,27194,1,0,0:0:0:0:
192,192,27349,5,0,0:0:0:0:
64,192,27349,1,0,0:0:0:0:
192,192,27504,1,0,0:0:0:0:
64,192,27504,1,0,0:0:0:0:
320,192,27968,128,0,28277:0:0:0:0:
448,192,27968,128,0,28277:0:0:0:0:
64,192,28277,1,0,0:0:0:0:
192,192,28431,1,0,0:0:0:0:
320,192,28586,1,0,0:0:0:0:
192,192,28895,1,0,0:0:0:0:
64,192,29050,1,0,0:0:0:0:
320,192,29205,1,0,0:0:0:0:
192,192,29359,1,0,0:0:0:0:
320,192,29669,1,0,0:0:0:0:
192,192,29823,5,0,0:0:0:0:
64,192,29823,1,0,0:0:0:0:
64,192,29978,1,0,0:0:0:0:
192,192,29978,1,0,0:0:0:0:
448,192,30442,128,0,30751:0:0:0:0:
320,192,30442,128,0,30751:0:0:0:0:
64,192,30751,1,0,0:0:0:0:
192,192,30906,1,0,0:0:0:0:
320,192,31060,1,0,0:0:0:0:
192,192,31370,1,0,0:0:0:0:
448,192,31524,1,0,0:0:0:0:
64,192,31679,1,0,0:0:0:0:
320,192,31834,1,0,0:0:0:0:
320,192,32143,1,0,0:0:0:0:
192,192,32297,5,0,0:0:0:0:
64,192,32297,1,0,0:0:0:0:
192,192,32452,1,0,0:0:0:0:
64,192,32452,1,0,0:0:0:0:
320,192,32916,128,0,33225:0:0:0:0:
448,192,32916,128,0,33225:0:0:0:0:
64,192,33225,1,0,0:0:0:0:
192,192,33380,1,0,0:0:0:0:
320,192,33535,1,0,0:0:0:0:
448,192,33844,1,0,0:0:0:0:
64,192,33998,1,0,0:0:0:0:
320,192,34153,1,0,0:0:0:0:
192,192,34308,1,0,0:0:0:0:
320,192,34617,1,0,0:0:0:0:
192,192,34772,5,0,0:0:0:0:
64,192,34772,1,0,0:0:0:0:
64,192,34926,1,0,0:0:0:0:
192,192,34926,1,0,0:0:0:0:
448,192,35390,128,0,35700:0:0:0:0:
320,192,35390,128,0,35700:0:0:0:0:
64,192,35700,1,0,0:0:0:0:
192,192,35854,1,0,0:0:0:0:
320,192,36009,1,0,0:0:0:0:
192,192,36318,1,0,0:0:0:0:
448,192,36473,1,0,0:0:0:0:
64,192,36627,1,0,0:0:0:0:
192,192,36782,1,0,0:0:0:0:
320,192,37091,1,0,0:0:0:0:
192,192,37246,5,0,0:0:0:0:
64,192,37246,1,0,0:0:0:0:
192,192,37401,1,0,0:0:0:0:
64,192,37401,1,0,0:0:0:0:
320,192,37862,128,0,38171:0:0:0:0:
448,192,37862,128,0,38171:0:0:0:0:
64,192,38174,1,0,0:0:0:0:
192,192,38328,1,0,0:0:0:0:
320,192,38483,1,0,0:0:0:0:
192,192,38792,1,0,0:0:0:0:
448,192,38947,1,0,0:0:0:0:
192,192,39102,1,0,0:0:0:0:
320,192,39256,1,0,0:0:0:0:
320,192,39565,1,0,0:0:0:0:
192,192,39720,5,0,0:0:0:0:
64,192,39720,1,0,0:0:0:0:
64,192,39875,1,0,0:0:0:0:
192,192,39875,1,0,0:0:0:0:
448,192,40339,128,0,40648:0:0:0:0:
320,192,40339,128,0,40648:0:0:0:0:
64,192,40648,1,0,0:0:0:0:
192,192,40803,1,0,0:0:0:0:
320,192,40957,1,0,0:0:0:0:
192,192,41267,1,0,0:0:0:0:
64,192,41421,1,0,0:0:0:0:
448,192,41576,1,0,0:0:0:0:
320,192,41730,1,0,0:0:0:0:
320,192,42040,1,0,0:0:0:0:
192,192,42194,5,0,0:0:0:0:
64,192,42194,1,0,0:0:0:0:
192,192,42349,1,0,0:0:0:0:
64,192,42349,1,0,0:0:0:0:
320,192,42813,128,0,43122:0:0:0:0:
448,192,42813,128,0,43122:0:0:0:0:
64,192,43122,1,0,0:0:0:0:
192,192,43277,1,0,0:0:0:0:
320,192,43431,1,0,0:0:0:0:
192,192,43741,1,0,0:0:0:0:
448,192,43895,1,0,0:0:0:0:
64,192,44050,1,0,0:0:0:0:
448,192,44205,1,0,0:0:0:0:
320,192,44514,1,0,0:0:0:0:
192,192,44669,5,0,0:0:0:0:
64,192,44669,1,0,0:0:0:0:
64,192,44823,1,0,0:0:0:0:
192,192,44823,1,0,0:0:0:0:
448,192,45287,128,0,45596:0:0:0:0:
320,192,45287,128,0,45596:0:0:0:0:
64,192,45596,1,0,0:0:0:0:
192,192,45751,1,0,0:0:0:0:
320,192,45906,1,0,0:0:0:0:
192,192,46215,1,0,0:0:0:0:
64,192,46370,1,0,0:0:0:0:
320,192,46524,1,0,0:0:0:0:
192,192,46679,1,0,0:0:0:0:
320,192,46988,1,0,0:0:0:0:
192,192,47143,5,0,0:0:0:0:
64,192,47143,1,0,0:0:0:0:
192,192,47297,1,0,0:0:0:0:
64,192,47297,1,0,0:0:0:0:
320,192,47761,128,0,48071:0:0:0:0:
448,192,47761,128,0,48071:0:0:0:0:
64,192,48071,1,0,0:0:0:0:
192,192,48225,1,0,0:0:0:0:
320,192,48380,1,0,0:0:0:0:
192,192,48689,1,0,0:0:0:0:
448,192,48844,1,0,0:0:0:0:
64,192,48998,1,0,0:0:0:0:
320,192,49153,1,0,0:0:0:0:
320,192,49462,1,0,0:0:0:0:
192,192,49613,5,0,0:0:0:0:
64,192,49613,1,0,0:0:0:0:
64,192,49768,1,0,0:0:0:0:
192,192,49768,1,0,0:0:0:0:
320,192,49923,128,0,50077:0:0:0:0:
448,192,50232,128,0,50541:0:0:0:0:
320,192,50232,128,0,50541:0:0:0:0:
192,192,50541,128,0,50696:0:0:0:0:
64,192,50696,1,0,0:0:0:0:
320,192,50851,1,0,0:0:0:0:
192,192,51160,128,0,51314:0:0:0:0:
448,192,51314,1,0,0:0:0:0:
64,192,51469,1,0,0:0:0:0:
320,192,51624,1,0,0:0:0:0:
320,192,51933,128,0,52088:0:0:0:0:
192,192,52088,5,0,0:0:0:0:
64,192,52088,1,0,0:0:0:0:
192,192,52242,1,0,0:0:0:0:
64,192,52242,1,0,0:0:0:0:
320,192,52397,128,0,52552:0:0:0:0:
320,192,52706,128,0,53015:0:0:0:0:
448,192,52706,128,0,53015:0:0:0:0:
192,192,53015,128,0,53170:0:0:0:0:
64,192,53170,1,0,0:0:0:0:
320,192,53325,1,0,0:0:0:0:
192,192,53634,128,0,53789:0:0:0:0:
448,192,53789,1,0,0:0:0:0:
64,192,53943,1,0,0:0:0:0:
320,192,54098,1,0,0:0:0:0:
320,192,54407,128,0,54562:0:0:0:0:
192,192,54562,5,0,0:0:0:0:
64,192,54562,1,0,0:0:0:0:
64,192,54716,1,0,0:0:0:0:
192,192,54716,1,0,0:0:0:0:
320,192,54871,128,0,55026:0:0:0:0:
448,192,55180,128,0,55490:0:0:0:0:
320,192,55180,128,0,55490:0:0:0:0:
192,192,55490,128,0,55644:0:0:0:0:
64,192,55644,1,0,0:0:0:0:
320,192,55799,1,0,0:0:0:0:
192,192,56108,128,0,56263:0:0:0:0:
448,192,56263,1,0,0:0:0:0:
320,192,56418,1,0,0:0:0:0:
192,192,56572,1,0,0:0:0:0:
320,192,56881,128,0,57036:0:0:0:0:
192,192,57036,5,0,0:0:0:0:
64,192,57036,1,0,0:0:0:0:
192,192,57191,1,0,0:0:0:0:
64,192,57191,1,0,0:0:0:0:
320,192,57345,128,0,57500:0:0:0:0:
320,192,57655,128,0,57964:0:0:0:0:
448,192,57655,128,0,57964:0:0:0:0:
192,192,57964,128,0,58119:0:0:0:0:
64,192,58119,1,0,0:0:0:0:
320,192,58273,1,0,0:0:0:0:
192,192,58582,128,0,58737:0:0:0:0:
64,192,58737,1,0,0:0:0:0:
320,192,58892,1,0,0:0:0:0:
192,192,59046,1,0,0:0:0:0:
320,192,59356,128,0,59510:0:0:0:0:
192,192,59510,5,0,0:0:0:0:
64,192,59510,1,0,0:0:0:0:
64,192,59665,1,0,0:0:0:0:
192,192,59665,1,0,0:0:0:0:
320,192,59820,128,0,59974:0:0:0:0:
448,192,60129,128,0,60438:0:0:0:0:
320,192,60129,128,0,60438:0:0:0:0:
192,192,60438,128,0,60593:0:0:0:0:
64,192,60593,1,0,0:0:0:0:
320,192,60747,1,0,0:0:0:0:
192,192,61057,128,0,61211:0:0:0:0:
448,192,61211,1,0,0:0:0:0:
320,192,61366,1,0,0:0:0:0:
64,192,61521,1,0,0:0:0:0:
320,192,61830,128,0,61985:0:0:0:0:
192,192,61985,5,0,0:0:0:0:
64,192,61985,1,0,0:0:0:0:
192,192,62139,1,0,0:0:0:0:
64,192,62139,1,0,0:0:0:0:
320,192,62294,128,0,62448:0:0:0:0:
320,192,62603,128,0,62912:0:0:0:0:
448,192,62603,128,0,62912:0:0:0:0:
192,192,62912,128,0,63067:0:0:0:0:
64,192,63067,1,0,0:0:0:0:
320,192,63222,1,0,0:0:0:0:
192,192,63531,128,0,63686:0:0:0:0:
64,192,63686,1,0,0:0:0:0:
448,192,63840,1,0,0:0:0:0:
192,192,63995,1,0,0:0:0:0:
320,192,64304,128,0,64459:0:0:0:0:
192,192,64459,5,0,0:0:0:0:
64,192,64459,1,0,0:0:0:0:
64,192,64613,1,0,0:0:0:0:
192,192,64613,1,0,0:0:0:0:
320,192,64768,128,0,64923:0:0:0:0:
448,192,65077,128,0,65387:0:0:0:0:
320,192,65077,128,0,65387:0:0:0:0:
192,192,65387,128,0,65541:0:0:0:0:
64,192,65541,1,0,0:0:0:0:
320,192,65696,1,0,0:0:0:0:
192,192,66005,128,0,66160:0:0:0:0:
448,192,66160,1,0,0:0:0:0:
64,192,66314,1,0,0:0:0:0:
320,192,66469,1,0,0:0:0:0:
320,192,66778,128,0,66933:0:0:0:0:
192,192,66933,5,0,0:0:0:0:
64,192,66933,1,0,0:0:0:0:
192,192,67088,1,0,0:0:0:0:
64,192,67088,1,0,0:0:0:0:
320,192,67242,128,0,67397:0:0:0:0:
320,192,67552,128,0,67861:0:0:0:0:
448,192,67552,128,0,67861:0:0:0:0:
192,192,67861,128,0,68015:0:0:0:0:
64,192,68015,1,0,0:0:0:0:
320,192,68170,1,0,0:0:0:0:
192,192,68479,128,0,68634:0:0:0:0:
64,192,68634,1,0,0:0:0:0:
448,192,68789,1,0,0:0:0:0:
192,192,68943,1,0,0:0:0:0:
320,192,69253,128,0,69407:0:0:0:0:
192,192,69407,5,0,0:0:0:0:
64,192,69407,1,0,0:0:0:0:
64,192,69562,1,0,0:0:0:0:
192,192,69562,1,0,0:0:0:0:
320,192,69716,128,0,69871:0:0:0:0:
448,192,70026,128,0,70335:0:0:0:0:
320,192,70026,128,0,70335:0:0:0:0:
192,192,70335,128,0,70490:0:0:0:0:
64,192,70490,1,0,0:0:0:0:
320,192,70644,1,0,0:0:0:0:
192,192,70954,128,0,71108:0:0:0:0:
448,192,71108,1,0,0:0:0:0:
64,192,71263,1,0,0:0:0:0:
192,192,71418,1,0,0:0:0:0:
320,192,71727,128,0,71881:0:0:0:0:
192,192,71881,5,0,0:0:0:0:
64,192,71881,1,0,0:0:0:0:
192,192,72036,1,0,0:0:0:0:
64,192,72036,1,0,0:0:0:0:
320,192,72191,128,0,72345:0:0:0:0:
320,192,72500,128,0,72809:0:0:0:0:
448,192,72500,128,0,72809:0:0:0:0:
192,192,72809,128,0,72964:0:0:0:0:
64,192,72964,1,0,0:0:0:0:
320,192,73119,1,0,0:0:0:0:
192,192,73428,128,0,73582:0:0:0:0:
320,192,73582,1,0,0:0:0:0:
448,192,73737,1,0,0:0:0:0:
192,192,73892,1,0,0:0:0:0:
320,192,74201,128,0,74356:0:0:0:0:
192,192,74356,5,0,0:0:0:0:
64,192,74356,1,0,0:0:0:0:
64,192,74510,1,0,0:0:0:0:
192,192,74510,1,0,0:0:0:0:
320,192,74665,128,0,74820:0:0:0:0:
448,192,74974,128,0,75284:0:0:0:0:
320,192,74974,128,0,75284:0:0:0:0:
192,192,75284,128,0,75438:0:0:0:0:
64,192,75438,1,0,0:0:0:0:
320,192,75593,1,0,0:0:0:0:
192,192,75902,128,0,76057:0:0:0:0:
448,192,76057,1,0,0:0:0:0:
320,192,76211,1,0,0:0:0:0:
192,192,76366,1,0,0:0:0:0:
320,192,76675,128,0,76830:0:0:0:0:
192,192,76830,5,0,0:0:0:0:
64,192,76830,1,0,0:0:0:0:
192,192,76985,1,0,0:0:0:0:
64,192,76985,1,0,0:0:0:0:
320,192,77139,128,0,77294:0:0:0:0:
320,192,77448,128,0,77758:0:0:0:0:
448,192,77448,128,0,77758:0:0:0:0:
192,192,77758,128,0,77912:0:0:0:0:
64,192,77912,1,0,0:0:0:0:
320,192,78067,1,0,0:0:0:0:
192,192,78376,128,0,78531:0:0:0:0:
448,192,78531,1,0,0:0:0:0:
64,192,78686,1,0,0:0:0:0:
192,192,78840,1,0,0:0:0:0:
320,192,79149,128,0,79304:0:0:0:0:
192,192,79304,5,0,0:0:0:0:
64,192,79304,1,0,0:0:0:0:
64,192,79459,1,0,0:0:0:0:
192,192,79459,1,0,0:0:0:0:
320,192,79613,128,0,79768:0:0:0:0:
448,192,79923,128,0,80232:0:0:0:0:
320,192,79923,128,0,80232:0:0:0:0:
192,192,80232,128,0,80387:0:0:0:0:
64,192,80387,1,0,0:0:0:0:
320,192,80541,1,0,0:0:0:0:
192,192,80851,128,0,81005:0:0:0:0:
448,192,81005,1,0,0:0:0:0:
192,192,81160,1,0,0:0:0:0:
320,192,81314,1,0,0:0:0:0:
320,192,81624,128,0,81778:0:0:0:0:
192,192,81778,5,0,0:0:0:0:
64,192,81778,1,0,0:0:0:0:
192,192,81933,1,0,0:0:0:0:
64,192,81933,1,0,0:0:0:0:
320,192,82088,128,0,82242:0:0:0:0:
320,192,82397,128,0,82706:0:0:0:0:
448,192,82397,128,0,82706:0:0:0:0:
192,192,82706,128,0,82861:0:0:0:0:
64,192,82861,1,0,0:0:0:0:
320,192,83015,1,0,0:0:0:0:
192,192,83325,128,0,83479:0:0:0:0:
448,192,83479,1,0,0:0:0:0:
192,192,83634,1,0,0:0:0:0:
64,192,83789,1,0,0:0:0:0:
320,192,84098,128,0,84253:0:0:0:0:
192,192,84253,5,0,0:0:0:0:
64,192,84253,1,0,0:0:0:0:
64,192,84407,1,0,0:0:0:0:
192,192,84407,1,0,0:0:0:0:
320,192,84562,128,0,84716:0:0:0:0:
448,192,84871,128,0,85180:0:0:0:0:
320,192,84871,128,0,85180:0:0:0:0:
192,192,85180,128,0,85335:0:0:0:0:
64,192,85335,1,0,0:0:0:0:
320,192,85490,1,0,0:0:0:0:
192,192,85799,128,0,85954:0:0:0:0:
320,192,85954,1,0,0:0:0:0:
448,192,86108,1,0,0:0:0:0:
192,192,86263,1,0,0:0:0:0:
320,192,86572,128,0,86727:0:0:0:0:
192,192,86727,5,0,0:0:0:0:
64,192,86727,1,0,0:0:0:0:
192,192,86881,1,0,0:0:0:0:
64,192,86881,1,0,0:0:0:0:
320,192,87036,128,0,87191:0:0:0:0:
320,192,87345,128,0,87655:0:0:0:0:
448,192,87345,128,0,87655:0:0:0:0:
192,192,87655,128,0,87809:0:0:0:0:
64,192,87809,1,0,0:0:0:0:
320,192,87964,1,0,0:0:0:0:
192,192,88273,128,0,88428:0:0:0:0:
320,192,88428,1,0,0:0:0:0:
192,192,88582,1,0,0:0:0:0:
448,192,88737,1,0,0:0:0:0:
320,192,89046,128,0,89201:0:0:0:0:
192,192,89201,5,0,0:0:0:0:
64,192,89201,1,0,0:0:0:0:
192,192,89356,1,0,0:0:0:0:
64,192,89356,1,0,0:0:0:0:
320,192,89510,128,0,89665:0:0:0:0:
64,192,89665,128,0,89820:0:0:0:0:
320,192,89820,128,0,90129:0:0:0:0:
448,192,89820,128,0,90129:0:0:0:0:
192,192,90129,128,0,90284:0:0:0:0:
64,192,90129,128,0,90284:0:0:0:0:
448,192,90284,1,0,0:0:0:0:
320,192,90438,1,0,0:0:0:0:
192,192,90747,128,0,90902:0:0:0:0:
320,192,90902,1,0,0:0:0:0:
64,192,91057,128,0,91211:0:0:0:0:
320,192,91211,1,0,0:0:0:0:
64,192,91366,128,0,91521:0:0:0:0:
320,192,91521,128,0,91675:0:0:0:0:
192,192,91675,5,0,0:0:0:0:
64,192,91675,1,0,0:0:0:0:
64,192,91830,1,0,0:0:0:0:
192,192,91830,1,0,0:0:0:0:
320,192,91985,128,0,92139:0:0:0:0:
64,192,92139,128,0,92294:0:0:0:0:
448,192,92294,128,0,92603:0:0:0:0:
320,192,92294,128,0,92603:0:0:0:0:
192,192,92603,128,0,92758:0:0:0:0:
64,192,92603,128,0,92758:0:0:0:0:
448,192,92758,1,0,0:0:0:0:
320,192,92912,1,0,0:0:0:0:
192,192,93222,128,0,93376:0:0:0:0:
320,192,93376,1,0,0:0:0:0:
64,192,93531,128,0,93686:0:0:0:0:
320,192,93686,1,0,0:0:0:0:
64,192,93840,128,0,93995:0:0:0:0:
320,192,93995,128,0,94149:0:0:0:0:
192,192,94149,5,0,0:0:0:0:
64,192,94149,1,0,0:0:0:0:
192,192,94304,1,0,0:0:0:0:
64,192,94304,1,0,0:0:0:0:
320,192,94459,128,0,94613:0:0:0:0:
64,192,94613,128,0,94768:0:0:0:0:
320,192,94768,128,0,95077:0:0:0:0:
448,192,94768,128,0,95077:0:0:0:0:
192,192,95077,128,0,95232:0:0:0:0:
64,192,95077,128,0,95232:0:0:0:0:
448,192,95232,1,0,0:0:0:0:
320,192,95387,1,0,0:0:0:0:
192,192,95696,128,0,95851:0:0:0:0:
320,192,95851,1,0,0:0:0:0:
64,192,96005,128,0,96160:0:0:0:0:
320,192,96160,1,0,0:0:0:0:
64,192,96314,128,0,96469:0:0:0:0:
320,192,96469,128,0,96624:0:0:0:0:
192,192,96624,5,0,0:0:0:0:
64,192,96624,1,0,0:0:0:0:
64,192,96778,1,0,0:0:0:0:
192,192,96778,1,0,0:0:0:0:
320,192,96933,128,0,97088:0:0:0:0:
64,192,97088,128,0,97242:0:0:0:0:
448,192,97242,128,0,97552:0:0:0:0:
320,192,97242,128,0,97552:0:0:0:0:
192,192,97552,128,0,97706:0:0:0:0:
64,192,97552,128,0,97706:0:0:0:0:
448,192,97706,1,0,0:0:0:0:
320,192,97861,1,0,0:0:0:0:
192,192,98170,128,0,98325:0:0:0:0:
320,192,98325,1,0,0:0:0:0:
64,192,98479,128,0,98634:0:0:0:0:
320,192,98634,1,0,0:0:0:0:
64,192,98789,128,0,98943:0:0:0:0:
320,192,98943,128,0,99098:0:0:0:0:
192,192,99098,5,0,0:0:0:0:
64,192,99098,1,0,0:0:0:0:
192,192,99253,1,0,0:0:0:0:
64,192,99253,1,0,0:0:0:0:
320,192,99407,128,0,99562:0:0:0:0:
64,192,99562,128,0,99716:0:0:0:0:
320,192,99716,128,0,100026:0:0:0:0:
448,192,99716,128,0,100026:0:0:0:0:
192,192,100026,128,0,100180:0:0:0:0:
64,192,100026,128,0,100180:0:0:0:0:
448,192,100180,1,0,0:0:0:0:
320,192,100335,1,0,0:0:0:0:
192,192,100644,128,0,100799:0:0:0:0:
320,192,100799,1,0,0:0:0:0:
64,192,100954,128,0,101108:0:0:0:0:
320,192,101108,1,0,0:0:0:0:
64,192,101263,128,0,101418:0:0:0:0:
320,192,101418,128,0,101572:0:0:0:0:
192,192,101572,5,0,0:0:0:0:
64,192,101572,1,0,0:0:0:0:
64,192,101727,1,0,0:0:0:0:
192,192,101727,1,0,0:0:0:0:
320,192,101881,128,0,102036:0:0:0:0:
64,192,102036,128,0,102191:0:0:0:0:
448,192,102191,128,0,102500:0:0:0:0:
320,192,102191,128,0,102500:0:0:0:0:
192,192,102500,128,0,102655:0:0:0:0:
64,192,102500,128,0,102655:0:0:0:0:
448,192,102655,1,0,0:0:0:0:
320,192,102809,1,0,0:0:0:0:
192,192,103119,128,0,103273:0:0:0:0:
320,192,103273,1,0,0:0:0:0:
64,192,103428,128,0,103582:0:0:0:0:
320,192,103582,1,0,0:0:0:0:
64,192,103737,128,0,103892:0:0:0:0:
320,192,103892,128,0,104046:0:0:0:0:
192,192,104046,5,0,0:0:0:0:
64,192,104046,1,0,0:0:0:0:
192,192,104201,1,0,0:0:0:0:
64,192,104201,1,0,0:0:0:0:
320,192,104356,128,0,104510:0:0:0:0:
64,192,104510,128,0,104665:0:0:0:0:
320,192,104665,128,0,104974:0:0:0:0:
448,192,104665,128,0,104974:0:0:0:0:
192,192,104974,128,0,105129:0:0:0:0:
64,192,104974,128,0,105129:0:0:0:0:
448,192,105129,1,0,0:0:0:0:
320,192,105284,1,0,0:0:0:0:
192,192,105593,128,0,105747:0:0:0:0:
320,192,105747,1,0,0:0:0:0:
64,192,105902,128,0,106057:0:0:0:0:
320,192,106057,1,0,0:0:0:0:
64,192,106211,128,0,106366:0:0:0:0:
320,192,106366,128,0,106521:0:0:0:0:
192,192,106521,5,0,0:0:0:0:
64,192,106521,1,0,0:0:0:0:
64,192,106675,1,0,0:0:0:0:
192,192,106675,1,0,0:0:0:0:
320,192,106830,128,0,106985:0:0:0:0:
64,192,106985,128,0,107139:0:0:0:0:
448,192,107139,128,0,107448:0:0:0:0:
320,192,107139,128,0,107448:0:0:0:0:
192,192,107448,128,0,107603:0:0:0:0:
64,192,107448,128,0,107603:0:0:0:0:
448,192,107603,1,0,0:0:0:0:
320,192,107758,1,0,0:0:0:0:
192,192,108067,128,0,108222:0:0:0:0:
320,192,108222,1,0,0:0:0:0:
64,192,108376,128,0,108531:0:0:0:0:
320,192,108531,1,0,0:0:0:0:
64,192,108686,128,0,108840:0:0:0:0:
320,192,108840,128,0,108995:0:0:0:0:
192,192,108995,5,0,0:0:0:0:
64,192,108995,1,0,0:0:0:0:
192,192,109149,1,0,0:0:0:0:
64,192,109149,1,0,0:0:0:0:
320,192,109304,128,0,109459:0:0:0:0:
64,192,109459,128,0,109613:0:0:0:0:
320,192,109613,128,0,109923:0:0:0:0:
448,192,109613,128,0,109923:0:0:0:0:
192,192,109923,128,0,110077:0:0:0:0:
64,192,109923,128,0,110077:0:0:0:0:
448,192,110077,1,0,0:0:0:0:
320,192,110232,1,0,0:0:0:0:
192,192,110541,128,0,110696:0:0:0:0:
320,192,110696,1,0,0:0:0:0:
64,192,110851,128,0,111005:0:0:0:0:
320,192,111005,1,0,0:0:0:0:
64,192,111160,128,0,111314:0:0:0:0:
320,192,111314,128,0,111469:0:0:0:0:
192,192,111469,5,0,0:0:0:0:
64,192,111469,1,0,0:0:0:0:
64,192,111624,1,0,0:0:0:0:
192,192,111624,1,0,0:0:0:0:
320,192,111778,128,0,111933:0:0:0:0:
64,192,111933,128,0,112088:0:0:0:0:
448,192,112088,128,0,112397:0:0:0:0:
320,192,112088,128,0,112397:0:0:0:0:
192,192,112397,128,0,112552:0:0:0:0:
64,192,112397,128,0,112552:0:0:0:0:
448,192,112552,1,0,0:0:0:0:
320,192,112706,1,0,0:0:0:0:
192,192,113015,128,0,113170:0:0:0:0:
320,192,113170,1,0,0:0:0:0:
64,192,113325,128,0,113479:0:0:0:0:
320,192,113479,1,0,0:0:0:0:
64,192,113634,128,0,113789:0:0:0:0:
320,192,113789,128,0,113943:0:0:0:0:
192,192,113943,5,0,0:0:0:0:
64,192,113943,1,0,0:0:0:0:
192,192,114098,1,0,0:0:0:0:
64,192,114098,1,0,0:0:0:0:
320,192,114253,128,0,114407:0:0:0:0:
64,192,114407,128,0,114562:0:0:0:0:
320,192,114562,128,0,114871:0:0:0:0:
448,192,114562,128,0,114871:0:0:0:0:
192,192,114871,128,0,115026:0:0:0:0:
64,192,114871,128,0,115026:0:0:0:0:
448,192,115026,1,0,0:0:0:0:
320,192,115180,1,0,0:0:0:0:
192,192,115490,128,0,115644:0:0:0:0:
320,192,115644,1,0,0:0:0:0:
64,192,115799,128,0,115954:0:0:0:0:
320,192,115954,1,0,0:0:0:0:
64,192,116108,128,0,116263:0:0:0:0:
320,192,116263,128,0,116418:0:0:0:0:
192,192,116418,5,0,0:0:0:0:
64,192,116418,1,0,0:0:0:0:
64,192,116572,1,0,0:0:0:0:
192,192,116572,1,0,0:0:0:0:
320,192,116727,128,0,116881:0:0:0:0:
64,192,116881,128,0,117036:0:0:0:0:
448,192,117036,128,0,117345:0:0:0:0:
320,192,117036,128,0,117345:0:0:0:0:
192,192,117345,128,0,117500:0:0:0:0:
64,192,117345,128,0,117500:0:0:0:0:
448,192,117500,1,0,0:0:0:0:
320,192,117655,1,0,0:0:0:0:
192,192,117964,128,0,118119:0:0:0:0:
320,192,118119,1,0,0:0:0:0:
64,192,118273,128,0,118428:0:0:0:0:
320,192,118428,1,0,0:0:0:0:
64,192,118582,128,0,118737:0:0:0:0:
320,192,118737,128,0,118892:0:0:0:0:
192,192,118892,5,0,0:0:0:0:
64,192,118892,1,0,0:0:0:0:
192,192,119046,1,0,0:0:0:0:
64,192,119046,1,0,0:0:0:0:
320,192,119201,128,0,119356:0:0:0:0:
64,192,119356,128,0,119510:0:0:0:0:
192,192,119820,128,0,119974:0:0:0:0:
64,192,119820,128,0,119974:0:0:0:0:
192,192,120438,128,0,120593:0:0:0:0:
64,192,120747,128,0,120902:0:0:0:0:
64,192,121057,128,0,121211:0:0:0:0:
320,192,121211,128,0,121366:0:0:0:0:
320,192,121675,128,0,121830:0:0:0:0:
64,192,121830,128,0,121985:0:0:0:0:
192,192,122294,128,0,122448:0:0:0:0:
64,192,122294,128,0,122448:0:0:0:0:
192,192,122912,128,0,123067:0:0:0:0:
64,192,123222,128,0,123376:0:0:0:0:
64,192,123531,128,0,123686:0:0:0:0:
320,192,123686,128,0,123840:0:0:0:0:
320,192,124149,128,0,124304:0:0:0:0:
64,192,124304,128,0,124459:0:0:0:0:
192,192,124768,128,0,124923:0:0:0:0:
64,192,124768,128,0,124923:0:0:0:0:
192,192,125387,128,0,125541:0:0:0:0:
64,192,125696,128,0,125851:0:0:0:0:
64,192,126005,128,0,126160:0:0:0:0:
320,192,126160,128,0,126314:0:0:0:0:
320,192,126624,128,0,126778:0:0:0:0:
64,192,126778,128,0,126933:0:0:0:0:
192,192,127242,128,0,127397:0:0:0:0:
64,192,127242,128,0,127397:0:0:0:0:
192,192,127861,128,0,128015:0:0:0:0:
64,192,128170,128,0,128325:0:0:0:0:
64,192,128479,128,0,128634:0:0:0:0:
320,192,128634,128,0,128789:0:0:0:0:
