osu file format v14

[General]
AudioFilename: audio.mp3
AudioLeadIn: 0
PreviewTime: 58029
Countdown: 0
SampleSet: Soft
StackLeniency: 0.3
Mode: 0
LetterboxInBreaks: 0
WidescreenStoryboard: 1

[Editor]
DistanceSpacing: 2
BeatDivisor: 4
GridSize: 32
TimelineZoom: 3.499999

[Metadata]
Title:saika in Another Style
TitleUnicode:彩華 in Another Style
Artist:himmeltengoku
ArtistUnicode:himmeltengoku
Creator:Sulfur
Version:Xilver's Extra
Source:
Tags:rayark rhythm game cytus rabpit su1fu7 finshie xilver
BeatmapID:1411119
BeatmapSetID:657543

[Difficulty]
HPDrainRate:6
CircleSize:4.5
OverallDifficulty:8
ApproachRate:9
SliderMultiplier:2.2
SliderTickRate:1

[Events]
//Background and Video events
0,0,"1482992298629.png",0,0
//Break Periods
2,87341,93652
//Storyboard Layer 0 (Background)
//Storyboard Layer 1 (Fail)
//Storyboard Layer 2 (Pass)
//Storyboard Layer 3 (Foreground)
//Storyboard Sound Samples

[TimingPoints]
30,444.444444444444,4,2,1,50,1,0
30,-200,4,2,1,50,0,0
7141,-200,4,3,2,50,0,0
8474,-200,4,2,1,50,0,0
12474,-200,4,2,2,60,0,0
15363,-83.3333333333333,4,2,2,60,0,0
16029,-83.3333333333333,4,2,2,70,0,0
28252,-66.6666666666667,4,2,2,70,0,0
29585,-200,4,2,2,70,0,0
30252,-166.666666666667,4,2,2,50,0,0
32029,-200,4,2,2,50,0,0
55141,-200,4,2,2,60,0,0
56918,-125,4,2,2,60,0,0
58029,-83.3333333333333,4,2,2,60,0,0
72918,-66.6666666666667,4,2,2,70,0,0
79585,-100,4,2,2,70,0,0
80029,-66.6666666666667,4,2,2,70,0,0
94252,-200,4,3,2,60,0,0
100474,-100,4,3,2,60,0,0
108474,-125,4,3,2,60,0,0
111363,-100,4,3,2,60,0,0
114252,-83.3333333333333,4,3,2,60,0,0
115585,-83.3333333333333,4,2,2,70,0,0
126918,-76.9230769230769,4,2,2,70,0,0
128029,-66.6666666666667,4,2,2,70,0,0
129807,-45.4545454545455,4,2,2,70,0,0
130696,-50,4,2,2,70,0,0
136474,-83.3333333333333,4,2,2,70,0,0
138474,-66.6666666666667,4,2,2,70,0,0
142252,-50,4,2,2,70,0,0

[Colours]
Combo1 : 175,175,97
Combo2 : 255,128,192
Combo3 : 140,140,198
Combo4 : 62,255,158

[HitObjects]
175,266,1141,6,0,P|189:318|202:322,2,55,0|0|0,0:0|0:0|0:0,0:0:0:0:
108,353,1807,5,4,0:2:0:0:
14,375,2029,1,0,0:0:0:0:
65,235,2252,1,2,0:2:0:0:
38,281,2474,2,0,P|50:188|37:170,1,110,0|0,0:2|0:2,0:0:0:0:
123,270,3141,1,2,0:2:0:0:
149,314,3363,6,0,P|147:266|215:246,1,110,0|0,0:0|0:0,0:0:0:0:
264,384,4029,1,2,0:2:0:0:
316,384,4252,2,0,L|195:336,1,110,0|0,0:2|0:2,0:0:0:0:
389,315,4918,1,2,0:2:0:0:
392,325,5141,1,0,0:2:0:0:
299,255,5363,6,0,L|343:129,1,110,0|2,0:2|0:2,0:0:0:0:
457,250,6029,2,0,L|413:124,1,110,0|0,0:2|0:2,0:0:0:0:
287,243,6696,6,0,P|291:205|322:183,1,55,2|0,0:2|0:0,0:0:0:0:
465,237,7141,2,0,P|462:218|447:207,1,27.5,0|0,3:2|0:0,0:0:0:0:
314,125,7363,5,0,3:2:0:0:
304,109,7474,1,0,3:2:0:0:
294,93,7585,2,0,P|296:74|311:63,1,27.5,2|0,3:3|0:0,0:0:0:0:
464,74,7807,2,0,P|461:55|446:44,1,27.5,0|0,3:0|0:0,0:0:0:0:
379,80,8029,1,0,3:2:0:0:
342,11,8252,6,0,L|396:6,2,55,0|2|0,0:0|0:2|0:2,0:0:0:0:
278,235,8918,5,0,0:2:0:0:
399,191,9141,1,0,0:0:0:0:
290,99,9363,1,2,0:2:0:0:
325,145,9585,2,0,P|312:84|369:70,1,110,0|0,0:2|0:2,0:0:0:0:
221,197,10252,1,2,0:2:0:0:
271,148,10474,6,0,L|162:142,1,110,0|0,0:0|0:0,0:0:0:0:
71,196,11141,1,2,0:2:0:0:
12,234,11363,2,0,L|121:228,1,110,0|0,0:2|0:2,0:0:0:0:
123,318,12029,1,2,0:2:0:0:
126,328,12252,1,0,0:2:0:0:
315,338,12474,6,0,P|262:323|210:337,1,110,2|2,1:2|0:3,0:0:0:0:
263,234,13141,1,0,3:3:0:0:
348,332,13363,2,0,B|336:305|336:305|342:280,1,55,0|0,3:3|3:3,0:0:0:0:
178,320,13807,2,0,B|190:293|190:293|183:268,1,55,2|0,3:3|3:3,0:0:0:0:
380,243,14252,6,0,P|380:229|378:215,1,27.5,10|0,3:2|0:0,0:0:0:0:
141,249,14474,2,0,P|139:235|141:221,1,27.5,0|0,3:2|0:0,0:0:0:0:
316,134,14696,2,0,L|309:107,1,27.5,10|0,3:2|0:0,0:0:0:0:
202,133,14918,2,0,L|206:105,1,27.5,0|0,3:2|0:0,0:0:0:0:
256,8,15141,1,10,3:2:0:0:
174,20,15363,6,0,L|310:46,2,131.99999597168,0|10|2,0:2|0:2|0:3,0:0:0:0:
451,77,16029,6,0,P|392:70|334:20,1,131.99999597168,6|0,1:2|0:2,0:0:0:0:
505,202,16474,1,8,0:2:0:0:
326,244,16696,2,0,P|354:261|384:247,1,65.9999979858399,0|0,0:2|0:0,0:0:0:0:
406,354,16918,2,0,P|364:320|285:296,1,131.99999597168,2|0,0:2|0:2,0:0:0:0:
123,274,17363,1,8,0:2:0:0:
51,79,17585,2,0,L|72:143,1,65.9999979858399,0|0,0:2|0:0,0:0:0:0:
186,149,17807,6,0,P|141:119|101:53,1,131.99999597168,2|0,0:2|0:2,0:0:0:0:
150,341,18252,1,8,0:2:0:0:
270,288,18474,2,0,P|274:261|306:235,1,65.9999979858399,0|0,0:2|0:0,0:0:0:0:
390,313,18696,2,0,L|257:324,1,131.99999597168,2|0,0:0|0:2,0:0:0:0:
481,291,19141,1,8,0:2:0:0:
489,132,19363,6,0,P|485:99|510:78,2,65.9999979858399,0|0|2,0:2|0:0|0:2,0:0:0:0:
480,11,19807,1,0,0:0:0:0:
391,194,20029,2,0,P|419:215|452:220,1,65.9999979858399,8|0,0:2|0:0,0:0:0:0:
364,82,20252,1,0,3:2:0:0:
310,85,20363,1,0,3:2:0:0:
271,105,20474,6,0,P|266:40|191:18,1,131.99999597168,2|0,3:2|0:0,0:0:0:0:
105,154,20918,2,0,P|132:206|186:180,1,131.99999597168,8|0,3:2|0:0,0:0:0:0:
86,34,21363,6,0,P|55:34|20:56,1,65.9999979858399,2|0,3:2|0:0,0:0:0:0:
10,263,21585,2,0,L|72:242,1,65.9999979858399,0|0,3:2|0:0,0:0:0:0:
139,115,21807,2,0,L|75:134,1,65.9999979858399,8|0,3:2|0:0,0:0:0:0:
245,234,22029,2,0,P|278:214|287:178,1,65.9999979858399,0|0,3:2|3:2,0:0:0:0:
273,123,22252,1,2,3:2:0:0:
406,259,22474,6,0,P|351:295|291:269,2,131.99999597168,0|8|2,0:2|0:2|0:2,0:0:0:0:
130,347,23141,6,0,P|177:300|245:286,1,131.99999597168,2|0,1:2|0:2,0:0:0:0:
289,179,23585,1,8,0:2:0:0:
453,197,23807,2,0,P|425:191|396:166,1,65.9999979858399,0|0,0:2|0:2,0:0:0:0:
347,51,24029,2,0,P|409:78|430:153,1,131.99999597168,2|0,0:2|0:2,0:0:0:0:
358,271,24363,1,0,0:0:0:0:
334,298,24474,2,0,L|261:327,1,65.9999979858399,8|0,0:2|0:0,0:0:0:0:
128,195,24696,2,0,L|191:169,1,65.9999979858399,0|0,0:2|0:2,0:0:0:0:
177,292,24918,6,0,P|157:349|96:342,1,131.99999597168,2|0,0:2|0:2,0:0:0:0:
41,170,25363,1,8,0:2:0:0:
233,9,25585,2,0,P|259:24|277:61,1,65.9999979858399,0|0,0:2|0:0,0:0:0:0:
253,212,25807,2,0,P|225:152|231:75,1,131.99999597168,2|0,0:2|0:2,0:0:0:0:
365,71,26252,1,8,0:2:0:0:
376,294,26474,6,0,P|351:282|341:245,2,65.9999979858399,0|0|2,0:2|0:2|0:2,0:0:0:0:
233,26,26918,5,2,0:2:0:0:
209,40,27029,1,0,0:2:0:0:
195,64,27141,1,8,0:2:0:0:
212,248,27363,5,0,3:2:0:0:
245,229,27475,1,0,3:2:0:0:
265,197,27586,1,2,3:2:0:0:
52,309,27807,5,2,0:2:0:0:
40,263,27918,1,0,0:2:0:0:
52,217,28030,1,8,0:2:0:0:
300,122,28252,6,0,P|333:143|368:123,1,82.5000031471254,0|0,3:2|3:2,0:0:0:0:
451,10,28474,1,6,0:2:0:0:
512,249,28696,6,0,P|471:246|436:227,1,82.5000031471254,2|0,0:2|0:0,0:0:0:0:
321,169,28918,1,2,3:2:0:0:
275,345,29141,6,0,L|356:327,1,82.5000031471254,2|0,0:2|0:0,0:0:0:0:
461,293,29363,1,2,3:2:0:0:
297,111,29585,6,0,L|287:85,1,27.5,0|0,0:2|0:0,0:0:0:0:
457,117,29807,2,0,L|441:139,1,27.5,8|0,3:2|0:0,0:0:0:0:
435,36,30029,1,2,0:2:0:0:
254,314,30252,6,0,B|241:279|266:235|303:238|303:238|304:254|289:263,2,131.99999597168,6|8|2,3:2|3:3|3:2,0:0:0:0:
359,341,31585,1,8,3:3:0:0:
475,292,31807,1,0,3:2:0:0:
274,315,32029,6,0,L|207:324,1,55,2|0,3:2|0:0,0:0:0:0:
137,244,32474,2,0,L|191:236,1,55,8|0,3:3|0:0,0:0:0:0:
493,180,32918,6,0,P|460:178|440:193,1,55,2|0,3:2|0:0,0:0:0:0:
368,267,33363,2,0,L|360:213,1,55,8|0,3:3|0:0,0:0:0:0:
485,48,33807,6,0,B|449:64|450:101|449:116|449:116|449:107|439:86,2,110,2|8|2,3:2|3:3|3:2,0:0:0:0:
371,54,35141,1,8,3:3:0:0:
279,19,35585,5,2,3:2:0:0:
163,8,35807,1,0,3:2:0:0:
96,103,36029,1,8,3:3:0:0:
79,271,36252,1,0,3:2:0:0:
261,186,36474,1,2,3:2:0:0:
123,12,36918,5,8,3:3:0:0:
40,76,37141,1,8,3:3:0:0:
110,142,37363,6,0,B|119:124|205:145|217:77,2,110,2|8|2,3:2|3:3|3:2,0:0:0:0:
282,115,38696,1,8,3:3:0:0:
116,288,39141,6,0,P|123:314|111:338,1,55,2|0,3:2|0:2,0:0:0:0:
15,265,39585,2,0,L|69:276,1,55,8|0,3:3|0:0,0:0:0:0:
230,378,40029,1,2,3:2:0:0:
147,350,40252,1,0,3:2:0:0:
193,222,40474,1,8,3:3:0:0:
329,225,40696,1,0,3:2:0:0:
353,309,40918,6,0,L|381:194,1,110,2|8,3:2|0:3,0:0:0:0:
190,110,41585,5,0,3:2:0:0:
199,150,41696,1,0,3:2:0:0:
208,190,41807,1,2,3:2:0:0:
291,162,42029,1,0,3:2:0:0:
245,34,42251,1,8,3:3:0:0:
109,37,42473,1,0,3:2:0:0:
85,121,42696,6,0,L|57:6,1,110,2|8,3:2|3:3,0:0:0:0:
19,170,43363,5,8,3:3:0:0:
119,321,43585,2,0,P|101:300|101:273,1,55,2|0,3:2|0:0,0:0:0:0:
190,295,44029,2,0,P|191:268|174:247,1,55,8|0,3:3|3:2,0:0:0:0:
110,357,44474,6,0,L|4:384,1,110,2|8,3:2|3:3,0:0:0:0:
213,332,45141,2,0,L|321:321,1,110,0|0,3:2|3:2,0:0:0:0:
355,285,45807,5,8,3:3:0:0:
418,340,46029,1,0,3:2:0:0:
292,230,46252,1,2,3:2:0:0:
434,133,46474,1,0,3:2:0:0:
429,217,46696,1,8,3:3:0:0:
440,50,46918,1,0,3:2:0:0:
72,50,47363,5,0,3:2:0:0:
210,41,47585,1,8,3:3:0:0:
319,92,47807,1,0,3:2:0:0:
390,244,48029,1,2,3:2:0:0:
330,329,48252,1,0,3:2:0:0:
360,160,48474,1,8,3:3:0:0:
512,179,48696,1,0,3:2:0:0:
0,179,49141,5,0,3:2:0:0:
70,325,49363,1,8,3:3:0:0:
182,329,49585,1,0,3:2:0:0:
213,223,49807,6,0,L|205:110,1,110,2|8,3:2|3:3,0:0:0:0:
336,240,50474,5,0,3:2:0:0:
345,200,50585,1,0,3:2:0:0:
354,160,50696,1,2,3:2:0:0:
206,288,50918,1,0,3:2:0:0:
305,348,51141,1,8,3:3:0:0:
409,360,51363,1,0,3:2:0:0:
474,332,51585,6,0,P|488:283|441:267,1,110,2|8,3:2|0:3,0:0:0:0:
329,105,52252,5,0,3:2:0:0:
320,65,52363,1,0,3:2:0:0:
311,25,52474,1,2,3:2:0:0:
455,152,52696,1,0,3:2:0:0:
356,212,52919,1,8,3:3:0:0:
252,224,53141,1,8,3:3:0:0:
187,196,53363,6,0,P|173:147|220:131,1,110,2|8,3:2|0:3,0:0:0:0:
143,272,54029,5,0,3:2:0:0:
152,312,54140,1,0,3:2:0:0:
161,352,54251,1,0,3:2:0:0:
15,130,54474,1,0,3:0:0:0:
66,254,54696,1,8,3:3:0:0:
172,82,54918,1,2,3:2:0:0:
190,224,55141,6,0,P|174:202|177:175,1,55,2|0,3:2|0:2,0:0:0:0:
328,208,55585,2,0,P|343:186|340:159,1,55,8|0,3:3|0:2,0:0:0:0:
188,316,56029,2,0,L|177:255,1,55,2|0,3:2|0:2,0:0:0:0:
334,313,56474,2,0,L|345:252,1,55,8|0,3:3|3:2,0:0:0:0:
160,374,56918,6,0,B|172:357|172:357|169:334,1,44,2|0,3:2|0:0,0:0:0:0:
375,372,57141,2,0,B|362:355|362:355|365:332,1,44,0|0,3:2|3:0,0:0:0:0:
225,206,57363,2,0,P|211:189|207:167,1,44,8|0,3:3|3:0,0:0:0:0:
298,170,57585,2,0,P|295:191|281:208,1,44,2|0,3:2|3:0,0:0:0:0:
234,20,57807,1,8,3:3:0:0:
145,65,58029,6,0,L|275:46,1,131.99999597168,0|8,3:2|3:3,0:0:0:0:
55,96,58474,2,0,L|120:104,1,65.9999979858399,2|0,3:2|3:2,0:0:0:0:
81,213,58696,6,0,B|70:266|17:278|17:278|28:242,2,131.99999597168,6|0|8,1:2|0:2|0:2,0:0:0:0:
246,309,59363,2,0,L|223:371,1,65.9999979858399,0|0,0:2|0:0,0:0:0:0:
404,334,59585,2,0,P|343:352|295:311,1,131.99999597168,2|0,0:2|0:2,0:0:0:0:
236,212,60029,1,8,0:2:0:0:
72,183,60252,6,0,L|137:178,1,65.9999979858399,0|0,0:2|0:0,0:0:0:0:
168,272,60474,2,0,L|26:261,1,131.99999597168,2|0,0:2|0:2,0:0:0:0:
449,350,60918,1,8,0:2:0:0:
314,269,61141,2,0,P|289:248|296:217,1,65.9999979858399,0|0,0:2|0:0,0:0:0:0:
425,232,61363,2,0,P|404:291|342:307,1,131.99999597168,2|0,0:2|0:2,0:0:0:0:
430,145,61807,1,8,0:2:0:0:
404,334,62029,2,0,P|384:314|396:268,2,65.9999979858399,0|0|2,0:2|0:0|0:2,0:0:0:0:
469,58,62474,6,0,B|469:36|449:30|449:30|432:64|457:102|480:107,1,131.99999597168,0|8,0:2|0:2,0:0:0:0:
469,58,62918,2,0,L|342:96,1,131.99999597168,0|2,0:2|0:2,0:0:0:0:
169,191,63363,1,0,0:0:0:0:
246,178,63585,2,0,L|119:140,1,131.99999597168,8|0,0:2|0:2,0:0:0:0:
10,211,64029,6,0,L|56:257,1,65.9999979858399,2|0,0:2|0:0,0:0:0:0:
182,258,64252,2,0,L|136:210,1,65.9999979858399,0|0,0:2|0:0,0:0:0:0:
64,298,64474,2,0,L|128:315,1,65.9999979858399,8|0,0:2|0:0,0:0:0:0:
237,253,64697,2,0,L|174:235,1,65.9999979858399,0|0,0:2|0:0,0:0:0:0:
368,305,64918,2,0,P|427:298|427:237,2,131.99999597168,2|0|2,0:2|0:2|0:2,0:0:0:0:
266,0,65585,2,0,L|303:71,1,65.9999979858399,2|0,0:2|0:0,0:0:0:0:
393,57,65807,6,0,L|263:75,1,131.99999597168,6|0,0:2|0:2,0:0:0:0:
95,93,66252,1,8,0:2:0:0:
168,258,66474,2,0,L|125:207,1,65.9999979858399,0|0,0:2|0:0,0:0:0:0:
0,214,66696,2,0,L|115:277,1,131.99999597168,2|0,0:2|0:2,0:0:0:0:
322,270,67141,1,8,0:2:0:0:
438,94,67363,6,0,P|444:57|416:54,1,65.9999979858399,0|0,0:2|0:0,0:0:0:0:
307,95,67585,2,0,L|437:120,1,131.99999597168,2|0,0:2|0:2,0:0:0:0:
234,23,68029,1,8,0:2:0:0:
321,190,68252,2,0,P|334:163|376:153,1,65.9999979858399,0|0,0:2|0:0,0:0:0:0:
390,250,68474,2,0,L|259:238,1,131.99999597168,2|0,0:2|0:2,0:0:0:0:
369,348,68918,1,8,0:2:0:0:
154,327,69141,2,0,P|162:358|193:361,1,65.9999979858399,0|0,0:2|0:0,0:0:0:0:
113,239,69363,5,2,0:2:0:0:
104,225,69585,1,0,0:2:0:0:
465,307,69807,6,0,L|405:341,1,65.9999979858399,8|0,0:2|0:0,0:0:0:0:
417,187,70029,2,0,L|383:247,1,65.9999979858399,2|0,0:2|0:0,0:0:0:0:
416,86,70252,5,2,0:2:0:0:
430,77,70474,1,0,0:2:0:0:
17,214,70696,6,0,L|77:248,1,65.9999979858399,8|0,0:2|0:0,0:0:0:0:
68,54,70918,2,0,L|102:114,1,65.9999979858399,2|0,0:2|0:0,0:0:0:0:
165,287,71141,5,2,0:2:0:0:
194,278,71252,1,0,0:0:0:0:
220,260,71363,1,0,0:2:0:0:
237,234,71474,1,0,0:0:0:0:
269,264,71585,6,0,P|257:294|258:326,1,65.9999979858399,8|0,0:2|0:0,0:0:0:0:
372,133,71807,2,0,P|360:102|331:91,1,65.9999979858399,0|0,0:2|0:0,0:0:0:0:
472,343,72029,5,2,0:2:0:0:
465,356,72252,1,2,0:2:0:0:
368,257,72474,2,0,L|401:338,1,65.9999979858399,2|0,0:2|0:0,0:0:0:0:
264,61,72696,6,0,P|261:93|298:97,1,65.9999979858399,2|0,0:2|0:0,0:0:0:0:
493,63,72918,6,0,L|330:90,1,165.000006294251,6|0,0:2|0:2,0:0:0:0:
78,178,73363,1,8,0:2:0:0:
190,0,73585,5,0,0:2:0:0:
142,88,73696,1,0,0:0:0:0:
152,141,73807,2,0,P|199:163|247:159,2,82.5000031471254,2|0|0,0:2|0:0|0:2,0:0:0:0:
18,83,74252,1,8,0:2:0:0:
136,244,74474,5,0,0:2:0:0:
46,270,74585,1,0,0:2:0:0:
4,230,74696,2,0,P|-12:201|18:170,2,82.5000031471254,2|0|0,0:2|0:0|0:2,0:0:0:0:
199,266,75141,1,8,0:2:0:0:
156,338,75363,5,0,0:2:0:0:
247,370,75474,1,0,0:0:0:0:
306,366,75585,2,0,P|336:349|356:289,2,82.5000031471254,2|0|0,0:2|0:0|0:2,0:0:0:0:
89,253,76029,1,8,0:2:0:0:
55,370,76252,6,0,P|21:364|14:321,2,82.5000031471254,0|0|0,0:2|0:0|0:0,0:0:0:0:
352,224,76696,5,0,0:2:0:0:
367,192,76807,1,0,0:2:0:0:
381,111,76918,1,2,0:2:0:0:
168,143,77141,1,0,0:2:0:0:
156,117,77252,1,0,0:2:0:0:
150,37,77363,1,2,0:2:0:0:
107,198,77585,6,0,P|77:216|27:215,2,82.5000031471254,0|0|2,0:2|0:2|0:2,0:0:0:0:
277,283,78029,5,0,0:2:0:0:
290,316,78141,1,0,0:2:0:0:
336,355,78252,1,2,0:2:0:0:
448,259,78474,1,0,0:2:0:0:
437,285,78586,1,0,0:0:0:0:
409,320,78697,1,2,0:2:0:0:
327,185,78918,1,0,0:2:0:0:
337,211,79030,1,0,0:2:0:0:
364,238,79141,1,2,0:3:0:0:
473,85,79363,5,2,0:2:0:0:
465,105,79475,1,0,0:0:0:0:
477,131,79585,2,0,P|451:142|424:147,2,55,8|0|0,3:2|3:2|3:2,0:0:0:0:
95,29,80029,5,2,0:2:0:0:
123,152,80252,5,0,0:2:0:0:
165,143,80363,1,0,0:2:0:0:
208,101,80474,1,8,0:2:0:0:
116,238,80696,5,0,0:2:0:0:
74,229,80807,1,0,0:2:0:0:
31,187,80918,1,2,0:2:0:0:
184,305,81141,5,0,0:2:0:0:
164,275,81252,1,0,0:2:0:0:
160,227,81363,1,8,0:2:0:0:
298,25,81585,6,0,L|245:97,2,82.5000031471254,0|0|2,0:2|0:2|0:2,0:0:0:0:
440,121,82029,5,0,0:2:0:0:
398,111,82140,1,0,0:2:0:0:
356,101,82251,1,8,0:2:0:0:
458,232,82473,1,0,0:2:0:0:
421,196,82584,1,0,0:2:0:0:
384,160,82695,1,2,0:2:0:0:
416,342,82918,1,0,0:2:0:0:
399,282,83029,1,0,0:2:0:0:
381,223,83140,1,8,0:2:0:0:
124,23,83363,5,0,0:2:0:0:
110,113,83474,1,0,0:2:0:0:
133,201,83585,1,2,0:2:0:0:
161,251,83696,1,0,0:2:0:0:
205,285,83807,1,2,0:2:0:0:
253,293,83918,1,0,0:0:0:0:
341,288,84029,5,8,0:2:0:0:
362,246,84140,1,0,0:2:0:0:
369,202,84251,1,0,0:2:0:0:
355,168,84362,1,0,0:0:0:0:
319,110,84474,5,8,0:2:0:0:
279,102,84585,1,0,0:2:0:0:
241,108,84696,1,2,0:2:0:0:
214,132,84807,1,0,0:0:0:0:
202,171,84918,5,2,0:2:0:0:
214,201,85029,1,0,0:2:0:0:
237,226,85140,1,0,0:2:0:0:
262,234,85251,1,0,0:0:0:0:
309,255,85363,6,0,L|231:294,1,82.5000031471254,2|0,0:2|0:0,0:0:0:0:
144,340,85585,2,0,P|113:359|67:343,1,82.5000031471254,0|0,3:2|0:2,0:0:0:0:
44,200,85807,2,0,L|120:241,3,82.5000031471254,8|0|2|0,0:2|0:0|0:3|0:2,0:0:0:0:
320,242,86252,6,0,P|352:247|387:216,1,82.5000031471254,2|0,3:2|0:0,0:0:0:0:
511,118,86474,2,0,L|434:157,1,82.5000031471254,2|0,3:2|0:0,0:0:0:0:
248,107,86696,2,0,L|325:143,1,82.5000031471254,8|0,3:2|0:0,0:0:0:0:
454,64,86918,2,0,P|422:69|375:44,1,82.5000031471254,2|2,0:2|0:2,0:0:0:0:
267,1,87141,5,4,0:2:0:0:
257,284,94252,5,2,0:3:0:0:
36,31,94696,6,0,P|38:59|57:81,2,55,2|0|0,0:3|0:3|0:3,0:0:0:0:
159,45,95363,2,0,P|156:72|140:93,2,55,0|0|0,0:3|0:3|0:3,0:0:0:0:
81,155,96029,1,2,0:3:0:0:
217,190,96252,5,0,0:3:0:0:
219,166,96363,1,0,0:3:0:0:
210,146,96474,1,0,0:3:0:0:
75,247,96696,1,0,0:3:0:0:
113,323,96919,1,2,0:3:0:0:
216,357,97141,6,0,P|204:327|190:310,2,55,0|0|0,0:3|0:3|0:3,0:0:0:0:
381,316,97807,2,0,P|392:286|407:269,2,55,2|0|0,0:3|0:3|0:3,0:0:0:0:
284,229,98474,2,0,P|276:197|248:191,2,55,2|0|0,0:3|0:3|0:3,0:0:0:0:
482,189,99141,5,2,0:3:0:0:
429,130,99363,1,0,0:3:0:0:
482,71,99585,1,0,0:3:0:0:
258,190,99807,5,2,0:3:0:0:
311,131,100029,1,0,0:3:0:0:
258,72,100251,1,0,0:3:0:0:
144,144,100474,6,0,B|125:182|125:182|303:168,1,220,2|2,0:3|0:3,0:0:0:0:
400,156,101141,1,0,0:3:0:0:
427,53,101363,5,2,0:2:0:0:
349,94,101585,1,0,0:2:0:0:
275,46,101807,1,0,0:2:0:0:
232,124,102029,1,0,0:2:0:0:
20,267,102474,5,0,0:2:0:0:
46,258,102585,1,0,0:2:0:0:
72,249,102696,1,0,0:2:0:0:
140,309,102918,1,0,0:2:0:0:
323,377,103141,5,2,0:2:0:0:
406,351,103363,1,0,0:2:0:0:
395,325,103474,1,0,0:2:0:0:
384,298,103585,1,0,0:2:0:0:
275,310,103807,1,0,0:2:0:0:
301,226,104029,1,0,0:2:0:0:
219,191,104252,1,0,0:2:0:0:
287,136,104474,1,0,0:2:0:0:
257,36,104696,1,0,0:2:0:0:
13,19,104918,5,2,0:2:0:0:
35,104,105141,1,0,0:2:0:0:
122,95,105363,1,0,0:2:0:0:
131,182,105585,1,0,0:2:0:0:
465,170,106029,5,0,0:2:0:0:
378,161,106251,1,0,0:2:0:0:
369,248,106473,1,0,0:2:0:0:
269,367,106696,5,2,0:2:0:0:
201,273,106918,1,0,0:2:0:0:
175,264,107029,1,0,0:2:0:0:
149,255,107140,1,0,0:2:0:0:
149,166,107363,1,0,0:0:0:0:
61,155,107585,1,0,0:2:0:0:
112,83,107807,1,0,0:2:0:0:
304,82,108029,5,2,0:2:0:0:
447,35,108252,1,2,0:2:0:0:
407,189,108474,6,0,P|376:159|391:119,1,88,6|0,0:2|0:2,0:0:0:0:
304,237,108807,1,0,0:2:0:0:
300,226,108918,2,0,P|303:184|267:163,1,88,2|0,0:2|0:2,0:0:0:0:
403,253,109252,1,0,0:0:0:0:
403,240,109363,2,0,L|474:188,1,88,2|0,0:2|0:2,0:0:0:0:
334,282,109696,1,0,0:2:0:0:
325,274,109807,2,0,L|239:295,1,88,2|0,0:2|0:2,0:0:0:0:
400,327,110141,1,0,0:0:0:0:
406,337,110252,5,0,0:2:0:0:
278,353,110474,2,0,L|192:331,1,88,0|2,0:2|0:2,0:0:0:0:
115,351,110918,2,0,P|149:325|145:283,1,88,0|2,0:2|0:2,0:0:0:0:
71,111,111363,5,2,0:2:0:0:
139,173,111585,1,0,0:2:0:0:
261,173,111807,1,0,0:2:0:0:
386,29,112029,6,0,L|343:135,1,110,2|0,0:2|0:2,0:0:0:0:
326,24,112474,2,0,P|353:69|412:78,1,110,2|0,0:2|0:2,0:0:0:0:
439,293,112918,6,0,L|368:202,1,110,2|0,0:2|0:2,0:0:0:0:
369,284,113363,2,0,P|407:246|461:245,1,110,0|0,0:2|0:2,0:0:0:0:
311,342,113696,1,0,0:0:0:0:
298,347,113807,6,0,L|285:293,1,55,2|0,0:0|0:0,0:0:0:0:
185,352,114029,2,0,L|197:298,1,55,0|0,0:2|0:2,0:0:0:0:
312,214,114252,6,0,P|329:187|323:155,1,65.9999979858399,0|0,0:2|0:0,0:0:0:0:
171,157,114474,2,0,P|164:188|182:215,1,65.9999979858399,0|0,0:2|0:0,0:0:0:0:
253,74,114696,1,0,0:2:0:0:
184,12,114918,6,0,P|260:43|340:28,2,131.99999597168,2|2|2,2:2|2:2|2:2,0:0:0:0:
440,73,115585,6,0,L|289:53,1,131.99999597168,6|0,1:2|0:2,0:0:0:0:
476,173,116029,1,8,0:2:0:0:
235,217,116252,2,0,L|248:281,1,65.9999979858399,0|0,0:2|0:0,0:0:0:0:
247,348,116474,2,0,P|205:284|156:232,1,131.99999597168,2|0,0:2|0:2,0:0:0:0:
304,110,116918,1,8,0:2:0:0:
91,81,117141,6,0,P|112:53|141:38,1,65.9999979858399,0|0,0:2|0:0,0:0:0:0:
151,146,117363,2,0,P|182:88|180:23,1,131.99999597168,2|0,0:2|0:2,0:0:0:0:
38,172,117807,1,8,0:2:0:0:
300,209,118029,2,0,P|269:222|236:227,1,65.9999979858399,0|0,0:2|0:0,0:0:0:0:
197,307,118252,2,0,P|249:275|320:263,1,131.99999597168,2|0,0:2|0:2,0:0:0:0:
384,325,118696,2,0,P|387:357|411:378,2,65.9999979858399,8|0|0,0:2|0:0|0:2,0:0:0:0:
446,162,119141,5,2,3:2:0:0:
459,148,119363,1,0,3:2:0:0:
469,131,119585,1,8,3:2:0:0:
259,129,119807,2,0,P|291:129|315:108,1,65.9999979858399,0|0,3:2|3:2,0:0:0:0:
337,15,120030,5,2,3:2:0:0:
347,4,120252,1,0,3:2:0:0:
377,260,120474,2,0,P|344:260|320:239,1,65.9999979858399,8|0,3:2|0:0,0:0:0:0:
299,146,120697,1,0,3:2:0:0:
113,325,120918,6,0,P|144:317|175:302,1,65.9999979858399,2|0,3:2|0:0,0:0:0:0:
244,223,121141,1,0,3:2:0:0:
51,166,121363,2,0,P|20:140|27:111,1,65.9999979858399,8|0,3:2|0:0,0:0:0:0:
47,0,121585,1,0,3:2:0:0:
213,80,121807,6,0,P|246:81|279:77,1,65.9999979858399,2|0,3:2|0:0,0:0:0:0:
435,95,122029,2,0,P|378:129|309:148,2,131.99999597168,2|2|2,0:2|0:2|0:2,0:0:0:0:
264,345,122696,6,0,P|256:280|195:250,1,131.99999597168,6|0,1:2|0:2,0:0:0:0:
355,327,123141,1,8,0:2:0:0:
312,90,123363,2,0,P|333:65|338:29,1,65.9999979858399,0|0,0:2|0:0,0:0:0:0:
286,164,123585,2,0,P|270:102|266:33,1,131.99999597168,2|0,0:2|0:2,0:0:0:0:
384,179,124029,1,8,0:2:0:0:
186,314,124252,6,0,P|211:334|241:347,1,65.9999979858399,0|0,0:2|0:0,0:0:0:0:
314,278,124474,2,0,L|182:293,1,131.99999597168,2|0,0:2|0:2,0:0:0:0:
412,276,124918,1,8,0:2:0:0:
301,82,125141,2,0,P|275:102|245:115,1,65.9999979858399,0|0,0:2|0:0,0:0:0:0:
173,46,125363,2,0,L|305:61,1,131.99999597168,2|0,0:2|0:2,0:0:0:0:
119,172,125807,2,0,P|97:144|98:109,2,65.9999979858399,8|0|0,0:2|0:0|0:2,0:0:0:0:
407,207,126252,5,2,3:2:0:0:
394,193,126474,1,0,3:2:0:0:
389,168,126696,1,8,3:2:0:0:
228,321,126918,2,0,P|264:314|298:301,1,71.4999967269899,0|0,3:2|3:2,0:0:0:0:
391,358,127141,5,2,3:2:0:0:
408,350,127363,1,0,3:2:0:0:
144,342,127585,2,0,P|112:326|102:293,1,71.4999967269899,8|0,3:2|0:0,0:0:0:0:
64,180,127808,1,0,3:2:0:0:
353,255,128029,6,0,P|423:246|432:234,1,82.5000031471254,2|0,3:2|0:0,0:0:0:0:
511,160,128252,1,0,3:2:0:0:
140,204,128474,2,0,P|110:139|114:125,1,82.5000031471254,8|0,3:2|0:0,0:0:0:0:
136,19,128697,1,0,3:2:0:0:
211,107,128918,6,0,P|249:108|262:72,1,82.5000031471254,2|0,3:2|0:0,0:0:0:0:
354,239,129141,2,0,P|334:272|359:301,1,82.5000031471254,2|0,0:2|0:0,0:0:0:0:
169,295,129363,2,0,P|149:261|111:270,1,82.5000031471254,8|0,0:2|0:0,0:0:0:0:
261,70,129585,1,2,0:2:0:0:
246,339,129807,6,0,B|262:339|273:350|269:367|253:373|234:371|225:357|225:339|225:339|237:262|285:282|254:193,1,242.000007385254,6|0,0:2|0:2,0:0:0:0:
460,18,130252,1,8,0:2:0:0:
263,93,130474,5,0,0:2:0:0:
367,160,130585,1,0,0:0:0:0:
448,143,130696,2,0,P|487:115|491:53,2,110,2|0|0,0:2|0:0|0:2,0:0:0:0:
113,47,131141,1,8,0:2:0:0:
187,129,131363,5,0,0:2:0:0:
105,222,131474,1,0,0:0:0:0:
52,232,131585,2,0,P|22:217|6:134,2,110,2|0|0,0:2|0:0|0:2,0:0:0:0:
352,259,132030,1,8,0:2:0:0:
315,366,132252,5,0,0:2:0:0:
436,377,132363,1,0,0:0:0:0:
478,336,132474,2,0,P|495:303|504:226,2,110,2|0|0,0:2|0:0|0:2,0:0:0:0:
138,250,132918,1,8,0:2:0:0:
92,351,133141,2,0,P|60:369|5:323,2,110,2|0|2,0:2|0:0|0:2,0:0:0:0:
474,326,133585,5,0,0:2:0:0:
402,384,133696,1,0,0:2:0:0:
475,301,133807,1,2,0:2:0:0:
321,215,134030,1,0,0:2:0:0:
378,262,134141,1,0,0:0:0:0:
312,191,134252,1,2,0:2:0:0:
477,118,134474,5,0,0:2:0:0:
431,156,134585,1,0,0:2:0:0:
484,98,134696,1,8,0:2:0:0:
307,18,134918,1,0,0:2:0:0:
313,33,135029,1,0,0:0:0:0:
349,63,135140,1,2,0:2:0:0:
178,91,135363,5,0,0:2:0:0:
190,101,135474,1,0,0:0:0:0:
238,110,135585,1,8,0:2:0:0:
43,172,135807,1,0,0:2:0:0:
54,175,135918,1,0,0:0:0:0:
89,163,136029,1,2,0:2:0:0:
222,305,136252,5,0,0:2:0:0:
214,313,136363,1,0,0:0:0:0:
165,338,136474,2,0,P|132:343|106:322,2,65.9999979858399,8|0|0,3:2|3:2|3:2,0:0:0:0:
486,268,136918,5,2,0:2:0:0:
199,144,137141,5,0,0:2:0:0:
181,173,137252,1,0,0:2:0:0:
212,230,137363,1,2,0:2:0:0:
134,63,137585,5,0,0:2:0:0:
158,102,137696,1,0,0:2:0:0:
146,174,137807,1,2,0:2:0:0:
14,253,138029,5,0,0:2:0:0:
51,253,138140,1,0,0:2:0:0:
97,290,138251,1,2,0:2:0:0:
291,326,138474,6,0,L|215:357,2,82.5000031471254,0|0|2,0:2|0:2|0:2,0:0:0:0:
477,311,138918,5,0,0:2:0:0:
415,326,139029,1,0,0:2:0:0:
372,373,139140,1,2,0:2:0:0:
342,206,139363,1,0,0:2:0:0:
407,240,139474,1,0,0:2:0:0:
438,307,139585,1,2,0:2:0:0:
439,110,139807,1,0,0:2:0:0:
419,186,139918,1,0,0:2:0:0:
451,259,140029,1,2,0:2:0:0:
190,384,140252,5,0,0:2:0:0:
99,352,140363,1,0,0:2:0:0:
57,267,140474,1,2,0:2:0:0:
60,166,140585,1,0,0:2:0:0:
110,90,140696,1,2,0:2:0:0:
190,70,140807,1,0,0:0:0:0:
275,70,140918,5,8,0:2:0:0:
274,151,141029,1,0,0:2:0:0:
234,212,141140,1,0,0:2:0:0:
169,227,141251,1,0,0:0:0:0:
89,187,141363,5,8,0:2:0:0:
53,149,141474,1,0,0:2:0:0:
44,103,141585,1,2,0:2:0:0:
67,69,141696,1,0,0:0:0:0:
105,33,141807,5,2,0:0:0:0:
158,35,141918,1,0,0:2:0:0:
195,63,142029,1,0,0:2:0:0:
204,103,142140,1,0,0:0:0:0:
185,206,142252,6,0,P|196:259|248:276,1,110,2|0,0:2|0:0,0:0:0:0:
349,241,142474,2,0,P|398:226|410:174,1,110,0|0,3:0|0:2,0:0:0:0:
460,100,142696,2,0,P|447:47|398:31,3,110,8|0|2|0,0:2|0:0|3:2|0:0,0:0:0:0:
377,150,143141,6,0,P|340:161|336:229,1,110,2|0,3:2|0:0,0:0:0:0:
399,384,143363,2,0,P|361:373|354:303,1,110,2|0,3:2|0:0,0:0:0:0:
35,207,143585,2,0,P|71:190|78:124,1,110,2|0,3:2|0:0,0:0:0:0:
253,154,143807,2,0,P|214:154|174:98,1,110,2|0,3:2|3:2,0:0:0:0:
105,33,144029,5,4,0:2:0:0:
