osu file format v14

[General]
AudioFilename: audio.mp3
AudioLeadIn: 0
PreviewTime: 58029
Countdown: 0
SampleSet: Soft
StackLeniency: 0.7
Mode: 0
LetterboxInBreaks: 0
WidescreenStoryboard: 0

[Editor]
Bookmarks: 30252,58696,87141,94252,115585,144029
DistanceSpacing: 1
BeatDivisor: 4
GridSize: 8
TimelineZoom: 1.5

[Metadata]
Title:saika in Another Style
TitleUnicode:彩華 in Another Style
Artist:himmeltengoku
ArtistUnicode:himmeltengoku
Creator:Sulfur
Version:Normal
Source:
Tags:rayark rhythm game cytus rabpit su1fu7 finshie xilver
BeatmapID:1403919
BeatmapSetID:657543

[Difficulty]
HPDrainRate:4
CircleSize:3.5
OverallDifficulty:5
ApproachRate:5
SliderMultiplier:0.999999999999999
SliderTickRate:2

[Events]
//Background and Video events
0,0,"1482992298629.png",0,0
//Break Periods
2,87341,93052
//Storyboard Layer 0 (Background)
//Storyboard Layer 1 (Fail)
//Storyboard Layer 2 (Pass)
//Storyboard Layer 3 (Foreground)
//Storyboard Sound Samples

[TimingPoints]
30,444.444444444444,4,2,1,50,1,0
7141,-100,4,3,2,50,0,0
8474,-100,4,2,1,50,0,0
12474,-100,4,2,2,60,0,0
16029,-100,4,2,2,70,0,0
30252,-100,4,2,2,50,0,0
52252,-100,4,2,2,70,0,0
53363,-100,4,2,2,50,0,0
55141,-100,4,2,2,70,0,0
58696,-100,4,2,2,60,0,0
72918,-100,4,2,2,70,0,0
94252,-100,4,3,2,60,0,0
115585,-100,4,2,2,70,0,0

[Colours]
Combo1 : 175,175,97
Combo2 : 255,128,192
Combo3 : 140,140,198
Combo4 : 62,255,158

[HitObjects]
231,213,1141,6,0,P|223:173|223:149,2,50,0|0|0,0:0|0:0|0:0,0:0:0:0:
256,256,1807,5,4,0:2:0:0:
319,178,2252,2,0,P|324:145|373:84,1,99.9999999999999,2|0,0:2|0:0,0:0:0:0:
285,41,3141,2,0,P|232:55|225:53,1,50,2|0,0:2|0:0,0:0:0:0:
188,52,3585,1,0,0:2:0:0:
114,0,4029,2,0,P|101:31|116:107,1,99.9999999999999,2|0,0:2|0:0,0:0:0:0:
186,159,4918,2,0,P|152:164|120:182,1,50,2|0,0:2|0:2,0:0:0:0:
92,192,5363,5,0,0:2:0:0:
234,237,6029,1,0,0:2:0:0:
93,273,6696,1,2,0:2:0:0:
125,367,7141,2,0,L|69:343,2,50,0|0|2,3:2|3:2|3:3,0:0:0:0:
174,362,7807,2,0,L|239:354,1,50,0|0,3:0|3:2,0:0:0:0:
192,257,8474,2,0,P|222:239|240:221,1,50,2|0,0:2|0:2,0:0:0:0:
256,184,8918,5,0,0:2:0:0:
300,273,9363,2,0,P|351:256|406:265,1,99.9999999999999,2|0,0:2|0:0,0:0:0:0:
468,331,10252,2,0,P|472:306|489:270,1,50,2|0,0:2|0:0,0:0:0:0:
507,241,10696,1,0,0:2:0:0:
483,143,11141,2,0,P|431:127|376:136,1,99.9999999999999,2|0,0:2|0:0,0:0:0:0:
332,216,12029,2,0,P|331:252|323:271,1,50,2|0,0:2|0:2,0:0:0:0:
316,313,12474,5,2,1:2:0:0:
125,252,13363,2,0,P|119:201|140:147,1,99.9999999999999,0|2,3:3|3:3,0:0:0:0:
218,101,14252,1,10,3:2:0:0:
161,18,14696,1,10,3:2:0:0:
63,24,15141,1,10,3:2:0:0:
36,66,15363,2,0,B|32:100|32:100|56:124|49:156|51:181,1,99.9999999999999,0|2,0:2|0:3,0:0:0:0:
40,210,16029,5,6,1:2:0:0:
97,298,16474,2,0,P|135:315|199:306,1,99.9999999999999,8|2,0:2|0:2,0:0:0:0:
158,217,17363,2,0,P|187:205|217:205,1,50,8|0,0:2|0:2,0:0:0:0:
254,213,17807,1,2,0:2:0:0:
317,290,18252,2,0,P|333:267|398:232,1,99.9999999999999,8|2,0:2|0:0,0:0:0:0:
346,145,19141,2,0,P|349:102|357:83,1,50,8|0,0:2|0:2,0:0:0:0:
355,46,19585,6,0,L|303:38,1,50,2|0,0:2|0:0,0:0:0:0:
264,64,20029,1,8,0:2:0:0:
169,30,20474,1,2,3:2:0:0:
188,130,20918,1,8,3:2:0:0:
112,196,21363,1,2,3:2:0:0:
178,272,21807,1,8,3:2:0:0:
102,338,22252,1,2,3:2:0:0:
145,363,22474,2,0,B|170:364|170:364|199:349|247:353,1,99.9999999999999,0|2,0:2|0:2,0:0:0:0:
292,361,23141,5,2,1:2:0:0:
369,297,23585,2,0,P|376:271|350:190,1,99.9999999999999,8|2,0:2|0:2,0:0:0:0:
276,258,24474,2,0,P|247:247|224:246,1,50,8|0,0:2|0:2,0:0:0:0:
181,263,24918,1,2,0:2:0:0:
82,244,25363,2,0,P|114:222|151:161,1,99.9999999999999,8|2,0:2|0:2,0:0:0:0:
170,73,26252,2,0,P|188:55|217:35,1,50,8|0,0:2|0:2,0:0:0:0:
255,29,26696,5,2,0:2:0:0:
322,102,27141,1,8,0:2:0:0:
395,35,27585,1,2,3:2:0:0:
462,108,28029,1,8,0:2:0:0:
389,175,28474,1,6,0:2:0:0:
390,274,28918,1,2,3:2:0:0:
389,374,29363,1,2,3:2:0:0:
298,323,29807,2,0,L|234:317,1,50,8|2,3:2|0:2,0:0:0:0:
198,313,30252,5,6,3:2:0:0:
98,304,30696,1,8,3:3:0:0:
48,216,31141,1,2,3:2:0:0:
144,240,31585,2,0,L|207:234,1,50,8|0,3:3|3:2,0:0:0:0:
243,230,32030,1,2,3:2:0:0:
316,161,32474,1,8,3:3:0:0:
400,216,32918,1,2,3:2:0:0:
410,117,33363,2,0,L|415:53,1,50,8|0,3:3|0:0,0:0:0:0:
420,16,33808,5,2,3:2:0:0:
319,6,34252,1,8,3:3:0:0:
309,107,34696,1,2,3:2:0:0:
208,97,35141,1,8,3:3:0:0:
250,190,35585,2,0,L|226:254,1,50,2|0,3:2|3:2,0:0:0:0:
192,264,36029,2,0,L|216:328,1,50,8|0,3:3|3:2,0:0:0:0:
232,352,36474,1,2,3:2:0:0:
136,344,36918,2,0,L|64:352,1,50,8|8,3:3|3:3,0:0:0:0:
36,354,37363,5,2,3:2:0:0:
77,262,37807,1,8,3:3:0:0:
40,168,38252,1,2,3:2:0:0:
77,74,38696,1,8,3:3:0:0:
139,153,39141,1,2,3:2:0:0:
218,91,39585,1,8,3:3:0:0:
280,170,40029,1,2,3:2:0:0:
280,224,40252,2,0,B|248:221|248:221|214:234|214:234|175:230,1,99.9999999999999,0|0,3:2|3:2,0:0:0:0:
132,226,40918,5,2,3:2:0:0:
296,336,41807,1,2,3:2:0:0:
392,320,42252,1,8,3:3:0:0:
488,352,42696,1,2,3:2:0:0:
448,264,43141,2,0,L|440:200,1,50,8|8,3:3|3:3,0:0:0:0:
434,164,43585,1,2,3:2:0:0:
336,160,44029,2,0,L|328:224,1,50,8|0,3:3|3:2,0:0:0:0:
322,260,44473,5,2,3:2:0:0:
284,352,44918,2,0,L|228:356,1,50,8|0,3:3|3:2,0:0:0:0:
150,300,45585,1,0,3:2:0:0:
150,300,45807,2,0,B|130:283|130:283|110:253,1,50,8|0,3:3|3:2,0:0:0:0:
70,262,46252,2,0,B|61:238|61:238|59:202,1,50,2|0,3:2|3:2,0:0:0:0:
19,191,46696,2,0,B|22:166|22:166|39:134,1,50,8|0,3:3|3:2,0:0:0:0:
118,89,47363,1,0,3:2:0:0:
118,89,47585,2,0,L|178:84,1,50,8|0,3:3|3:2,0:0:0:0:
211,108,48029,6,0,B|242:105|242:105|268:119|268:119|315:114,1,99.9999999999999,2|8,3:2|3:3,0:0:0:0:
357,111,48696,1,0,3:2:0:0:
456,105,49141,2,0,L|432:173,1,50,0|8,3:2|3:3,0:0:0:0:
437,202,49585,2,0,L|461:270,1,50,0|2,3:2|3:2,0:0:0:0:
297,357,50696,1,2,3:2:0:0:
208,312,51141,1,8,3:3:0:0:
103,311,51585,5,2,3:2:0:0:
12,133,52474,1,2,3:2:0:0:
103,185,52919,1,8,3:3:0:0:
208,184,53363,1,2,3:2:0:0:
368,64,54252,1,0,3:2:0:0:
401,163,54696,1,8,3:3:0:0:
380,266,55141,6,0,B|404:274|428:266|428:266|444:274|492:330,1,99.9999999999999,2|8,3:2|3:3,0:0:0:0:
392,368,56029,2,0,B|368:360|344:368|344:368|328:360|280:304,1,99.9999999999999,2|8,3:2|3:3,0:0:0:0:
272,240,56918,1,2,3:2:0:0:
171,243,57363,1,8,3:3:0:0:
171,243,57585,2,0,L|157:186,1,50,2|8,3:2|3:3,0:0:0:0:
152,144,58029,2,0,B|170:136|197:141|197:141|225:159|268:150,1,99.9999999999999,0|2,3:2|3:2,0:0:0:0:
299,141,58696,5,6,1:2:0:0:
325,44,59141,2,0,P|348:25|426:13,1,99.9999999999999,8|2,0:2|0:2,0:0:0:0:
400,112,60029,2,0,P|424:148|430:164,1,50,8|0,0:2|0:2,0:0:0:0:
434,203,60474,1,2,0:2:0:0:
479,293,60918,2,0,P|431:303|375:286,1,99.9999999999999,8|2,0:2|0:2,0:0:0:0:
318,367,61807,2,0,P|290:331|267:317,1,50,8|0,0:2|0:2,0:0:0:0:
243,302,62252,5,2,0:2:0:0:
319,241,62696,2,0,L|326:181,1,50,8|0,0:2|0:2,0:0:0:0:
331,141,63141,1,2,0:2:0:0:
240,192,63585,2,0,L|179:188,1,50,8|0,0:2|0:2,0:0:0:0:
158,227,64029,2,0,L|92:196,1,50,2|0,0:2|0:2,0:0:0:0:
67,228,64474,2,0,L|25:169,2,50,8|0|2,0:2|0:2|0:2,0:0:0:0:
58,277,65141,2,0,B|83:289|83:289|102:335|145:340,1,99.9999999999999,0|2,0:2|0:2,0:0:0:0:
182,344,65807,5,6,0:2:0:0:
244,265,66252,2,0,P|261:222|266:160,1,99.9999999999999,8|2,0:2|0:2,0:0:0:0:
174,209,67141,2,0,P|152:195|136:175,1,50,8|0,0:2|0:2,0:0:0:0:
113,133,67585,1,2,0:2:0:0:
104,33,68029,2,0,P|152:39|191:69,1,99.9999999999999,8|2,0:2|0:2,0:0:0:0:
270,8,68918,2,0,P|297:15|331:12,1,50,8|0,0:2|0:2,0:0:0:0:
367,2,69363,5,2,0:2:0:0:
327,91,69807,2,0,P|353:94|384:108,1,50,8|2,0:2|0:2,0:0:0:0:
417,129,70252,1,2,0:2:0:0:
423,228,70696,2,0,P|400:242|379:269,1,50,8|2,0:2|0:2,0:0:0:0:
364,306,71141,2,0,P|332:313|299:303,1,50,2|0,0:2|0:2,0:0:0:0:
274,281,71585,2,0,P|243:274|214:279,1,50,8|0,0:2|0:2,0:0:0:0:
177,292,72029,1,2,0:2:0:0:
139,325,72252,2,0,B|125:295|99:286|99:286|86:266|95:225,1,99.9999999999999,2|2,0:2|0:2,0:0:0:0:
105,196,72918,5,6,0:2:0:0:
82,98,73363,2,0,P|141:121|195:110,1,99.9999999999999,8|2,0:2|0:2,0:0:0:0:
236,196,74252,2,0,P|252:153|267:137,1,50,8|0,0:2|0:2,0:0:0:0:
293,120,74696,1,2,0:2:0:0:
383,168,75141,2,0,P|392:112|372:56,1,99.9999999999999,8|2,0:2|0:2,0:0:0:0:
290,29,76029,2,0,P|259:31|227:23,1,50,8|0,0:2|0:2,0:0:0:0:
197,53,76474,6,0,B|189:90|201:119|201:119|214:153|208:208,1,150,0|0,0:0|0:2,0:0:0:0:
240,295,77585,2,0,P|213:321|141:334,1,99.9999999999999,0|0,0:2|0:2,0:0:0:0:
58,365,78474,2,0,P|67:328|42:259,1,99.9999999999999,0|0,0:2|0:2,0:0:0:0:
28,224,79141,2,0,P|57:205|77:199,1,50,2|2,0:3|0:2,0:0:0:0:
121,196,79585,2,0,P|102:167|96:147,1,50,8|0,3:2|3:2,0:0:0:0:
116,106,80029,5,2,0:2:0:0:
215,115,80474,1,8,0:2:0:0:
300,63,80918,1,2,0:2:0:0:
399,68,81363,1,8,0:2:0:0:
342,150,81807,1,2,0:2:0:0:
440,165,82252,1,8,0:2:0:0:
383,247,82696,1,2,0:2:0:0:
432,334,83141,1,8,0:2:0:0:
341,376,83585,6,0,P|294:383|271:380,2,50,2|2|8,0:2|0:2|0:2,0:0:0:0:
302,283,84474,2,0,P|278:284|250:277,2,50,8|2|2,0:2|0:2|0:2,0:0:0:0:
289,183,85363,2,0,P|315:148|319:132,2,50,2|0|8,0:2|3:2|0:2,0:0:0:0:
239,191,86029,2,0,P|202:185|172:194,1,50,2|2,0:3|3:2,0:0:0:0:
145,209,86474,2,0,P|128:175|103:156,1,50,2|8,3:2|3:2,0:0:0:0:
75,143,86918,1,2,0:2:0:0:
75,143,87141,5,4,0:2:0:0:
256,80,94252,5,2,0:3:0:0:
312,160,94696,2,0,B|345:173|345:173|432:165,1,99.9999999999999,2|0,0:3|0:3,0:0:0:0:
448,136,95363,2,0,L|440:240,1,99.9999999999999,0|0,0:3|0:3,0:0:0:0:
437,285,96029,2,0,B|398:281|398:281|379:287|379:287|322:279,1,99.9999999999999,2|0,0:3|0:3,0:0:0:0:
256,224,96918,2,0,B|208:208|208:208|160:208|160:208|104:192,1,150,2|0,0:3|0:3,0:0:0:0:
62,177,97807,5,2,0:3:0:0:
119,95,98252,1,0,0:3:0:0:
166,109,98474,2,0,L|278:102,1,99.9999999999999,2|0,0:3|0:3,0:0:0:0:
315,100,99141,1,2,0:3:0:0:
413,81,99585,1,0,0:3:0:0:
395,127,99807,2,0,B|383:176|383:176|388:239,1,99.9999999999999,2|0,0:3|0:3,0:0:0:0:
424,264,100474,2,0,B|377:276|377:276|327:273|327:273|273:287,1,150,2|0,0:3|0:3,0:0:0:0:
232,304,101363,6,0,B|216:264|216:264|240:160,1,150,2|0,0:2|0:2,0:0:0:0:
272,64,102474,2,0,L|168:72,1,99.9999999999999,0|0,0:2|0:2,0:0:0:0:
120,72,103141,1,2,0:2:0:0:
32,32,103585,1,0,0:2:0:0:
42,129,104029,1,0,0:2:0:0:
18,226,104474,1,0,0:2:0:0:
93,291,104918,6,0,B|196:300|196:300|246:280,1,150,2|0,0:2|0:2,0:0:0:0:
295,200,106029,2,0,L|401:194,1,99.9999999999999,0|0,0:2|0:2,0:0:0:0:
441,176,106696,2,0,B|459:206|459:206|459:276,1,99.9999999999999,2|0,0:2|0:2,0:0:0:0:
420,303,107363,2,0,L|314:309,1,99.9999999999999,0|0,0:0|0:2,0:0:0:0:
274,328,108029,2,0,L|265:278,1,50,2|2,0:2|0:2,0:0:0:0:
257,229,108474,5,6,0:2:0:0:
351,196,108918,1,2,0:2:0:0:
276,132,109363,1,2,0:2:0:0:
368,99,109807,1,2,0:2:0:0:
294,36,110252,2,0,L|235:44,1,50,0|0,0:2|0:2,0:0:0:0:
195,50,110696,1,2,0:2:0:0:
96,48,111141,1,2,0:2:0:0:
104,96,111363,2,0,L|114:163,1,50,2|0,0:2|0:2,0:0:0:0:
128,248,112030,5,2,0:2:0:0:
64,328,112474,1,2,0:2:0:0:
166,344,112918,1,2,0:2:0:0:
264,312,113363,2,0,L|336:304,1,50,0|0,0:2|0:2,0:0:0:0:
356,331,113807,6,0,L|414:288,1,50,2|0,0:0|0:2,0:0:0:0:
445,301,114252,2,0,L|474:234,1,50,0|0,0:2|0:2,0:0:0:0:
459,205,114696,1,0,0:2:0:0:
409,201,114918,2,0,B|392:196|364:205|364:205|348:214|290:201,1,99.9999999999999,2|2,2:2|2:2,0:0:0:0:
260,200,115585,5,6,1:2:0:0:
320,120,116029,2,0,P|339:87|339:15,1,99.9999999999999,8|2,0:2|0:2,0:0:0:0:
244,54,116918,2,0,P|213:49|185:52,1,50,8|0,0:2|0:2,0:0:0:0:
149,71,117363,1,2,0:2:0:0:
78,0,117807,2,0,P|52:42|50:91,1,99.9999999999999,8|2,0:2|0:2,0:0:0:0:
127,154,118696,2,0,P|135:177|136:210,1,50,8|0,0:2|0:2,0:0:0:0:
143,252,119141,6,0,L|198:248,2,50,2|0|8,3:2|3:2|3:2,0:0:0:0:
86,334,120029,2,0,L|141:338,1,50,2|0,3:2|3:2,0:0:0:0:
181,357,120474,2,0,L|228:340,1,50,8|0,3:2|3:2,0:0:0:0:
267,309,120918,1,2,3:2:0:0:
348,367,121363,1,8,3:2:0:0:
415,295,121807,1,2,3:2:0:0:
447,257,122029,2,0,B|455:226|441:205|441:205|444:149,1,99.9999999999999,2|2,0:2|0:2,0:0:0:0:
448,109,122696,5,6,1:2:0:0:
512,31,123141,2,0,P|466:9|417:12,1,99.9999999999999,8|2,0:2|0:2,0:0:0:0:
340,74,124029,2,0,P|305:89|289:91,1,50,8|0,0:2|0:2,0:0:0:0:
245,76,124474,1,2,0:2:0:0:
247,178,124918,2,0,P|210:171|157:125,1,99.9999999999999,8|2,0:2|0:2,0:0:0:0:
124,40,125807,2,0,P|93:32|69:31,1,50,8|0,0:2|0:2,0:0:0:0:
30,54,126252,6,0,L|14:-2,2,50,2|0|8,3:2|3:2|3:2,0:0:0:0:
28,154,127141,2,0,L|82:181,1,50,2|0,3:2|3:2,0:0:0:0:
116,199,127585,2,0,L|79:238,1,50,8|0,3:2|3:2,0:0:0:0:
45,270,128029,1,2,3:2:0:0:
19,366,128474,1,8,3:2:0:0:
115,341,128918,1,2,3:2:0:0:
168,344,129141,2,0,B|192:344|192:344|240:360|266:344,1,99.9999999999999,2|2,0:2|0:2,0:0:0:0:
304,312,129807,5,6,0:2:0:0:
392,360,130252,2,0,P|432:304|432:264,1,99.9999999999999,8|2,0:2|0:2,0:0:0:0:
512,208,131141,2,0,P|472:152|472:112,1,99.9999999999999,8|2,0:2|0:2,0:0:0:0:
467,22,132029,2,0,P|411:62|371:62,1,99.9999999999999,8|2,0:2|0:2,0:0:0:0:
336,153,132918,2,0,P|317:117|303:104,1,50,8|2,0:2|0:2,0:0:0:0:
264,92,133363,6,0,P|224:92|152:17,1,150,2|0,0:2|0:2,0:0:0:0:
52,14,134474,2,0,P|71:63|65:126,1,99.9999999999999,0|0,0:2|0:2,0:0:0:0:
20,196,135363,2,0,P|7:252|13:307,1,99.9999999999999,0|0,0:2|0:2,0:0:0:0:
35,337,136029,2,0,B|56:332|56:332|105:337,1,50,2|0,0:2|0:2,0:0:0:0:
130,356,136474,2,0,B|151:360|151:360|200:355,1,50,8|0,3:2|3:2,0:0:0:0:
221,332,136918,5,2,0:2:0:0:
314,297,137363,1,2,0:2:0:0:
317,197,137807,1,2,0:2:0:0:
224,162,138252,1,2,0:2:0:0:
300,98,138696,1,2,0:2:0:0:
223,33,139141,1,2,0:2:0:0:
123,34,139585,1,2,0:2:0:0:
46,99,140029,1,2,0:2:0:0:
95,188,140474,6,0,P|60:199|35:200,2,50,2|2|8,0:2|0:2|0:2,0:0:0:0:
194,193,141363,2,0,P|168:227|162:248,2,50,8|2|2,0:2|0:2|0:0,0:0:0:0:
270,128,142252,2,0,P|235:118|218:104,2,50,2|0|8,0:2|3:0|0:2,0:0:0:0:
314,105,142918,2,0,P|348:93|377:96,1,50,2|2,3:2|3:2,0:0:0:0:
402,122,143363,2,0,P|435:118|453:107,1,50,2|2,3:2|3:2,0:0:0:0:
485,75,143807,1,2,3:2:0:0:
485,75,144029,5,4,0:2:0:0:
