osu file format v14

[General]
AudioFilename: audio.mp3
AudioLeadIn: 0
PreviewTime: 58029
Countdown: 0
SampleSet: Soft
StackLeniency: 0.3
Mode: 0
LetterboxInBreaks: 0
WidescreenStoryboard: 0

[Editor]
DistanceSpacing: 0.7
BeatDivisor: 4
GridSize: 8
TimelineZoom: 3

[Metadata]
Title:saika in Another Style
TitleUnicode:彩華 in Another Style
Artist:himmeltengoku
ArtistUnicode:himmeltengoku
Creator:Sulfur
Version:Insane
Source:
Tags:rayark rhythm game cytus rabpit su1fu7 finshie xilver
BeatmapID:1398205
BeatmapSetID:657543

[Difficulty]
HPDrainRate:6
CircleSize:4.4
OverallDifficulty:8
ApproachRate:8.8
SliderMultiplier:1.8
SliderTickRate:1

[Events]
//Background and Video events
0,0,"1482992298629.png",0,0
//Break Periods
2,87341,93623
//Storyboard Layer 0 (Background)
//Storyboard Layer 1 (Fail)
//Storyboard Layer 2 (Pass)
//Storyboard Layer 3 (Foreground)
//Storyboard Sound Samples

[TimingPoints]
30,444.444444444444,4,2,1,50,1,0
5363,-125,4,2,1,50,0,0
7141,-83.3333333333333,4,3,2,50,0,0
8474,-125,4,2,1,50,0,0
8918,-100,4,2,1,50,0,0
12474,-83.3333333333333,4,2,2,60,0,0
16029,-71.4285714285714,4,2,2,70,0,0
20252,-83.3333333333333,4,2,2,70,0,0
22474,-71.4285714285714,4,2,2,70,0,0
26918,-58.8235294117647,4,2,2,70,0,0
28696,-52.6315789473684,4,2,2,70,0,0
30252,-83.3333333333333,4,2,2,50,0,0
53363,-100,4,2,2,50,0,0
55141,-125,4,2,2,60,0,0
58696,-62.5,4,2,2,60,0,0
72918,-58.8235294117647,4,2,2,70,0,0
76474,-66.6666666666667,4,2,2,70,0,0
86252,-55.5555555555556,4,2,2,70,0,0
94252,-83.3333333333333,4,3,2,60,0,0
100474,-100,4,3,2,60,0,0
101363,-83.3333333333333,4,3,2,60,0,0
115585,-62.5,4,2,2,70,0,0
129807,-71.4285714285714,4,2,2,70,0,0
142465,-62.5,4,2,2,70,0,0
143141,-50,4,2,2,70,0,0

[Colours]
Combo1 : 175,175,97
Combo2 : 255,128,192
Combo3 : 140,140,198
Combo4 : 62,255,158

[HitObjects]
197,192,1141,5,0,0:0:0:0:
167,258,1363,1,0,0:0:0:0:
104,296,1585,1,0,0:0:0:0:
265,264,1807,6,0,P|294:215|295:176,1,90,4|0,0:2|0:0,0:0:0:0:
239,103,2252,1,2,0:2:0:0:
197,192,2474,2,0,P|248:227|382:213,1,180,0|0,0:2|0:2,0:0:0:0:
426,332,3141,1,2,0:2:0:0:
512,360,3363,2,0,P|467:369|424:362,2,90,0|0|0,0:0|0:2|0:0,0:0:0:0:
340,310,4029,5,2,0:2:0:0:
287,236,4252,2,0,P|236:201|102:215,1,180,0|0,0:2|0:2,0:0:0:0:
5,120,4918,2,0,P|37:149|51:192,1,90,2|0,0:2|0:2,0:0:0:0:
5,32,5363,6,0,P|73:12|140:33,1,144,0|2,0:2|0:2,0:0:0:0:
141,122,6029,2,0,P|72:141|6:120,1,144,0|0,0:2|0:2,0:0:0:0:
181,192,6696,2,0,P|216:199|251:191,1,72,2|0,0:2|0:0,0:0:0:0:
250,191,7141,5,0,3:2:0:0:
264,47,7363,1,0,3:2:0:0:
261,83,7474,1,0,3:2:0:0:
258,119,7585,1,2,3:3:0:0:
247,227,7807,1,0,3:0:0:0:
236,335,8029,1,0,3:2:0:0:
236,335,8474,2,0,P|270:343|306:336,1,72,2|0,0:2|0:2,0:0:0:0:
319,302,8807,1,0,0:2:0:0:
290,268,8918,6,0,P|282:224|291:181,1,90,0|0,0:2|0:0,0:0:0:0:
377,122,9363,1,2,0:2:0:0:
381,227,9585,2,0,P|305:252|201:215,1,180,0|0,0:2|0:2,0:0:0:0:
152,330,10252,1,2,0:2:0:0:
64,360,10474,2,0,P|109:369|152:362,2,90,0|0|0,0:0|0:2|0:0,0:0:0:0:
238,308,11141,5,2,0:2:0:0:
319,250,11363,2,0,P|395:225|499:262,1,180,0|0,0:2|0:2,0:0:0:0:
500,108,12029,2,0,P|464:134|421:144,1,90,2|0,0:2|0:2,0:0:0:0:
317,112,12474,5,2,1:2:0:0:
197,152,12696,2,0,L|304:142,1,107.999996704102,8|2,0:0|0:3,0:0:0:0:
304,141,13141,1,0,3:3:0:0:
307,177,13252,1,0,3:3:0:0:
310,213,13363,1,0,3:3:0:0:
319,321,13585,1,0,3:3:0:0:
189,264,13807,1,2,3:3:0:0:
197,152,14029,1,0,3:3:0:0:
133,328,14252,5,10,3:2:0:0:
241,319,14474,1,0,3:2:0:0:
61,248,14696,1,10,3:2:0:0:
50,119,14918,1,0,3:2:0:0:
28,351,15141,1,10,3:2:0:0:
28,351,15363,5,0,0:2:0:0:
76,297,15585,1,10,0:2:0:0:
192,288,15807,1,2,0:3:0:0:
228,294,15918,1,0,0:2:0:0:
274,243,16029,6,0,P|204:216|137:243,1,125.999996154785,6|0,1:2|0:2,0:0:0:0:
207,316,16474,1,8,0:2:0:0:
307,335,16696,2,0,P|356:297|371:237,2,125.999996154785,0|2|0,0:2|0:2|0:2,0:0:0:0:
381,168,17363,1,8,0:2:0:0:
285,135,17585,1,0,0:2:0:0:
156,228,17807,6,0,P|129:171|133:102,1,125.999996154785,2|0,0:2|0:2,0:0:0:0:
184,23,18252,1,8,0:2:0:0:
264,120,18474,2,0,P|327:125|390:125,2,125.999996154785,0|2|0,0:2|0:0|0:2,0:0:0:0:
384,8,19141,1,8,0:2:0:0:
461,68,19363,1,0,0:2:0:0:
444,208,19585,6,0,P|387:235|324:241,1,125.999996154785,2|0,0:2|0:0,0:0:0:0:
216,208,20029,1,8,0:2:0:0:
216,208,20252,1,0,3:2:0:0:
213,244,20363,1,0,3:2:0:0:
210,280,20474,2,0,L|337:291,1,107.999996704102,2|0,3:2|0:0,0:0:0:0:
219,172,20918,1,8,3:2:0:0:
219,172,21363,5,2,3:2:0:0:
133,56,21585,1,0,3:2:0:0:
216,208,21807,1,8,3:2:0:0:
344,87,22029,1,0,3:2:0:0:
380,84,22140,1,0,3:2:0:0:
416,81,22251,1,2,3:2:0:0:
416,81,22474,5,0,0:2:0:0:
355,162,22696,1,8,0:2:0:0:
235,116,22918,1,2,0:2:0:0:
209,126,23029,1,0,0:2:0:0:
149,92,23141,6,0,P|198:53|260:52,1,125.999996154785,2|0,1:2|0:2,0:0:0:0:
295,158,23585,2,0,P|245:196|183:197,1,125.999996154785,8|0,0:2|0:2,0:0:0:0:
163,179,23918,1,0,0:2:0:0:
141,162,24029,2,0,P|130:223|143:284,1,125.999996154785,2|0,0:2|0:2,0:0:0:0:
371,162,24474,2,0,P|382:223|369:284,1,125.999996154785,8|0,0:2|0:2,0:0:0:0:
348,302,24807,1,0,0:2:0:0:
321,309,24918,6,0,P|259:298|196:307,1,125.999996154785,2|0,0:2|0:2,0:0:0:0:
96,344,25363,1,8,0:2:0:0:
40,232,25585,2,0,P|29:168|41:99,2,125.999996154785,0|2|0,0:2|0:2|0:2,0:0:0:0:
72,40,26252,1,8,0:2:0:0:
161,133,26474,1,0,0:2:0:0:
190,141,26585,1,0,0:2:0:0:
221,138,26696,5,2,0:2:0:0:
325,48,26918,2,0,P|316:84|314:137,2,76.5000014591217,2|0|8,0:2|0:2|0:2,0:0:0:0:
361,268,27363,1,0,3:2:0:0:
329,260,27474,1,0,3:2:0:0:
295,263,27585,1,2,3:2:0:0:
152,152,27807,2,0,P|177:178|206:223,2,76.5000014591217,2|0|8,0:2|0:2|0:2,0:2:0:0:
205,344,28252,1,0,3:2:0:0:
169,335,28363,1,0,3:2:0:0:
132,338,28474,5,6,0:2:0:0:
260,192,28696,2,0,P|291:163|313:126,1,85.4999977169037,2|0,0:2|0:0,0:0:0:0:
333,40,28918,1,2,3:2:0:0:
261,296,29141,2,0,P|303:289|345:295,1,85.4999977169037,2|0,0:2|0:0,0:0:0:0:
437,344,29363,1,2,3:2:0:0:
261,192,29585,2,0,P|219:199|177:193,1,85.4999977169037,0|0,0:2|0:0,0:0:0:0:
101,128,29807,1,8,3:2:0:0:
118,268,30029,1,2,0:2:0:0:
144,278,30141,1,0,0:2:0:0:
169,281,30252,6,0,P|226:285|295:280,2,107.999996704102,6|0|8,3:2|0:0|3:3,0:0:0:0:
80,218,30918,1,0,3:2:0:0:
169,156,31141,2,0,P|226:152|295:157,1,107.999996704102,2|0,3:2|0:0,0:0:0:0:
132,27,31585,1,8,3:3:0:0:
65,123,31807,1,0,3:2:0:0:
197,72,32029,6,0,L|304:62,1,107.999996704102,2|0,3:2|0:0,0:0:0:0:
383,172,32474,2,0,L|277:154,1,107.999996704102,8|0,3:3|0:0,0:0:0:0:
411,52,32918,2,0,L|509:97,1,107.999996704102,2|0,3:2|0:0,0:0:0:0:
304,62,33363,1,8,3:3:0:0:
381,171,33585,1,0,0:0:0:0:
207,108,33807,6,0,L|108:154,1,107.999996704102,2|0,3:2|0:2,0:0:0:0:
198,280,34252,2,0,L|261:192,1,107.999996704102,8|0,3:3|0:0,0:0:0:0:
454,237,34696,2,0,L|391:148,1,107.999996704102,2|0,3:2|0:2,0:0:0:0:
504,0,35141,2,0,L|494:108,1,107.999996704102,8|0,3:3|0:0,0:0:0:0:
494,107,35585,5,2,3:2:0:0:
392,149,35807,1,0,3:2:0:0:
316,306,36029,1,8,3:3:0:0:
290,191,36251,1,0,3:2:0:0:
256,360,36474,1,2,3:2:0:0:
256,360,36918,1,8,3:3:0:0:
184,240,37141,1,8,3:3:0:0:
347,299,37363,6,0,L|357:192,1,107.999996704102,2|0,3:2|0:0,0:0:0:0:
408,352,37807,2,0,B|464:339|464:339|512:355,1,107.999996704102,8|0,3:3|0:0,0:0:0:0:
347,84,38252,2,0,L|356:191,1,107.999996704102,2|0,3:2|0:0,0:0:0:0:
245,315,38696,2,0,B|295:322|295:322|347:299,1,107.999996704102,8|0,3:3|0:0,0:0:0:0:
173,360,39141,6,0,L|66:344,1,107.999996704102,2|0,3:2|0:2,0:0:0:0:
285,240,39585,2,0,L|178:224,1,107.999996704102,8|0,3:3|0:0,0:0:0:0:
397,120,40029,1,2,3:2:0:0:
397,120,40252,1,0,3:2:0:0:
291,104,40474,1,8,3:3:0:0:
199,162,40696,1,0,3:2:0:0:
296,32,40918,6,0,L|511:13,1,215.999993408203,2|8,3:2|0:3,0:0:0:0:
435,164,41585,1,0,3:2:0:0:
411,167,41696,1,0,3:2:0:0:
387,169,41807,1,2,3:2:0:0:
291,104,42029,1,0,3:2:0:0:
403,240,42252,1,8,3:3:0:0:
370,97,42474,1,0,3:2:0:0:
254,232,42696,5,2,3:2:0:0:
254,232,43141,1,8,3:3:0:0:
176,159,43363,1,8,3:3:0:0:
70,150,43585,1,2,3:2:0:0:
70,150,44029,1,8,3:3:0:0:
131,62,44252,1,0,3:2:0:0:
271,107,44474,6,0,L|382:97,1,107.999996704102,2|0,3:2|0:0,0:0:0:0:
475,144,44918,1,8,3:3:0:0:
386,204,45141,2,0,L|279:195,1,107.999996704102,0|2,3:2|0:0,0:0:0:0:
278,194,45585,1,0,3:2:0:0:
168,152,45807,1,8,3:3:0:0:
176,280,46029,1,0,3:2:0:0:
203,277,46140,1,0,3:2:0:0:
230,275,46251,5,2,3:2:0:0:
352,200,46474,1,0,3:2:0:0:
280,328,46696,1,8,3:3:0:0:
400,320,46918,2,0,L|535:331,1,107.999996704102,0|0,3:2|0:0,0:0:0:0:
507,329,47363,1,0,3:2:0:0:
458,213,47585,1,8,3:3:0:0:
317,248,47807,1,0,3:2:0:0:
290,245,47918,1,0,3:2:0:0:
263,243,48029,5,2,3:2:0:0:
175,182,48252,1,0,3:2:0:0:
144,79,48474,1,8,3:3:0:0:
261,160,48696,2,0,L|314:167,2,53.9999983520508,0|0|0,3:2|3:0|3:0,0:0:0:0:
432,192,49141,1,0,3:2:0:0:
424,213,49252,1,0,3:0:0:0:
417,235,49363,1,8,3:3:0:0:
319,330,49585,1,0,3:2:0:0:
340,338,49696,1,0,3:2:0:0:
362,345,49807,6,0,L|489:333,2,107.999996704102,2|0|8,3:2|0:0|3:3,0:0:0:0:
362,345,50474,1,0,3:2:0:0:
359,319,50585,1,0,3:2:0:0:
358,292,50696,1,2,3:2:0:0:
325,192,50918,1,0,3:2:0:0:
245,120,51141,1,8,3:3:0:0:
133,248,51363,1,0,3:2:0:0:
123,230,51474,1,0,3:0:0:0:
112,213,51585,6,0,P|89:131|127:-20,1,215.999993408203,2|8,3:2|0:3,0:0:0:0:
189,192,52252,1,0,3:2:0:0:
218,190,52363,1,0,3:2:0:0:
245,190,52474,1,2,3:2:0:0:
349,218,52696,1,0,3:2:0:0:
411,307,52918,1,8,3:3:0:0:
341,136,53141,1,8,3:3:0:0:
325,128,53252,1,0,3:0:0:0:
309,120,53363,6,0,P|220:107|131:121,1,180,2|8,3:2|0:3,0:0:0:0:
28,38,54029,1,0,3:2:0:0:
26,67,54140,1,0,3:2:0:0:
26,94,54252,1,0,3:2:0:0:
54,198,54473,1,0,3:0:0:0:
143,260,54696,1,8,3:3:0:0:
116,109,54918,1,2,3:2:0:0:
92,118,55029,1,0,3:2:0:0:
72,117,55141,6,0,P|28:119|-13:148,1,72,2|0,3:2|0:2,0:0:0:0:
205,171,55585,2,0,P|161:169|121:138,1,72,8|0,3:3|0:2,0:0:0:0:
328,104,56029,2,0,P|293:104|261:120,1,72,2|0,3:2|0:2,0:0:0:0:
456,192,56474,2,0,P|421:192|389:177,1,72,8|0,3:3|3:2,0:0:0:0:
368,160,56807,1,0,3:2:0:0:
369,185,56918,5,2,3:2:0:0:
466,66,57141,2,0,P|452:78|441:92,1,36,0|0,3:2|3:0,0:0:0:0:
465,255,57363,2,0,P|450:244|438:230,1,36,8|0,3:3|3:0,0:0:0:0:
443,43,57585,6,0,P|429:55|418:69,1,36,2|0,3:2|3:0,0:0:0:0:
441,279,57807,2,0,P|427:266|416:252,1,36,8|0,3:3|3:0,0:0:0:0:
369,130,58029,1,0,3:2:0:0:
338,121,58141,1,0,3:0:0:0:
307,122,58251,1,8,3:3:0:0:
304,270,58473,1,2,3:2:0:0:
338,273,58585,1,0,3:2:0:0:
395,230,58696,6,0,P|330:201|240:230,1,144,6|0,1:2|0:2,0:0:0:0:
318,319,59141,1,8,0:2:0:0:
463,325,59363,2,0,P|502:277|503:190,2,144,0|2|0,0:2|0:2|0:2,0:0:0:0:
494,129,60029,1,8,0:2:0:0:
372,50,60252,1,0,0:2:0:0:
261,208,60474,6,0,P|194:231|125:215,1,144,2|0,0:2|0:2,0:0:0:0:
21,116,60918,1,8,0:2:0:0:
125,17,61141,2,0,P|209:3|281:41,2,144,0|2|0,0:2|0:2|0:2,0:0:0:0:
190,137,61807,1,8,0:2:0:0:
328,116,62029,1,0,0:2:0:0:
125,215,62252,6,0,P|95:159|94:73,1,144,2|0,0:2|0:2,0:0:0:0:
236,281,62696,2,0,P|172:283|97:325,1,144,8|0,0:2|0:2,0:0:0:0:
238,152,63141,1,2,0:2:0:0:
238,152,63585,1,8,0:2:0:0:
356,89,63807,1,0,0:2:0:0:
257,255,64029,5,2,0:2:0:0:
228,121,64252,1,0,0:2:0:0:
348,297,64474,1,8,0:2:0:0:
212,329,64697,1,0,0:2:0:0:
335,146,64918,1,2,0:2:0:0:
335,146,65141,5,0,0:2:0:0:
431,206,65363,1,2,0:2:0:0:
454,316,65585,1,2,0:2:0:0:
468,118,65807,6,0,P|407:99|324:111,1,144,6|0,0:2|0:2,0:0:0:0:
250,230,66252,1,8,0:2:0:0:
171,109,66474,2,0,P|100:98|32:118,2,144,0|2|0,0:2|0:2|0:2,0:0:0:0:
8,40,67141,1,8,0:2:0:0:
0,192,67363,1,0,0:2:0:0:
40,328,67585,6,0,P|110:338|179:319,1,144,2|0,0:2|0:2,0:0:0:0:
296,240,68029,1,8,0:2:0:0:
183,151,68252,2,0,P|157:85|164:14,2,144,0|2|0,0:2|0:2|0:2,0:0:0:0:
336,15,68918,1,8,0:2:0:0:
336,152,69140,1,0,0:2:0:0:
256,272,69363,6,0,P|198:294|104:272,1,144,2|0,0:2|0:2,0:0:0:0:
316,174,69807,1,8,0:2:0:0:
379,316,70029,1,2,0:2:0:0:
354,98,70252,2,0,P|412:76|506:98,1,144,2|0,0:2|0:2,0:0:0:0:
348,243,70696,1,8,0:2:0:0:
272,80,70918,1,2,0:2:0:0:
256,256,71141,5,2,0:2:0:0:
408,192,71363,1,0,0:2:0:0:
208,192,71585,1,8,0:2:0:0:
144,40,71807,1,0,0:2:0:0:
48,232,72029,1,2,0:2:0:0:
48,232,72252,5,2,0:2:0:0:
146,287,72474,1,2,0:2:0:0:
257,264,72696,1,2,0:2:0:0:
163,30,72918,6,0,P|154:105|173:179,1,153.000002918243,6|0,0:2|0:2,0:0:0:0:
206,220,73252,1,0,0:2:0:0:
243,181,73363,2,0,P|309:168|394:180,1,153.000002918243,8|0,0:2|0:2,0:0:0:0:
440,154,73696,1,0,0:0:0:0:
390,129,73807,2,0,P|324:119|239:134,1,153.000002918243,2|0,0:2|0:2,0:0:0:0:
387,28,74252,1,8,0:2:0:0:
512,134,74474,1,0,0:2:0:0:
499,186,74585,1,0,0:2:0:0:
469,230,74696,6,0,P|415:270|327:294,1,153.000002918243,2|0,0:2|0:2,0:0:0:0:
279,287,75029,1,0,0:2:0:0:
225,281,75141,2,0,P|120:274|24:327,1,153.000002918243,8|0,0:2|0:2,0:0:0:0:
27,311,75474,1,0,0:0:0:0:
12,259,75585,2,0,P|4:155|17:83,1,153.000002918243,2|0,0:2|0:2,0:0:0:0:
168,160,76029,1,8,0:2:0:0:
224,286,76252,1,0,0:2:0:0:
256,193,76474,5,0,0:0:0:0:
192,128,76696,1,0,0:2:0:0:
165,136,76807,1,0,0:2:0:0:
140,133,76918,1,2,0:2:0:0:
224,40,77141,1,0,0:2:0:0:
249,37,77252,1,0,0:2:0:0:
276,45,77363,1,2,0:2:0:0:
419,108,77585,2,0,P|429:75|447:47,2,67.5000025749208,0|0|2,0:2|0:2|0:2,0:0:0:0:
392,216,78029,2,0,P|381:248|363:276,2,67.5000025749208,0|0|2,0:2|0:2|0:2,0:0:0:0:
457,349,78474,5,0,0:2:0:0:
350,368,78696,1,2,0:2:0:0:
256,312,78918,2,0,P|241:292|226:244,2,67.5000025749208,0|0|2,0:2|0:2|0:3,0:0:0:0:
176,352,79363,1,2,0:2:0:0:
66,278,79585,1,8,3:2:0:0:
95,269,79696,1,0,3:2:0:0:
128,272,79807,1,0,3:2:0:0:
32,208,80029,5,2,0:2:0:0:
160,192,80252,1,0,0:2:0:0:
190,178,80363,1,0,0:2:0:0:
210,155,80474,1,8,0:2:0:0:
352,192,80696,1,0,0:2:0:0:
322,178,80807,1,0,0:2:0:0:
302,155,80918,1,2,0:2:0:0:
368,296,81141,1,0,0:2:0:0:
384,263,81252,1,0,0:2:0:0:
409,241,81363,1,8,0:2:0:0:
112,248,81585,1,0,0:2:0:0:
143,227,81696,1,0,0:2:0:0:
176,221,81807,5,2,0:2:0:0:
235,366,82029,1,0,0:2:0:0:
211,339,82140,1,0,0:2:0:0:
177,322,82251,1,8,0:2:0:0:
352,192,82474,1,0,0:2:0:0:
327,222,82585,1,0,0:2:0:0:
289,240,82696,1,2,0:2:0:0:
464,222,82918,1,0,0:2:0:0:
467,174,83029,1,0,0:2:0:0:
452,134,83140,1,8,0:2:0:0:
476,309,83363,1,0,0:2:0:0:
434,325,83474,1,0,0:2:0:0:
403,364,83585,5,2,0:2:0:0:
368,343,83696,1,0,0:2:0:0:
329,334,83807,1,2,0:2:0:0:
288,342,83918,1,0,0:0:0:0:
258,377,84029,5,8,0:2:0:0:
238,338,84140,1,0,0:2:0:0:
206,310,84251,1,0,0:2:0:0:
166,295,84362,1,0,0:0:0:0:
125,316,84474,5,8,0:2:0:0:
127,270,84585,1,0,0:2:0:0:
113,230,84696,1,2,0:2:0:0:
83,194,84807,1,0,0:0:0:0:
41,187,84918,5,2,0:2:0:0:
66,147,85029,1,0,0:2:0:0:
75,103,85140,1,0,0:2:0:0:
66,55,85251,1,0,0:0:0:0:
32,16,85363,5,2,0:2:0:0:
79,31,85474,1,0,0:0:0:0:
127,44,85585,2,0,P|159:45|206:37,1,67.5000025749208,0|0,3:2|0:2,0:0:0:0:
256,168,85807,5,8,0:2:0:0:
204,184,85918,1,0,0:0:0:0:
152,198,86029,2,0,P|120:199|73:191,1,67.5000025749208,2|0,0:3|0:2,0:0:0:0:
411,334,86252,6,0,P|376:313|353:280,1,80.9999975280763,2|0,3:2|0:0,0:0:0:0:
479,117,86474,2,0,P|477:158|460:194,1,80.9999975280763,2|0,3:2|0:0,0:0:0:0:
256,168,86696,2,0,P|291:149|331:146,1,80.9999975280763,8|0,3:2|0:0,0:0:0:0:
256,320,86918,1,2,0:2:0:0:
188,326,87029,1,2,0:2:0:0:
123,332,87141,5,4,0:2:0:0:
296,192,94252,6,0,B|256:176|256:176|184:192,1,107.999996704102,2|0,0:3|0:0,0:0:0:0:
385,242,94696,1,2,0:3:0:0:
384,139,94918,1,0,0:3:0:0:
435,49,95141,1,0,0:3:0:0:
475,191,95363,1,0,0:3:0:0:
385,242,95586,1,0,0:3:0:0:
282,241,95808,1,0,0:3:0:0:
483,328,96029,5,2,0:3:0:0:
301,311,96252,1,0,0:3:0:0:
337,314,96363,1,0,0:3:0:0:
374,318,96474,1,0,0:3:0:0:
228,304,96696,1,0,0:3:0:0:
410,321,96918,1,2,0:3:0:0:
265,308,97141,1,0,0:3:0:0:
374,318,97363,1,0,0:3:0:0:
483,328,97585,1,0,0:3:0:0:
483,328,97807,5,2,0:3:0:0:
439,230,98030,1,0,0:3:0:0:
483,132,98252,1,0,0:3:0:0:
377,339,98474,5,2,0:3:0:0:
333,241,98697,1,0,0:3:0:0:
377,143,98919,1,0,0:3:0:0:
271,350,99140,5,2,0:3:0:0:
227,252,99363,1,0,0:3:0:0:
270,152,99585,1,0,0:3:0:0:
165,361,99807,5,2,0:3:0:0:
121,263,100030,1,0,0:3:0:0:
165,165,100252,1,0,0:3:0:0:
59,351,100474,6,0,P|48:288|8:216,1,135,2|0,0:3|0:0,0:0:0:0:
0,216,100918,1,2,0:3:0:0:
121,263,101141,1,0,0:3:0:0:
45,95,101363,6,0,P|91:68|144:54,1,107.999996704102,2|0,0:2|0:2,0:0:0:0:
133,159,101807,1,0,0:2:0:0:
121,263,102029,2,0,P|173:249|220:222,1,107.999996704102,0|0,0:2|0:2,0:0:0:0:
220,222,102474,1,0,0:2:0:0:
217,258,102585,1,0,0:2:0:0:
214,294,102696,1,0,0:2:0:0:
320,208,102918,2,0,L|330:97,1,107.999996704102,0|2,0:2|0:2,0:0:0:0:
329,100,103363,5,0,0:2:0:0:
293,103,103474,1,0,0:2:0:0:
257,106,103585,1,0,0:2:0:0:
401,94,103807,1,0,0:2:0:0:
452,182,104029,1,0,0:2:0:0:
454,285,104252,1,0,0:2:0:0:
350,182,104474,1,0,0:2:0:0:
248,181,104696,1,0,0:2:0:0:
401,94,104918,6,0,L|536:82,1,107.999996704102,2|0,0:2|0:2,0:0:0:0:
350,182,105363,1,0,0:2:0:0:
299,270,105585,2,0,L|163:281,1,107.999996704102,0|0,0:2|0:0,0:0:0:0:
191,279,106029,1,0,0:2:0:0:
120,205,106252,1,0,0:2:0:0:
94,107,106474,1,0,0:2:0:0:
49,277,106696,5,2,0:2:0:0:
184,290,106919,1,0,0:2:0:0:
149,286,107030,1,0,0:2:0:0:
113,283,107141,1,0,0:2:0:0:
255,297,107362,1,0,0:0:0:0:
328,224,107585,1,0,0:2:0:0:
352,125,107807,1,0,0:2:0:0:
425,247,108029,1,2,0:2:0:0:
290,160,108252,1,2,0:2:0:0:
488,192,108474,5,6,0:2:0:0:
392,328,108696,1,0,0:2:0:0:
359,324,108807,1,0,0:2:0:0:
328,320,108918,2,0,L|199:309,1,107.999996704102,2|0,0:2|0:2,0:0:0:0:
187,307,109252,1,0,0:0:0:0:
201,335,109363,1,2,0:2:0:0:
72,240,109585,1,0,0:2:0:0:
105,236,109696,1,0,0:2:0:0:
136,232,109807,2,0,L|264:221,1,107.999996704102,2|0,0:2|0:2,0:0:0:0:
128,328,110252,5,0,0:2:0:0:
39,244,110474,2,0,B|23:204|23:204|32:139,1,107.999996704102,0|2,0:2|0:2,0:0:0:0:
136,88,110918,2,0,B|152:128|152:128|142:192,1,107.999996704102,0|2,0:2|0:2,0:0:0:0:
104,24,111363,1,2,0:2:0:0:
205,37,111585,1,0,0:2:0:0:
286,103,111808,1,0,0:2:0:0:
488,16,112029,6,0,L|344:28,1,107.999996704102,2|0,0:2|0:2,0:0:0:0:
328,160,112474,2,0,L|197:99,1,107.999996704102,2|0,0:2|0:2,0:0:0:0:
264,320,112918,2,0,L|181:202,1,107.999996704102,2|0,0:2|0:2,0:0:0:0:
88,304,113363,1,0,0:2:0:0:
78,196,113585,1,0,0:2:0:0:
24,368,113807,5,2,0:0:0:0:
161,291,114029,1,0,0:2:0:0:
196,294,114140,1,0,0:2:0:0:
232,297,114251,1,0,0:2:0:0:
336,280,114474,1,0,0:2:0:0:
400,192,114696,1,0,0:2:0:0:
400,192,114918,5,2,2:2:0:0:
368,280,115141,1,2,2:2:0:0:
408,368,115363,1,2,2:2:0:0:
192,320,115585,6,0,P|168:248|184:176,1,144,6|0,1:2|0:2,0:0:0:0:
272,72,116029,1,8,0:2:0:0:
136,120,116252,2,0,P|64:128|-24:96,2,144,0|2|0,0:2|0:2|0:2,0:0:0:0:
0,32,116918,1,8,0:2:0:0:
136,8,117141,1,0,0:2:0:0:
256,112,117363,6,0,P|328:120|416:104,1,144,2|0,0:2|0:2,0:0:0:0:
256,16,117807,1,8,0:2:0:0:
151,119,118029,2,0,P|132:216|160:296,2,144,0|2|0,0:2|0:2|0:2,0:0:0:0:
229,201,118696,2,0,P|288:219|376:208,1,144,8|0,0:2|0:2,0:0:0:0:
217,302,119141,5,2,3:2:0:0:
136,241,119363,1,0,3:2:0:0:
37,261,119585,1,8,3:2:0:0:
174,314,119807,1,0,3:2:0:0:
177,272,119918,1,0,3:2:0:0:
181,230,120029,1,2,3:2:0:0:
170,356,120252,1,0,3:2:0:0:
87,261,120474,1,8,3:2:0:0:
100,135,120696,1,0,3:2:0:0:
81,337,120918,5,2,3:2:0:0:
242,293,121141,1,0,3:2:0:0:
91,233,121363,1,8,3:2:0:0:
47,72,121586,1,0,3:2:0:0:
0,289,121807,1,2,3:2:0:0:
0,289,122029,5,2,0:2:0:0:
91,233,122251,1,2,0:2:0:0:
193,257,122474,1,2,0:2:0:0:
60,132,122696,6,0,P|54:46|70:-16,1,144,6|0,1:2|0:2,0:0:0:0:
199,120,123141,1,8,0:2:0:0:
320,40,123363,2,0,P|396:23|471:58,2,144,0|2|0,0:2|0:2|0:2,0:0:0:0:
496,112,124029,1,8,0:2:0:0:
400,224,124252,1,0,0:2:0:0:
256,128,124474,6,0,P|186:111|116:126,1,144,2|0,0:2|0:2,0:0:0:0:
24,232,124918,1,8,0:2:0:0:
116,342,125141,2,0,P|186:359|256:344,2,144,0|2|0,0:2|0:2|0:2,0:0:0:0:
256,236,125807,1,8,0:2:0:0:
395,274,126029,1,0,0:2:0:0:
256,368,126252,5,2,3:2:0:0:
224,240,126474,1,0,3:2:0:0:
296,136,126696,1,8,3:2:0:0:
310,277,126918,1,0,3:2:0:0:
256,272,127029,1,0,3:2:0:0:
202,267,127140,1,2,3:2:0:0:
364,282,127363,1,0,3:2:0:0:
445,178,127585,1,8,3:2:0:0:
421,53,127807,1,0,3:2:0:0:
464,280,128029,5,2,3:2:0:0:
320,176,128252,1,0,3:2:0:0:
384,368,128474,1,8,3:2:0:0:
416,200,128697,1,0,3:2:0:0:
256,368,128918,1,2,3:2:0:0:
256,368,129141,5,2,0:2:0:0:
256,256,129363,1,8,0:2:0:0:
192,168,129585,1,2,0:2:0:0:
304,376,129807,6,0,P|312:295|286:216,1,125.999996154785,6|0,0:2|0:2,0:0:0:0:
221,155,130252,1,8,0:2:0:0:
345,175,130474,2,0,P|449:170|499:147,2,125.999996154785,0|2|0,0:2|0:2|0:2,0:0:0:0:
256,264,131141,1,8,0:2:0:0:
176,160,131363,6,0,P|72:165|22:188,2,125.999996154785,0|2|0,0:2|0:2|0:2,0:0:0:0:
144,40,132029,1,8,0:2:0:0:
256,112,132252,2,0,P|251:216|208:280,2,125.999996154785,0|2|0,0:2|0:2|0:2,0:0:0:0:
323,258,132918,1,8,0:2:0:0:
175,302,133141,1,2,0:2:0:0:
368,336,133363,5,2,0:2:0:0:
440,192,133585,2,0,P|480:272|480:344,1,125.999996154785,0|2,0:2|0:2,0:0:0:0:
296,192,134029,2,0,P|256:272|256:344,1,125.999996154785,0|2,0:2|0:2,0:0:0:0:
336,120,134474,1,0,0:2:0:0:
216,96,134696,1,8,0:2:0:0:
368,192,134918,6,0,P|448:186|504:160,1,125.999996154785,0|2,0:2|0:2,0:0:0:0:
376,288,135363,1,0,0:2:0:0:
256,264,135585,1,8,0:2:0:0:
112,352,135807,2,0,P|84:276|88:216,1,125.999996154785,0|2,0:2|0:2,0:0:0:0:
176,144,136252,1,0,0:2:0:0:
96,16,136474,1,8,3:2:0:0:
69,13,136585,1,0,3:2:0:0:
42,11,136696,1,0,3:2:0:0:
224,16,136918,5,2,0:2:0:0:
342,156,137141,1,0,0:2:0:0:
332,117,137252,1,0,0:2:0:0:
340,78,137363,1,2,0:2:0:0:
444,238,137585,1,0,0:2:0:0:
454,198,137696,1,0,0:2:0:0:
446,161,137807,1,2,0:2:0:0:
342,320,138030,1,0,0:2:0:0:
332,280,138141,1,0,0:2:0:0:
340,243,138252,1,2,0:2:0:0:
268,374,138474,1,0,0:2:0:0:
237,347,138585,1,0,0:2:0:0:
193,334,138696,5,2,0:2:0:0:
54,337,138918,1,0,0:2:0:0:
27,306,139029,1,0,0:2:0:0:
14,262,139140,1,2,0:2:0:0:
174,169,139363,1,0,0:2:0:0:
160,215,139474,1,0,0:2:0:0:
131,249,139585,1,2,0:2:0:0:
54,105,139807,1,0,0:2:0:0:
25,72,139918,1,0,0:2:0:0:
11,25,140029,1,2,0:2:0:0:
75,199,140252,1,0,0:2:0:0:
115,217,140363,1,0,0:2:0:0:
163,209,140474,5,2,0:2:0:0:
131,249,140585,1,0,0:2:0:0:
115,297,140696,1,2,0:2:0:0:
123,345,140807,1,0,0:0:0:0:
176,376,140918,5,8,0:2:0:0:
218,342,141029,1,0,0:2:0:0:
272,328,141140,1,0,0:2:0:0:
319,334,141251,1,0,0:0:0:0:
378,360,141363,5,8,0:2:0:0:
363,305,141474,1,0,0:2:0:0:
369,250,141585,1,2,0:2:0:0:
398,205,141696,1,0,0:0:0:0:
434,141,141807,5,2,0:0:0:0:
376,166,141918,1,0,0:2:0:0:
313,170,142029,1,0,0:2:0:0:
258,144,142141,1,0,0:0:0:0:
224,88,142252,5,2,0:2:0:0:
232,128,142363,1,0,0:0:0:0:
240,168,142474,2,0,P|241:213|224:280,1,72,0|0,3:0|0:2,0:0:0:0:
80,344,142696,1,8,0:2:0:0:
120,336,142807,1,0,0:0:0:0:
160,328,142918,2,0,P|206:328|256:344,1,72,2|0,3:2|0:0,0:0:0:0:
111,183,143141,6,0,P|68:176|12:144,1,90,2|0,3:2|0:0,3:0:0:0:
277,131,143363,2,0,P|243:104|211:48,1,90,2|0,3:2|0:0,3:0:0:0:
446,168,143585,2,0,P|430:128|430:63,1,90,2|0,3:2|0:0,3:0:0:0:
372,339,143807,1,2,3:2:0:0:
300,350,143918,1,0,3:2:0:0:
231,333,144029,5,4,0:2:0:0:
