osu file format v14

[General]
AudioFilename: audio.mp3
AudioLeadIn: 0
PreviewTime: 58029
Countdown: 0
SampleSet: Soft
StackLeniency: 0.6
Mode: 0
LetterboxInBreaks: 0
WidescreenStoryboard: 1

[Editor]
Bookmarks: 58696,72918
DistanceSpacing: 1.5
BeatDivisor: 4
GridSize: 8
TimelineZoom: 1.1

[Metadata]
Title:saika in Another Style
TitleUnicode:彩華 in Another Style
Artist:himmeltengoku
ArtistUnicode:himmeltengoku
Creator:Sulfur
Version:Finshie's Hard
Source:
Tags:rayark rhythm game cytus rabpit su1fu7 finshie xilver
BeatmapID:1407223
BeatmapSetID:657543

[Difficulty]
HPDrainRate:5
CircleSize:3.8
OverallDifficulty:7
ApproachRate:8
SliderMultiplier:1.5
SliderTickRate:1

[Events]
//Background and Video events
0,0,"1482992298629.png",0,0
//Break Periods
2,87341,93502
//Storyboard Layer 0 (Background)
//Storyboard Layer 1 (Fail)
//Storyboard Layer 2 (Pass)
//Storyboard Layer 3 (Foreground)
//Storyboard Sound Samples

[TimingPoints]
30,444.444444444444,4,2,1,50,1,0
30,-125,4,2,1,50,0,0
7141,-125,4,3,2,50,0,0
8474,-125,4,2,1,50,0,0
12474,-125,4,2,2,60,0,0
16029,-100,4,2,2,70,0,0
30252,-125,4,2,2,50,0,0
55141,-125,4,2,2,60,0,0
58696,-90.9090909090909,4,2,2,60,0,0
72918,-83.3333333333333,4,2,2,70,0,0
87141,-125,4,2,2,70,0,0
94252,-125,4,3,2,60,0,0
108474,-111.111111111111,4,3,2,60,0,0
115585,-90.9090909090908,4,2,2,70,0,0
129807,-100,4,2,2,70,0,0

[Colours]
Combo1 : 175,175,97
Combo2 : 255,128,192
Combo3 : 140,140,198
Combo4 : 62,255,158

[HitObjects]
274,46,1141,5,0,0:0:0:0:
300,119,1363,1,0,0:0:0:0:
283,195,1585,1,0,0:0:0:0:
189,287,1807,6,0,P|237:273|309:297,1,120,4|2,0:2|0:2,0:0:0:0:
368,334,2474,2,0,P|354:286|378:214,1,120,0|0,0:2|0:2,0:0:0:0:
409,150,3141,1,2,0:2:0:0:
505,69,3363,6,0,L|374:69,1,120,0|0,0:0|0:0,0:0:0:0:
322,22,4029,1,2,0:2:0:0:
244,29,4252,2,0,L|124:37,1,120,0|0,0:2|0:2,0:0:0:0:
149,110,4918,1,2,0:2:0:0:
129,185,5141,1,0,0:2:0:0:
32,265,5363,6,0,P|114:258|154:270,1,120,0|2,0:2|0:2,0:0:0:0:
214,310,6029,2,0,P|272:319|331:306,1,120,0|0,0:2|0:2,0:0:0:0:
400,268,6696,1,2,0:2:0:0:
499,117,7141,5,0,3:2:0:0:
432,75,7363,2,0,L|433:20,2,30,0|0|2,3:2|3:2|3:3,0:0:0:0:
354,85,7807,1,0,3:0:0:0:
307,147,8029,2,0,L|181:137,1,120,0|2,3:2|0:2,0:0:0:0:
90,56,8696,1,0,0:2:0:0:
90,56,8807,1,0,0:2:0:0:
90,56,8918,6,0,P|106:114|99:173,1,120,0|2,0:2|0:2,0:0:0:0:
52,235,9585,2,0,P|109:219|168:226,1,120,0|0,0:2|0:2,0:0:0:0:
242,251,10252,1,2,0:2:0:0:
321,354,10474,6,0,L|328:219,1,120,0|0,0:0|0:0,0:0:0:0:
398,200,11141,1,2,0:2:0:0:
394,122,11363,2,0,L|387:2,1,120,0|0,0:2|0:2,0:0:0:0:
310,18,12029,1,2,0:2:0:0:
233,34,12252,1,0,0:2:0:0:
349,110,12474,5,2,0:2:0:0:
168,136,12918,1,2,0:3:0:0:
105,183,13141,2,0,L|54:174,2,30,0|0|0,3:3|3:3|3:3,0:0:0:0:
114,260,13585,1,0,3:3:0:0:
176,308,13807,1,2,3:3:0:0:
252,297,14029,1,0,3:3:0:0:
331,209,14252,6,0,L|272:194,1,60,10|0,3:2|3:2,0:0:0:0:
164,144,14696,2,0,L|222:129,1,60,10|0,3:2|3:2,0:0:0:0:
331,79,15141,2,0,L|272:64,1,60,10|0,3:2|0:2,0:0:0:0:
197,45,15585,1,10,0:2:0:0:
98,106,15807,1,2,0:3:0:0:
98,106,15918,1,0,0:2:0:0:
98,106,16029,6,0,P|92:162|111:209,1,75,6|0,1:2|0:2,0:0:0:0:
159,243,16474,1,8,0:2:0:0:
233,192,16696,2,0,P|287:188|318:196,2,75,0|2|0,0:2|0:2|0:2,0:0:0:0:
271,273,17363,1,8,0:2:0:0:
360,264,17585,1,0,0:2:0:0:
234,347,17807,6,0,L|138:338,1,75,2|0,0:2|0:2,0:0:0:0:
70,328,18252,1,8,0:2:0:0:
127,258,18474,2,0,P|135:196|125:155,2,75,0|2|0,0:2|0:0|0:2,0:0:0:0:
47,215,19141,1,8,0:2:0:0:
66,127,19363,1,0,0:2:0:0:
127,258,19585,6,0,L|292:248,1,150,2|8,0:2|0:2,0:0:0:0:
367,246,20252,1,0,3:2:0:0:
367,246,20363,1,0,3:2:0:0:
367,246,20474,1,2,3:2:0:0:
401,66,20918,1,8,3:2:0:0:
366,320,21363,6,0,L|367:214,1,75,2|0,3:2|3:2,0:0:0:0:
428,179,21807,2,0,L|427:73,1,75,8|0,3:2|3:2,0:0:0:0:
416,83,22141,1,0,3:2:0:0:
401,66,22252,2,0,P|330:58|305:65,1,75,2|0,3:2|0:2,0:0:0:0:
243,90,22696,1,8,0:2:0:0:
164,199,22918,1,2,0:2:0:0:
164,199,23029,1,0,0:2:0:0:
164,199,23141,6,0,P|168:146|157:93,1,75,2|0,1:2|0:2,0:0:0:0:
100,62,23585,1,8,0:2:0:0:
75,154,23807,1,0,0:2:0:0:
75,154,23918,1,0,0:2:0:0:
75,154,24030,2,0,P|71:207|82:260,1,75,2|0,0:2|0:2,0:0:0:0:
106,312,24474,1,8,0:2:0:0:
203,325,24696,1,0,0:2:0:0:
203,325,24807,1,0,0:2:0:0:
203,325,24918,6,0,L|312:321,1,75,2|0,0:2|0:2,0:0:0:0:
368,319,25363,1,8,0:2:0:0:
320,242,25585,1,0,0:2:0:0:
368,165,25807,2,0,P|430:153|469:165,1,75,2|0,0:2|0:2,0:0:0:0:
416,242,26252,1,8,0:2:0:0:
320,242,26474,1,0,0:2:0:0:
320,242,26585,1,0,0:2:0:0:
320,242,26696,6,0,L|232:233,1,75,2|2,0:2|0:2,0:0:0:0:
223,231,27029,1,0,0:2:0:0:
200,228,27141,1,8,0:2:0:0:
103,169,27363,2,0,L|173:161,2,37.5,0|0|2,3:2|3:2|3:2,0:0:0:0:
164,74,27807,2,0,L|126:78,2,37.5,2|0|8,0:2|0:2|0:2,0:0:0:0:
20,55,28252,1,0,3:2:0:0:
20,55,28363,1,0,3:2:0:0:
20,55,28474,6,0,P|15:92|22:128,1,75,6|2,0:2|0:2,0:0:0:0:
103,169,28918,2,0,P|110:214|105:243,1,75,2|2,3:2|0:2,0:0:0:0:
36,301,29363,2,0,P|31:338|38:374,1,75,2|0,3:2|0:2,0:0:0:0:
118,333,29807,2,0,L|155:330,1,37.5,8|0,3:2|0:0,0:0:0:0:
193,305,30029,2,0,L|230:307,1,37.5,2|0,0:2|0:2,0:0:0:0:
266,309,30252,5,6,3:2:0:0:
395,184,30696,2,0,P|397:150|391:110,1,60,8|0,3:3|3:2,0:0:0:0:
373,55,31141,1,2,3:2:0:0:
194,32,31585,2,0,P|192:66|198:106,1,60,8|0,3:3|3:2,0:0:0:0:
216,161,32030,5,2,3:2:0:0:
43,110,32474,1,8,3:3:0:0:
207,181,32918,1,2,3:2:0:0:
52,90,33363,1,8,3:3:0:0:
198,201,33807,6,0,P|247:199|267:204,1,60,2|0,3:2|0:2,0:0:0:0:
332,221,34252,1,8,3:3:0:0:
437,361,34696,2,0,P|435:312|440:292,1,60,2|0,3:2|0:2,0:0:0:0:
457,227,35141,1,8,3:3:0:0:
507,58,35585,6,0,P|462:85|438:89,1,60,2|0,3:2|3:2,0:0:0:0:
427,159,36029,2,0,P|374:159|351:151,1,60,8|0,3:3|3:2,0:0:0:0:
295,128,36474,1,2,3:2:0:0:
127,167,36918,2,0,P|177:165|212:179,1,60,8|8,3:3|3:3,0:0:0:0:
258,196,37363,5,2,3:2:0:0:
177,39,37807,1,8,3:3:0:0:
282,182,38252,1,2,3:2:0:0:
201,25,38696,1,8,3:3:0:0:
306,168,39141,6,0,L|388:174,1,60,2|0,3:2|0:2,0:0:0:0:
443,181,39585,1,8,3:3:0:0:
264,235,40029,2,0,L|204:239,1,60,2|0,3:2|3:2,0:0:0:0:
127,248,40474,1,8,3:3:0:0:
50,258,40696,1,0,3:2:0:0:
2,141,40918,6,0,P|-4:65|15:19,1,120,2|8,3:2|0:3,0:0:0:0:
96,72,41585,1,0,3:2:0:0:
96,72,41696,1,0,3:2:0:0:
96,72,41807,2,0,P|133:76|171:71,1,60,2|0,3:2|3:2,0:0:0:0:
201,137,42252,2,0,P|235:121|265:98,1,60,8|0,3:3|3:2,0:0:0:0:
291,40,42696,5,2,3:2:0:0:
378,210,43141,2,0,L|366:296,1,60,8|8,3:3|3:3,0:0:0:0:
358,346,43585,1,2,3:2:0:0:
310,173,44029,2,0,L|298:87,1,60,8|0,3:3|3:2,0:0:0:0:
365,4,44474,6,0,P|289:31|231:19,1,120,2|8,3:2|3:3,0:0:0:0:
226,103,45141,2,0,P|171:78|112:80,1,120,0|0,3:2|3:2,0:0:0:0:
38,104,45807,1,8,3:3:0:0:
82,180,46029,1,0,3:2:0:0:
82,180,46141,1,0,3:2:0:0:
82,180,46252,6,0,L|81:262,1,60,2|0,3:2|3:2,0:0:0:0:
37,304,46696,1,8,3:3:0:0:
94,356,46918,2,0,L|222:347,1,120,0|0,3:2|3:2,0:0:0:0:
291,340,47585,1,8,3:3:0:0:
399,288,47807,1,0,3:2:0:0:
399,288,47918,1,0,3:2:0:0:
399,288,48029,6,0,P|399:229|395:210,1,60,2|0,3:2|3:2,0:0:0:0:
360,160,48474,1,8,3:3:0:0:
312,97,48696,2,0,P|378:98|433:69,1,120,0|0,3:2|3:2,0:0:0:0:
483,21,49363,1,8,3:3:0:0:
482,148,49585,1,0,3:2:0:0:
482,148,49696,1,0,3:2:0:0:
482,148,49807,6,0,L|477:286,1,120,2|8,3:2|3:3,0:0:0:0:
396,228,50474,1,0,3:2:0:0:
396,228,50585,1,0,3:2:0:0:
396,228,50696,2,0,P|344:221|316:232,1,60,2|0,3:2|3:2,0:0:0:0:
287,162,51141,2,0,P|238:181|219:205,1,60,8|0,3:3|3:2,0:0:0:0:
166,288,51585,6,0,L|22:274,1,120,2|8,3:2|0:3,0:0:0:0:
7,194,52252,1,0,3:2:0:0:
7,194,52363,1,0,3:2:0:0:
7,194,52474,2,0,L|78:187,1,60,2|0,3:2|3:2,0:0:0:0:
116,128,52918,2,0,L|175:133,1,60,8|8,3:3|3:3,0:0:0:0:
280,72,53363,6,0,P|253:128|269:205,1,120,2|8,3:2|0:3,0:0:0:0:
314,254,54029,1,0,3:2:0:0:
314,254,54141,1,0,3:2:0:0:
314,254,54252,2,0,L|389:246,1,60,0|0,3:2|0:0,0:0:0:0:
424,188,54696,2,0,L|483:194,1,60,8|2,3:3|3:2,0:0:0:0:
496,206,55029,1,0,3:2:0:0:
507,219,55141,6,0,P|501:275|491:295,1,60,2|0,3:2|0:2,0:0:0:0:
426,303,55585,2,0,P|392:348|374:360,1,60,8|0,3:3|0:2,0:0:0:0:
313,335,56029,2,0,P|261:356|239:358,1,60,2|0,3:2|0:2,0:0:0:0:
199,306,56474,2,0,P|143:300|123:290,1,60,8|0,3:3|3:2,0:0:0:0:
125,287,56807,1,0,3:2:0:0:
113,273,56918,6,0,L|102:347,1,60,2|0,3:2|3:2,0:0:0:0:
35,233,57363,2,0,L|26:173,1,60,8|2,3:3|3:2,0:0:0:0:
112,73,57807,2,0,L|104:133,1,60,8|0,3:3|3:2,0:0:0:0:
26,173,58252,1,8,3:3:0:0:
140,219,58474,1,2,3:2:0:0:
140,219,58585,1,0,3:2:0:0:
140,219,58696,6,0,P|199:227|255:214,1,82.5000025177003,6|0,1:2|0:2,0:0:0:0:
311,182,59141,1,8,0:2:0:0:
385,246,59363,2,0,P|392:291|383:338,2,82.5000025177003,0|2|0,0:2|0:2|0:2,0:0:0:0:
311,182,60029,1,8,0:2:0:0:
403,145,60252,1,0,0:2:0:0:
241,111,60474,6,0,L|146:107,1,82.5000025177003,2|0,0:2|0:2,0:0:0:0:
77,51,60918,1,8,0:2:0:0:
21,133,61141,2,0,L|32:242,2,82.5000025177003,0|2|0,0:2|0:2|0:2,0:0:0:0:
77,51,61807,1,8,0:2:0:0:
158,107,62029,1,0,0:2:0:0:
29,215,62252,6,0,P|24:264|37:326,1,82.5000025177003,2|0,0:2|0:2,0:0:0:0:
126,286,62696,2,0,P|146:330|188:378,1,82.5000025177003,8|0,0:2|0:2,0:0:0:0:
245,298,63141,2,0,P|284:326|345:346,1,82.5000025177003,2|0,0:2|0:0,0:0:0:0:
354,248,63585,1,8,0:2:0:0:
452,248,63807,1,0,0:2:0:0:
304,174,64029,6,0,L|205:167,1,82.5000025177003,2|0,0:2|0:2,0:0:0:0:
160,89,64474,2,0,L|77:94,1,82.5000025177003,8|0,0:2|0:2,0:0:0:0:
57,108,64807,1,0,0:0:0:0:
40,127,64918,2,0,P|34:186|51:224,1,82.5000025177003,2|0,0:2|0:2,0:0:0:0:
126,256,65363,2,0,P|135:295|126:336,1,82.5000025177003,2|2,0:2|0:2,0:0:0:0:
115,357,65696,1,0,0:0:0:0:
98,375,65807,6,0,P|150:364|206:374,1,82.5000025177003,6|0,0:2|0:2,0:0:0:0:
240,288,66252,1,8,0:2:0:0:
328,331,66474,2,0,P|380:342|436:332,2,82.5000025177003,0|2|0,0:2|0:2|0:2,0:0:0:0:
240,288,67141,1,8,0:2:0:0:
234,189,67363,1,0,0:2:0:0:
347,68,67585,6,0,P|311:89|270:94,1,82.5000025177003,2|0,0:2|0:2,0:0:0:0:
174,70,68029,1,8,0:2:0:0:
88,120,68252,2,0,P|80:166|98:221,2,82.5000025177003,0|2|0,0:2|0:2|0:2,0:0:0:0:
174,70,68918,1,8,0:2:0:0:
270,94,69141,1,0,0:2:0:0:
358,232,69363,6,0,L|450:222,1,82.5000025177003,2|0,0:2|0:2,0:0:0:0:
495,141,69807,1,8,0:2:0:0:
480,43,70029,1,2,0:2:0:0:
388,3,70252,2,0,L|305:11,1,82.5000025177003,2|0,0:2|0:2,0:0:0:0:
251,94,70696,1,8,0:2:0:0:
266,192,70918,1,2,0:2:0:0:
425,146,71141,6,0,P|366:130|331:136,1,82.5000025177003,2|0,0:2|0:2,0:0:0:0:
266,192,71585,2,0,P|227:206|186:205,1,82.5000025177003,8|0,0:2|0:2,0:0:0:0:
162,199,71918,1,0,0:0:0:0:
139,187,72029,2,0,L|149:277,1,82.5000025177003,2|2,0:2|0:2,0:0:0:0:
58,183,72474,2,0,L|67:101,1,82.5000025177003,2|2,0:2|0:2,0:0:0:0:
88,88,72807,1,0,0:0:0:0:
113,80,72918,6,0,P|177:73|215:87,1,89.9999972534181,6|0,0:2|0:2,0:0:0:0:
225,90,73252,1,0,0:2:0:0:
247,105,73363,1,8,0:2:0:0:
332,170,73585,2,0,P|375:178|419:170,1,89.9999972534181,0|2,0:2|0:2,0:0:0:0:
510,111,74029,2,0,L|512:45,2,44.999998626709,0|0|8,0:2|0:0|0:2,0:0:0:0:
428,177,74474,1,0,0:2:0:0:
428,177,74585,1,0,0:2:0:0:
428,177,74696,6,0,L|431:293,1,89.9999972534181,2|0,0:2|0:2,0:0:0:0:
431,293,75029,1,0,0:2:0:0:
432,320,75141,1,8,0:2:0:0:
329,286,75363,2,0,P|269:271|216:293,1,89.9999972534181,0|2,0:2|0:2,0:0:0:0:
146,324,75807,2,0,L|142:385,2,44.999998626709,0|0|8,0:2|0:0|0:2,0:0:0:0:
251,285,76252,1,0,0:2:0:0:
251,285,76363,1,0,0:0:0:0:
251,285,76474,6,0,L|244:181,1,89.9999972534181,0|0,0:0|0:2,0:0:0:0:
243,168,76807,1,0,0:2:0:0:
241,141,76918,1,2,0:2:0:0:
330,39,77141,2,0,L|282:45,2,44.999998626709,0|0|2,0:2|0:2|0:2,0:0:0:0:
397,122,77585,2,0,L|352:127,2,44.999998626709,0|0|2,0:2|0:2|0:2,0:0:0:0:
464,205,78029,1,0,0:2:0:0:
464,205,78140,1,0,0:2:0:0:
464,205,78251,6,0,P|479:256|475:312,1,89.9999972534181,2|0,0:2|0:2,0:0:0:0:
473,318,78584,1,0,0:0:0:0:
466,344,78695,1,2,0:2:0:0:
337,346,78918,2,0,L|292:348,2,44.999998626709,0|0|2,0:2|0:2|0:3,0:0:0:0:
195,384,79363,2,0,P|192:337|206:289,1,89.9999972534181,2|8,0:2|3:2,0:0:0:0:
217,273,79696,1,0,3:2:0:0:
236,254,79807,1,0,3:2:0:0:
298,130,80029,6,0,P|258:156|210:167,1,89.9999972534181,2|0,0:2|0:2,0:0:0:0:
191,166,80362,1,0,0:2:0:0:
165,159,80473,1,8,0:2:0:0:
41,95,80696,2,0,P|64:133|67:153,2,44.999998626709,0|0|2,0:2|0:2|0:2,0:0:0:0:
98,213,81141,2,0,P|98:257|91:276,2,44.999998626709,0|0|8,0:2|0:2|0:2,0:0:0:0:
88,343,81585,2,0,P|66:381|50:394,2,44.999998626709,0|0|2,0:2|0:2|0:2,0:0:0:0:
190,255,82029,5,0,0:2:0:0:
190,255,82141,1,0,0:2:0:0:
190,255,82252,2,0,P|247:250|281:260,1,89.9999972534181,8|0,0:2|0:2,0:0:0:0:
370,313,82696,1,2,0:2:0:0:
426,193,82918,1,0,0:2:0:0:
426,193,83030,1,0,0:2:0:0:
426,193,83141,2,0,P|369:198|335:187,1,89.9999972534181,8|0,0:2|0:2,0:0:0:0:
235,101,83585,6,0,L|238:52,2,44.999998626709,2|0|2,0:2|0:2|0:2,0:0:0:0:
153,138,84029,2,0,L|143:89,2,44.999998626709,8|0|0,0:2|0:2|0:2,0:0:0:0:
83,194,84474,2,0,L|61:150,2,44.999998626709,8|0|2,0:2|0:2|0:2,0:0:0:0:
29,266,84918,2,0,L|-4:229,2,44.999998626709,2|0|0,0:2|0:2|0:2,0:0:0:0:
81,339,85363,6,0,P|134:346|177:335,1,89.9999972534181,2|0,0:2|3:2,0:0:0:0:
191,323,85696,1,0,0:2:0:0:
212,307,85807,2,0,P|256:299|301:307,1,89.9999972534181,8|2,0:2|0:3,0:0:0:0:
322,322,86141,1,0,0:2:0:0:
337,344,86252,1,2,3:2:0:0:
393,251,86474,1,2,3:2:0:0:
376,144,86696,1,8,3:2:0:0:
296,74,86918,1,2,0:2:0:0:
296,74,87029,1,2,0:2:0:0:
296,74,87141,1,4,0:2:0:0:
46,69,94252,6,0,P|117:62|168:88,1,120,2|2,0:3|0:3,0:0:0:0:
213,137,94918,2,0,L|279:131,1,60,0|0,0:3|0:3,0:0:0:0:
337,88,95363,1,0,0:3:0:0:
337,88,95585,2,0,L|396:93,1,60,0|0,0:3|0:3,0:0:0:0:
469,122,96029,6,0,P|473:166|469:201,1,60,2|0,0:3|0:3,0:0:0:0:
469,199,96363,1,0,0:3:0:0:
465,216,96474,2,0,P|465:246|469:276,1,60,0|0,0:3|0:3,0:0:0:0:
474,352,96918,2,0,L|389:345,1,60,2|0,0:3|0:3,0:0:0:0:
352,298,97363,1,0,0:3:0:0:
352,298,97585,2,0,L|292:302,1,60,0|2,0:3|0:3,0:0:0:0:
230,352,98029,5,0,0:3:0:0:
230,352,98251,2,0,L|170:348,1,60,0|2,0:3|0:3,0:0:0:0:
108,298,98696,1,0,0:3:0:0:
108,298,98918,2,0,L|48:302,1,60,0|2,0:3|0:3,0:0:0:0:
2,217,99363,1,0,0:3:0:0:
2,217,99585,6,0,L|62:213,1,60,0|2,0:3|0:3,0:0:0:0:
112,154,100029,1,0,0:3:0:0:
112,154,100252,1,0,0:3:0:0:
172,202,100474,2,0,P|221:213|294:194,1,120,2|2,0:3|0:3,0:0:0:0:
354,155,101141,1,0,0:3:0:0:
415,107,101363,6,0,L|422:186,1,60,2|0,0:2|0:2,0:0:0:0:
494,206,101807,1,0,0:2:0:0:
494,206,102029,2,0,L|487:285,1,60,0|0,0:2|0:2,0:0:0:0:
412,305,102474,2,0,L|410:276,2,30,0|0|0,0:2|0:2|0:2,0:0:0:0:
420,383,102918,1,0,0:2:0:0:
341,345,103141,6,0,P|287:335|264:342,1,60,2|0,0:2|0:2,0:0:0:0:
266,343,103474,1,0,0:2:0:0:
251,353,103585,2,0,L|242:275,1,60,0|0,0:2|0:2,0:0:0:0:
176,254,104029,2,0,L|185:176,1,60,0|0,0:2|0:2,0:0:0:0:
251,155,104474,2,0,L|242:77,1,60,0|0,0:2|0:2,0:0:0:0:
226,7,104918,5,2,0:2:0:0:
163,54,105141,1,0,0:2:0:0:
84,63,105363,1,0,0:2:0:0:
11,32,105585,2,0,P|32:77|27:162,1,120,0|0,0:2|0:2,0:0:0:0:
1,218,106252,2,0,L|65:220,1,60,0|0,0:2|0:2,0:0:0:0:
140,272,106696,6,0,P|144:320|140:343,1,60,2|0,0:2|0:2,0:0:0:0:
139,349,107029,1,0,0:2:0:0:
134,366,107141,2,0,P|185:362|211:372,1,60,0|0,0:2|0:0,0:0:0:0:
269,377,107585,2,0,P|298:381|327:375,1,60,0|0,0:2|0:2,0:0:0:0:
388,325,108029,1,2,0:2:0:0:
465,336,108252,1,2,0:2:0:0:
508,226,108474,6,0,P|454:215|437:219,1,67.4999979400635,6|0,0:2|0:2,0:0:0:0:
423,223,108807,1,0,0:2:0:0:
406,234,108918,1,2,0:2:0:0:
333,270,109141,2,0,L|249:264,1,67.4999979400635,0|2,0:2|0:2,0:0:0:0:
208,207,109585,1,0,0:2:0:0:
208,207,109696,1,0,0:2:0:0:
208,207,109807,2,0,L|124:212,1,67.4999979400635,2|0,0:2|0:2,0:0:0:0:
120,214,110141,1,0,0:0:0:0:
99,215,110252,1,0,0:2:0:0:
15,189,110474,6,0,P|16:131|27:106,1,67.4999979400635,0|2,0:2|0:2,0:0:0:0:
99,215,110918,2,0,P|98:273|87:298,1,67.4999979400635,0|2,0:2|0:2,0:0:0:0:
26,384,111363,1,2,0:2:0:0:
103,359,111585,1,0,0:2:0:0:
196,368,111807,1,0,0:2:0:0:
196,368,111918,1,0,0:0:0:0:
196,368,112029,6,0,L|267:371,1,67.4999979400635,2|0,0:2|0:2,0:0:0:0:
306,301,112474,2,0,L|376:297,1,67.4999979400635,2|0,0:2|0:2,0:0:0:0:
416,368,112918,2,0,L|486:371,1,67.4999979400635,2|0,0:2|0:2,0:0:0:0:
511,295,113363,1,0,0:2:0:0:
455,186,113585,1,0,0:2:0:0:
455,186,113696,1,0,0:0:0:0:
455,186,113807,6,0,P|406:175|375:186,1,67.4999979400635,2|0,0:0|0:2,0:0:0:0:
370,185,114141,1,0,0:2:0:0:
353,196,114252,1,0,0:2:0:0:
297,254,114474,2,0,L|302:301,2,33.7499989700318,0|0|0,0:2|0:0|0:2,0:0:0:0:
217,256,114918,1,2,2:2:0:0:
159,200,115141,1,2,2:2:0:0:
213,62,115363,1,2,2:2:0:0:
213,62,115474,1,0,0:0:0:0:
213,62,115585,6,0,P|159:69|119:57,1,82.5000025177003,6|0,1:2|0:2,0:0:0:0:
44,16,116029,1,8,0:2:0:0:
10,108,116252,2,0,P|6:159|19:199,2,82.5000025177003,0|2|0,0:2|0:2|0:2,0:0:0:0:
44,16,116918,1,8,0:2:0:0:
132,62,117141,1,0,0:2:0:0:
15,189,117363,6,0,L|109:182,1,82.5000025177003,2|0,0:2|0:2,0:0:0:0:
183,231,117807,1,8,0:2:0:0:
252,160,118029,2,0,L|245:66,2,82.5000025177003,0|2|0,0:2|0:2|0:2,0:0:0:0:
183,231,118696,1,8,0:2:0:0:
277,260,118918,1,0,0:2:0:0:
351,111,119141,6,0,P|391:108|430:123,1,82.5000025177003,2|0,3:2|3:2,0:0:0:0:
502,222,119585,2,0,P|463:234|422:230,1,82.5000025177003,8|0,3:2|3:2,0:0:0:0:
398,223,119918,1,0,3:2:0:0:
376,211,120029,2,0,L|384:314,1,82.5000025177003,2|0,3:2|3:2,0:0:0:0:
289,260,120474,2,0,L|270:362,1,82.5000025177003,8|0,3:2|3:2,0:0:0:0:
215,187,120918,5,2,3:2:0:0:
303,141,121141,1,0,3:2:0:0:
219,87,121363,1,8,3:2:0:0:
307,41,121585,1,0,3:2:0:0:
307,41,121696,1,0,0:0:0:0:
307,41,121807,2,0,P|364:36|395:47,1,82.5000025177003,2|2,3:2|0:2,0:0:0:0:
477,85,122252,1,2,0:2:0:0:
345,184,122474,1,2,0:2:0:0:
345,184,122585,1,0,0:0:0:0:
345,184,122696,6,0,L|353:283,1,82.5000025177003,6|0,1:2|0:2,0:0:0:0:
427,330,123141,1,8,0:2:0:0:
334,364,123363,2,0,L|214:356,2,82.5000025177003,0|2|0,0:2|0:2|0:2,0:0:0:0:
427,330,124029,1,8,0:2:0:0:
351,266,124252,1,0,0:2:0:0:
495,186,124474,6,0,P|499:131|474:77,1,82.5000025177003,2|0,0:2|0:2,0:0:0:0:
421,35,124918,1,8,0:2:0:0:
332,80,125141,2,0,P|274:85|233:70,2,82.5000025177003,0|2|0,0:2|0:2|0:2,0:0:0:0:
421,35,125807,1,8,0:2:0:0:
491,105,126029,1,0,0:2:0:0:
325,162,126252,6,0,L|332:69,1,82.5000025177003,2|0,3:2|3:2,0:0:0:0:
242,166,126696,2,0,L|248:248,1,82.5000025177003,8|0,3:2|3:2,0:0:0:0:
250,272,127029,1,0,3:2:0:0:
252,296,127141,1,2,3:2:0:0:
183,367,127363,1,0,3:2:0:0:
84,368,127585,1,8,3:2:0:0:
13,301,127807,1,0,3:2:0:0:
71,138,128029,6,0,P|130:132|157:137,1,82.5000025177003,2|0,3:2|3:2,0:0:0:0:
301,63,128474,2,0,P|242:69|215:64,1,82.5000025177003,8|0,3:2|3:2,0:0:0:0:
196,55,128807,1,0,0:0:0:0:
176,39,128918,1,2,3:2:0:0:
152,135,129141,1,2,0:2:0:0:
179,230,129363,1,8,0:2:0:0:
320,309,129585,1,2,0:2:0:0:
320,309,129696,1,0,0:0:0:0:
320,309,129807,6,0,P|251:306|218:317,1,75,6|0,0:2|0:2,0:0:0:0:
161,335,130252,1,8,0:2:0:0:
75,308,130474,2,0,P|72:239|83:206,1,75,0|2,0:2|0:2,0:0:0:0:
107,150,130918,2,0,L|57:142,2,37.5,0|0|8,0:2|0:0|0:2,0:0:0:0:
196,161,131363,1,0,0:2:0:0:
325,85,131585,6,0,L|319:0,1,75,2|0,0:2|0:2,0:0:0:0:
406,35,132029,1,8,0:2:0:0:
490,58,132252,2,0,L|495:133,1,75,0|2,0:2|0:2,0:0:0:0:
425,189,132696,2,0,P|403:190|363:185,2,37.5,0|0|8,0:2|0:0|0:2,0:0:0:0:
495,133,133141,1,2,0:2:0:0:
509,282,133363,5,2,0:2:0:0:
439,338,133585,2,0,L|392:334,2,37.5,0|0|2,0:2|0:0|0:2,0:0:0:0:
341,281,134029,2,0,L|303:284,2,37.5,0|0|2,0:2|0:0|0:2,0:0:0:0:
243,338,134474,2,0,L|205:334,2,37.5,0|0|8,0:2|0:0|0:2,0:0:0:0:
145,281,134918,6,0,L|107:284,2,37.5,0|0|2,0:2|0:0|0:2,0:0:0:0:
47,338,135363,2,0,L|9:335,2,37.5,0|0|8,0:2|0:0|0:2,0:0:0:0:
145,281,135807,2,0,P|152:225|139:182,1,75,0|2,0:2|0:2,0:0:0:0:
92,109,136252,2,0,P|140:124|195:114,1,75,0|8,0:2|3:2,0:0:0:0:
186,119,136585,1,0,3:2:0:0:
205,108,136696,1,0,3:2:0:0:
343,188,136918,6,0,P|295:173|240:183,1,75,2|0,0:2|0:2,0:0:0:0:
249,178,137251,1,0,0:2:0:0:
230,189,137362,1,2,0:2:0:0:
208,299,137585,2,0,P|193:263|187:253,2,37.5,0|0|2,0:2|0:2|0:2,0:0:0:0:
148,203,138029,2,0,P|124:172|115:164,2,37.5,0|0|2,0:2|0:2|0:2,0:0:0:0:
65,125,138474,2,0,P|34:101|23:95,2,37.5,0|0|2,0:2|0:2|0:2,0:0:0:0:
176,111,138918,1,0,0:2:0:0:
176,111,139029,1,0,0:2:0:0:
176,111,139141,6,0,L|272:107,1,75,2|0,0:2|0:2,0:0:0:0:
340,103,139585,1,2,0:2:0:0:
458,181,139807,1,0,0:2:0:0:
458,181,139918,1,0,0:2:0:0:
458,181,140030,2,0,L|362:185,1,75,2|0,0:2|0:2,0:0:0:0:
291,285,140474,6,0,L|296:340,2,37.5,2|0|2,0:2|0:2|0:2,0:0:0:0:
210,325,140918,2,0,L|186:375,2,37.5,8|0|0,0:2|0:2|0:2,0:0:0:0:
119,319,141363,2,0,L|73:350,2,37.5,8|0|2,0:2|0:2|0:2,0:0:0:0:
43,268,141807,2,0,L|-13:272,2,37.5,2|0|0,0:0|0:2|0:2,0:0:0:0:
108,206,142252,6,0,P|152:194|199:206,1,75,2|0,0:2|3:0,0:0:0:0:
200,208,142585,1,0,0:2:0:0:
214,225,142696,1,8,0:2:0:0:
273,292,142918,1,2,3:2:0:0:
361,297,143141,1,2,3:2:0:0:
428,238,143363,1,2,3:2:0:0:
434,149,143586,1,2,3:2:0:0:
374,84,143807,1,2,3:2:0:0:
374,84,143918,1,0,3:2:0:0:
374,84,144029,1,4,0:2:0:0:
