osu file format v14

[General]
AudioFilename: audio.mp3
AudioLeadIn: 0
PreviewTime: 58029
Countdown: 0
SampleSet: Soft
StackLeniency: 0.7
Mode: 0
LetterboxInBreaks: 0
WidescreenStoryboard: 1

[Editor]
DistanceSpacing: 1
BeatDivisor: 4
GridSize: 8
TimelineZoom: 0.8

[Metadata]
Title:saika in Another Style
TitleUnicode:彩華 in Another Style
Artist:himmeltengoku
ArtistUnicode:himmeltengoku
Creator:Sulfur
Version:Easy
Source:
Tags:rayark rhythm game cytus rabpit su1fu7 finshie xilver
BeatmapID:1408230
BeatmapSetID:657543

[Difficulty]
HPDrainRate:3
CircleSize:3.3
OverallDifficulty:3
ApproachRate:3
SliderMultiplier:0.799999999999999
SliderTickRate:1

[Events]
//Background and Video events
0,0,"1482992298629.png",0,0
//Break Periods
2,87341,92812
//Storyboard Layer 0 (Background)
//Storyboard Layer 1 (Fail)
//Storyboard Layer 2 (Pass)
//Storyboard Layer 3 (Foreground)
//Storyboard Sound Samples

[TimingPoints]
30,444.444444444444,4,2,1,50,1,0
7141,-100,4,3,2,50,0,0
8474,-100,4,2,1,50,0,0
12474,-100,4,2,2,60,0,0
16029,-100,4,2,2,70,0,0
30252,-100,4,2,2,50,0,0
52252,-100,4,2,2,70,0,0
53363,-100,4,2,2,50,0,0
55141,-100,4,2,2,60,0,0
72918,-100,4,2,2,70,0,0
94252,-100,4,3,2,60,0,0
115585,-100,4,2,2,70,0,0

[Colours]
Combo1 : 175,175,97
Combo2 : 255,128,192
Combo3 : 140,140,198
Combo4 : 62,255,158

[HitObjects]
122,173,1141,5,0,0:0:0:0:
240,196,1807,6,0,B|320:172|320:236|394:213,1,160,4|0,0:2|0:0,0:0:0:0:
461,162,3141,2,0,P|476:198|473:237,1,79.9999999999999,2|0,0:2|0:2,0:0:0:0:
412,294,4029,1,2,0:2:0:0:
382,128,4918,1,2,0:2:0:0:
304,100,5363,5,0,0:2:0:0:
304,220,6029,1,0,0:2:0:0:
304,340,6696,1,2,0:2:0:0:
224,336,7141,2,0,B|184:332|184:332|115:294|115:294|59:289,1,160,0|0,3:2|3:2,0:0:0:0:
16,236,8474,1,2,0:2:0:0:
59,167,8918,6,0,P|137:156|210:186,1,160,0|0,0:2|0:0,0:0:0:0:
275,233,10252,2,0,P|323:241|363:233,1,79.9999999999999,2|0,0:2|0:2,0:0:0:0:
424,196,11141,1,2,0:2:0:0:
392,348,12029,1,2,0:2:0:0:
472,364,12474,5,2,1:2:0:0:
504,212,13363,1,0,3:3:0:0:
435,169,13808,1,2,3:3:0:0:
355,163,14252,2,0,L|243:172,1,79.9999999999999,10|10,3:2|3:2,0:0:0:0:
195,175,15141,1,10,3:2:0:0:
305,293,16029,5,6,1:2:0:0:
225,290,16474,2,0,P|194:284|150:255,1,79.9999999999999,8|2,0:2|0:2,0:0:0:0:
124,183,17363,1,8,0:2:0:0:
53,221,17807,1,2,0:2:0:0:
16,149,18252,2,0,P|5:119|8:67,1,79.9999999999999,8|2,0:2|0:0,0:0:0:0:
79,38,19141,1,8,0:2:0:0:
141,90,19585,6,0,B|177:106|177:106|221:98,1,79.9999999999999,2|8,0:2|0:2,0:0:0:0:
288,64,20474,1,2,3:2:0:0:
365,85,20918,1,8,3:2:0:0:
341,161,21363,2,0,B|337:200|337:200|355:274|355:274|350:330,1,160,2|2,3:2|3:2,0:0:0:0:
205,250,23141,5,2,1:2:0:0:
145,196,23585,2,0,P|130:221|132:281,1,79.9999999999999,8|2,0:2|0:2,0:0:0:0:
153,347,24474,1,8,0:2:0:0:
231,362,24918,1,2,0:2:0:0:
300,321,25363,2,0,L|379:314,1,79.9999999999999,8|2,0:2|0:2,0:0:0:0:
459,309,26252,1,8,0:2:0:0:
414,242,26696,6,0,P|408:213|426:153,1,79.9999999999999,2|8,0:2|0:2,0:0:0:0:
472,104,27585,1,2,3:2:0:0:
393,89,28029,1,8,0:2:0:0:
321,128,28474,2,0,B|313:88|313:88|321:48,2,79.9999999999999,6|2|2,0:2|3:2|3:2,0:0:0:0:
352,204,29807,1,8,3:2:0:0:
271,195,30252,6,0,B|237:181|237:181|189:186,2,79.9999999999999,6|8|2,3:2|3:3|3:2,0:0:0:0:
304,268,31585,1,8,3:3:0:0:
354,335,32029,2,0,B|387:348|387:348|435:343,2,79.9999999999999,2|8|2,3:2|3:3|3:2,0:0:0:0:
271,345,33363,1,8,3:3:0:0:
192,316,33807,6,0,L|168:230,1,79.9999999999999,2|8,3:2|3:3,0:0:0:0:
104,196,34696,2,0,L|134:113,1,79.9999999999999,2|8,3:2|3:3,0:0:0:0:
158,44,35585,2,0,B|127:32|127:32|74:29,2,79.9999999999999,2|8|2,3:2|3:3|3:2,0:0:0:0:
212,102,36918,1,8,3:3:0:0:
288,76,37363,6,0,L|375:68,1,79.9999999999999,2|8,3:2|3:3,0:0:0:0:
448,68,38252,2,0,L|440:155,1,79.9999999999999,2|8,3:2|3:3,0:0:0:0:
432,228,39141,1,2,3:2:0:0:
424,308,39585,1,8,3:3:0:0:
352,348,40029,2,0,L|272:339,1,79.9999999999999,2|8,3:2|3:3,0:0:0:0:
192,332,40918,5,2,3:2:0:0:
32,364,41807,1,2,3:2:0:0:
109,343,42252,1,8,3:3:0:0:
90,265,42696,1,2,3:2:0:0:
170,261,43141,2,0,L|257:268,1,79.9999999999999,8|2,3:3|3:2,0:0:0:0:
315,221,44029,1,8,3:3:0:0:
302,141,44474,6,0,B|262:137|262:137|188:155|188:155|132:150,1,160,2|2,3:2|0:0,0:0:0:0:
64,145,45807,1,8,3:3:0:0:
70,65,46252,2,0,B|109:68|109:68|183:50|183:50|239:55,1,160,2|0,3:2|0:0,0:0:0:0:
306,59,47585,1,8,3:3:0:0:
360,120,48029,6,0,B|336:200|336:200|350:274,1,160,2|0,3:2|3:0,0:0:0:0:
380,349,49363,1,8,3:3:0:0:
301,363,49807,1,2,3:2:0:0:
148,350,50696,2,0,B|164:318|164:318|156:270,1,79.9999999999999,2|8,3:2|3:3,0:0:0:0:
138,196,51585,5,2,3:2:0:0:
25,82,52474,2,0,B|9:114|9:114|17:162,1,79.9999999999999,2|8,3:2|3:3,0:0:0:0:
35,236,53363,1,2,3:2:0:0:
139,115,54252,2,0,L|218:108,1,79.9999999999999,0|8,3:2|3:3,0:0:0:0:
262,40,55141,6,0,P|281:56|339:71,1,79.9999999999999,2|8,3:2|3:3,0:0:0:0:
345,157,56029,2,0,P|368:148|410:105,1,79.9999999999999,2|8,3:2|3:3,0:0:0:0:
436,36,56918,1,2,3:2:0:0:
486,97,57363,2,0,L|492:191,1,79.9999999999999,8|8,3:3|3:3,0:0:0:0:
426,321,58696,5,6,1:2:0:0:
371,262,59141,2,0,P|323:246|288:250,1,79.9999999999999,8|2,0:2|0:2,0:0:0:0:
213,259,60029,1,8,0:2:0:0:
131,245,60474,1,2,0:2:0:0:
68,294,60918,2,0,P|52:244|56:216,1,79.9999999999999,8|2,0:2|0:2,0:0:0:0:
116,165,61807,1,8,0:2:0:0:
71,98,62252,5,2,0:2:0:0:
151,93,62696,2,0,L|238:85,1,79.9999999999999,8|2,0:2|0:2,0:0:0:0:
302,122,63585,1,8,0:2:0:0:
312,201,64029,2,0,B|272:204|272:204|197:178|197:178|141:183,1,160,2|2,0:2|0:2,0:0:0:0:
14,255,65807,5,6,0:2:0:0:
68,316,66252,2,0,P|103:334|153:331,1,79.9999999999999,8|2,0:2|0:2,0:0:0:0:
217,304,67141,1,8,0:2:0:0:
295,319,67585,1,2,0:2:0:0:
271,242,68029,2,0,P|264:220|269:153,1,79.9999999999999,8|2,0:2|0:2,0:0:0:0:
320,105,68918,1,8,0:2:0:0:
320,24,69363,5,2,0:2:0:0:
396,46,69807,2,0,L|483:38,1,79.9999999999999,8|2,0:2|0:2,0:0:0:0:
486,118,70696,1,8,0:2:0:0:
464,195,71141,1,2,0:2:0:0:
426,265,71585,2,0,B|400:279|400:279|336:273,1,79.9999999999999,8|2,0:2|0:2,0:0:0:0:
256,144,72918,5,6,0:2:0:0:
188,101,73363,2,0,P|144:90|107:97,1,79.9999999999999,8|2,0:2|0:2,0:0:0:0:
37,129,74252,1,8,0:2:0:0:
42,208,74696,1,2,0:2:0:0:
97,265,75141,2,0,P|141:276|178:269,1,79.9999999999999,8|2,0:2|0:2,0:0:0:0:
221,205,76029,1,8,0:2:0:0:
248,129,76474,6,0,P|299:115|368:121,1,120,0|0,0:0|0:2,0:0:0:0:
441,145,77585,2,0,B|456:187|439:225|439:225|422:267|436:314,1,160,0|0,0:2|0:2,0:0:0:0:
376,358,78918,2,0,P|325:356|279:367,1,79.9999999999999,0|2,0:2|0:2,0:0:0:0:
204,285,80029,6,0,P|155:283|121:258,1,79.9999999999999,2|8,0:2|0:2,0:0:0:0:
68,326,80918,2,0,P|45:282|49:240,1,79.9999999999999,2|8,0:2|0:2,0:0:0:0:
99,186,81807,2,0,P|109:138|94:98,1,79.9999999999999,2|8,0:2|0:2,0:0:0:0:
42,47,82696,2,0,P|85:24|127:28,1,79.9999999999999,2|8,0:2|0:2,0:0:0:0:
186,62,83585,5,2,0:2:0:0:
261,87,84029,1,8,0:2:0:0:
336,62,84474,1,8,0:2:0:0:
411,87,84918,1,2,0:2:0:0:
376,160,85363,2,0,P|364:199|372:247,1,79.9999999999999,2|8,0:2|0:2,0:0:0:0:
339,311,86252,2,0,P|380:318|426:345,1,79.9999999999999,2|8,3:2|3:2,0:0:0:0:
480,379,87141,5,4,0:2:0:0:
256,192,94252,5,2,0:3:0:0:
306,253,94696,2,0,B|331:266|331:266|387:261,2,79.9999999999999,2|0|0,0:3|0:3|0:3,0:0:0:0:
229,266,96029,1,2,0:3:0:0:
176,326,96474,1,0,0:3:0:0:
116,273,96918,2,0,L|108:185,1,79.9999999999999,2|0,0:3|0:3,0:0:0:0:
104,113,97807,6,0,B|66:111|66:111|23:92,2,79.9999999999999,2|0|0,0:3|0:3|0:3,0:0:0:0:
105,32,99141,2,0,B|143:34|143:34|186:53,2,79.9999999999999,2|0|0,0:3|0:3|0:3,0:0:0:0:
24,28,100474,1,2,0:3:0:0:
62,101,100918,1,2,0:3:0:0:
56,184,101363,6,0,B|95:187|95:187|137:175|137:175|175:194|175:194|223:198,1,160,2|0,0:2|0:2,0:0:0:0:
288,204,102696,1,0,0:2:0:0:
282,283,103141,1,2,0:2:0:0:
361,287,103585,2,0,B|404:250|404:250|414:131,1,160,0|0,0:2|0:2,0:0:0:0:
419,68,104918,6,0,B|379:64|379:64|297:81|297:81|249:77,1,160,2|0,0:2|0:0,0:0:0:0:
180,74,106252,1,0,0:2:0:0:
176,153,106696,2,0,B|255:159|255:159|336:193,1,160,2|0,0:2|0:2,0:0:0:0:
403,222,108029,1,2,0:2:0:0:
342,274,108474,5,6,0:2:0:0:
396,332,108918,2,0,L|483:339,2,79.9999999999999,2|2|2,0:2|0:2|0:2,0:0:0:0:
322,364,110252,1,0,0:2:0:0:
247,334,110696,1,2,0:2:0:0:
168,313,111141,2,0,L|88:320,1,79.9999999999999,2|0,0:2|0:2,0:0:0:0:
8,327,112029,5,2,0:2:0:0:
42,254,112474,1,2,0:2:0:0:
120,237,112918,1,2,0:2:0:0:
103,158,113363,1,0,0:2:0:0:
182,165,113807,2,0,B|222:157|222:157|302:173|302:173|358:165,1,160,2|0,0:0|0:2,0:0:0:0:
415,314,115585,5,6,1:2:0:0:
474,367,116029,2,0,P|492:295|489:283,1,79.9999999999999,8|2,0:2|0:2,0:0:0:0:
464,216,116918,1,8,0:2:0:0:
389,186,117363,1,2,0:2:0:0:
430,117,117807,2,0,P|431:71|408:26,1,79.9999999999999,8|2,0:2|0:2,0:0:0:0:
339,50,118696,1,8,0:2:0:0:
329,130,119141,6,0,L|233:121,1,79.9999999999999,2|8,3:2|3:2,0:0:0:0:
169,116,120029,1,2,3:2:0:0:
89,109,120474,1,8,3:2:0:0:
42,173,120918,2,0,B|87:201|87:201|231:213,1,160,2|2,3:2|3:2,0:0:0:0:
352,192,122696,5,6,1:2:0:0:
327,268,123141,2,0,P|292:287|252:288,1,79.9999999999999,8|2,0:2|0:2,0:0:0:0:
174,271,124029,1,8,0:2:0:0:
158,192,124474,1,2,0:2:0:0:
198,120,124918,2,0,P|232:100|272:99,1,79.9999999999999,8|2,0:2|0:2,0:0:0:0:
349,120,125807,1,8,0:2:0:0:
386,49,126252,5,2,3:2:0:0:
457,86,126696,1,8,3:2:0:0:
420,157,127141,2,0,L|429:260,1,79.9999999999999,2|8,3:2|3:2,0:0:0:0:
432,315,128029,1,2,3:2:0:0:
361,352,128474,1,8,3:2:0:0:
290,315,128918,1,2,3:2:0:0:
184,192,129807,5,6,0:2:0:0:
110,161,130252,2,0,P|74:110|74:61,1,79.9999999999999,8|2,0:2|0:2,0:0:0:0:
72,13,131141,1,8,0:2:0:0:
151,20,131585,1,2,0:2:0:0:
184,92,132029,2,0,P|250:95|283:78,1,79.9999999999999,8|2,0:2|0:2,0:0:0:0:
333,55,132918,1,8,0:2:0:0:
394,106,133363,6,0,B|410:146|393:185|393:185|378:226|394:266,1,160,2|2,0:2|0:2,0:0:0:0:
412,339,134696,1,8,0:2:0:0:
335,358,135141,1,2,0:2:0:0:
280,299,135585,2,0,P|223:295|189:308,1,79.9999999999999,8|2,0:2|0:2,0:0:0:0:
127,331,136474,1,8,3:2:0:0:
76,269,136918,6,0,P|77:209|108:164,1,79.9999999999999,2|2,0:2|0:2,0:0:0:0:
155,154,137807,2,0,P|213:141|236:122,1,79.9999999999999,2|2,0:2|0:2,0:0:0:0:
236,49,138696,2,0,P|283:26|328:31,1,79.9999999999999,2|2,0:2|0:2,0:0:0:0:
361,87,139585,2,0,P|426:84|460:58,1,79.9999999999999,2|2,0:2|0:2,0:0:0:0:
500,27,140474,5,2,0:2:0:0:
512,105,140918,1,8,0:2:0:0:
449,155,141363,1,8,0:2:0:0:
437,233,141807,1,2,0:0:0:0:
366,271,142252,2,0,P|308:276|283:268,1,79.9999999999999,2|8,0:2|0:2,0:0:0:0:
232,211,143141,2,0,P|163:182|125:194,1,79.9999999999999,2|2,3:2|3:2,0:0:0:0:
81,192,144029,5,4,0:2:0:0:
