osu file format v14

[General]
AudioFilename: audio.ogg
AudioLeadIn: 0
PreviewTime: 71992
Countdown: 0
SampleSet: Normal
StackLeniency: 0.7
Mode: 1
LetterboxInBreaks: 0
WidescreenStoryboard: 1

[Editor]
DistanceSpacing: 0.7
BeatDivisor: 4
GridSize: 4
TimelineZoom: 2.1

[Metadata]
Title:Maple Wind
TitleUnicode:遠楓
Artist:himmel feat. YooSanHyakurei
ArtistUnicode:himmel feat. 瑶山百靈
Creator:shoucan91
Version:Muzukashii
Source:秋楓協奏曲
Tags:Yonder Voice himmeltengoku LEMiao 天国 水幻 AQUATRAX zion 载音 Zyon 載音 rhythm 音灵 音靈 INVAXION 哔哩哔哩 bilibili Hachi Hachi 远枫 Distant Yuan Feng piano galgame visual novel vn Chinese pop video game 秋枫协奏曲 Mandarin Mandopop Cpop C-pop
BeatmapID:4184715
BeatmapSetID:2008002

[Difficulty]
HPDrainRate:6
CircleSize:5
OverallDifficulty:5
ApproachRate:5
SliderMultiplier:1.4
SliderTickRate:1

[Events]
//Background and Video events
0,0,"bg.jpg",0,50
//Break Periods
//Storyboard Layer 0 (Background)
//Storyboard Layer 1 (Fail)
//Storyboard Layer 2 (Pass)
//Storyboard Layer 3 (Foreground)
//Storyboard Layer 4 (Overlay)
//Storyboard Sound Samples

[TimingPoints]
1807,444.444444444444,4,1,0,30,1,0
1807,-100,4,1,0,30,0,0
8251,-100,4,1,0,50,0,0
8918,-100,4,1,0,70,0,0
16029,-100,4,1,0,40,0,0
37362,-100,4,1,0,50,0,0
44473,-100,4,1,0,40,0,0
58695,-100,4,1,0,60,0,0
71140,-100,4,1,0,40,0,0
72029,-95.2380952380952,4,1,0,70,0,0
72918,-95.2380952380952,4,1,0,70,0,1
87140,-95.2380952380952,4,1,0,70,0,0
93140,-96.1538461538461,4,1,0,70,0,0
93362,-97.0873786407767,4,1,0,70,0,0
93584,-98.0392156862745,4,1,0,70,0,0
93806,-99.009900990099,4,1,0,70,0,0
94029,-100,4,1,0,70,0,0
94251,-102.040816326531,4,1,0,60,0,0
95023,-105.263157894737,4,1,0,60,0,0
95133,-105.263157894737,4,1,0,40,0,0

[HitObjects]
256,190,1807,5,8,0:0:0:0:
256,190,2473,1,8,0:0:0:0:
256,190,3584,1,8,0:0:0:0:
256,190,4251,1,8,0:0:0:0:
256,190,5140,1,8,0:0:0:0:
256,190,5251,1,8,0:0:0:0:
256,190,5362,1,8,0:0:0:0:
256,190,6029,1,8,0:0:0:0:
256,190,6473,1,8,0:0:0:0:
256,190,7140,1,0,0:0:0:0:
256,190,7584,1,8,0:0:0:0:
256,190,7806,1,8,0:0:0:0:
256,190,8251,1,0,0:0:0:0:
256,190,8473,1,8,0:0:0:0:
256,190,8695,1,0,0:0:0:0:
256,190,8806,1,0,0:0:0:0:
256,190,8918,1,0,0:0:0:0:
256,190,9140,1,0,0:0:0:0:
256,190,9362,1,8,0:0:0:0:
256,190,9584,1,0,0:0:0:0:
256,190,10029,1,0,0:0:0:0:
256,190,10251,1,8,0:0:0:0:
256,190,10473,1,0,0:0:0:0:
256,190,10584,1,0,0:0:0:0:
256,190,10695,1,0,0:0:0:0:
256,190,11140,1,8,0:0:0:0:
256,190,11362,1,0,0:0:0:0:
256,190,11584,1,8,0:0:0:0:
256,190,11806,1,8,0:0:0:0:
256,190,11918,1,8,0:0:0:0:
256,190,12029,1,8,0:0:0:0:
256,190,12251,1,8,0:0:0:0:
256,190,12473,1,0,0:0:0:0:
256,190,12918,1,12,0:0:0:0:
256,190,13140,1,0,0:0:0:0:
256,190,13362,1,8,0:0:0:0:
256,190,13806,1,12,0:0:0:0:
256,190,14029,1,0,0:0:0:0:
256,190,14251,1,0,0:0:0:0:
256,190,14473,1,0,0:0:0:0:
256,190,14695,1,8,0:0:0:0:
256,190,14918,1,0,0:0:0:0:
256,190,15362,1,0,0:0:0:0:
256,190,15584,1,8,0:0:0:0:
256,190,15806,1,8,0:0:0:0:
256,190,16029,1,0,0:0:0:0:
256,190,17584,1,8,0:0:0:0:
256,190,18695,1,0,0:0:0:0:
256,190,19140,1,0,0:0:0:0:
256,190,19584,1,8,0:0:0:0:
256,190,21140,1,8,0:0:0:0:
256,190,22251,1,8,0:0:0:0:
256,190,22695,1,8,0:0:0:0:
256,190,23140,1,0,0:0:0:0:
256,190,24695,1,8,0:0:0:0:
256,190,25806,1,0,0:0:0:0:
256,190,26251,1,8,0:0:0:0:
256,190,26695,1,0,0:0:0:0:
256,190,27362,1,8,0:0:0:0:
256,190,28473,1,0,0:0:0:0:
256,190,29140,1,8,0:0:0:0:
256,190,30251,1,0,0:0:0:0:
256,190,32029,1,8,0:0:0:0:
256,190,32918,1,8,0:0:0:0:
256,190,33362,1,8,0:0:0:0:
256,190,33806,1,0,0:0:0:0:
256,190,34251,1,8,0:0:0:0:
256,190,34695,1,0,0:0:0:0:
256,190,34918,1,8,0:0:0:0:
256,190,35362,1,8,0:0:0:0:
256,190,35584,1,0,0:0:0:0:
256,190,36029,1,0,0:0:0:0:
256,190,36473,1,8,0:0:0:0:
256,190,36918,1,8,0:0:0:0:
256,190,37362,1,0,0:0:0:0:
256,190,37806,1,0,0:0:0:0:
256,190,38029,1,8,0:0:0:0:
256,190,38251,1,0,0:0:0:0:
256,190,38473,1,0,0:0:0:0:
256,190,38695,1,8,0:0:0:0:
256,190,38918,1,8,0:0:0:0:
256,190,39140,1,0,0:0:0:0:
256,190,39584,1,0,0:0:0:0:
256,190,40029,1,0,0:0:0:0:
256,190,40473,1,8,0:0:0:0:
256,190,40918,1,0,0:0:0:0:
256,190,41140,1,8,0:0:0:0:
256,190,41362,1,0,0:0:0:0:
256,190,41584,1,0,0:0:0:0:
256,190,41806,1,8,0:0:0:0:
256,190,42251,1,0,0:0:0:0:
256,190,42695,1,0,0:0:0:0:
256,190,43140,1,12,0:0:0:0:
256,190,43584,1,0,0:0:0:0:
256,190,44029,1,12,0:0:0:0:
256,190,44473,1,4,0:0:0:0:
256,190,46251,1,8,0:0:0:0:
256,190,48029,1,8,0:0:0:0:
256,190,49806,1,0,0:0:0:0:
256,190,50695,1,8,0:0:0:0:
256,190,51584,1,0,0:0:0:0:
256,190,52251,1,0,0:0:0:0:
256,190,53362,1,8,0:0:0:0:
256,190,55140,1,0,0:0:0:0:
256,190,56918,1,8,0:0:0:0:
256,190,57806,1,8,0:0:0:0:
256,190,58695,1,0,0:0:0:0:
256,190,59140,1,8,0:0:0:0:
256,190,59362,1,0,0:0:0:0:
256,190,59584,1,0,0:0:0:0:
256,190,60029,1,8,0:0:0:0:
256,190,60473,1,0,0:0:0:0:
256,190,60918,1,8,0:0:0:0:
256,190,61140,1,0,0:0:0:0:
256,190,61362,1,0,0:0:0:0:
256,190,61584,1,8,0:0:0:0:
256,190,61806,1,8,0:0:0:0:
256,190,62251,1,0,0:0:0:0:
256,190,62695,1,8,0:0:0:0:
256,190,62918,1,0,0:0:0:0:
256,190,63140,1,8,0:0:0:0:
256,190,63362,1,0,0:0:0:0:
256,190,63584,1,8,0:0:0:0:
256,190,64029,1,0,0:0:0:0:
256,190,64473,1,8,0:0:0:0:
256,190,64695,1,0,0:0:0:0:
256,190,64918,1,0,0:0:0:0:
256,190,65362,1,8,0:0:0:0:
256,190,65806,1,4,0:0:0:0:
256,190,66251,1,8,0:0:0:0:
256,190,66473,1,0,0:0:0:0:
256,190,66695,1,0,0:0:0:0:
256,190,66918,1,8,0:0:0:0:
256,190,67140,1,8,0:0:0:0:
256,190,67584,1,0,0:0:0:0:
256,190,67806,1,0,0:0:0:0:
256,190,68029,1,8,0:0:0:0:
256,190,68251,1,0,0:0:0:0:
256,190,68695,1,0,0:0:0:0:
256,190,68918,1,8,0:0:0:0:
256,190,69362,1,0,0:0:0:0:
256,190,69584,1,0,0:0:0:0:
256,190,69695,1,0,0:0:0:0:
256,190,69806,1,0,0:0:0:0:
256,190,70029,1,8,0:0:0:0:
256,190,70251,1,0,0:0:0:0:
256,190,70473,1,0,0:0:0:0:
256,190,70695,1,8,0:0:0:0:
256,190,70918,1,8,0:0:0:0:
256,190,71140,1,0,0:0:0:0:
256,190,72918,1,4,0:0:0:0:
256,190,73362,1,8,0:0:0:0:
256,190,73584,1,8,0:0:0:0:
256,190,73806,1,0,0:0:0:0:
256,190,74029,1,8,0:0:0:0:
256,190,74140,1,8,0:0:0:0:
256,190,74251,1,8,0:0:0:0:
256,190,74473,1,8,0:0:0:0:
256,190,74695,1,0,0:0:0:0:
256,190,75140,1,0,0:0:0:0:
256,190,75362,1,8,0:0:0:0:
256,190,75584,1,0,0:0:0:0:
256,190,75806,1,0,0:0:0:0:
256,190,75918,1,0,0:0:0:0:
256,190,76029,1,0,0:0:0:0:
256,190,76251,1,8,0:0:0:0:
256,190,76473,1,0,0:0:0:0:
256,190,76806,1,0,0:0:0:0:
256,190,77140,1,8,0:0:0:0:
256,190,77362,1,0,0:0:0:0:
256,190,77695,1,8,0:0:0:0:
256,190,78029,1,8,0:0:0:0:
256,190,78251,1,0,0:0:0:0:
256,190,79140,1,0,0:0:0:0:
256,190,79362,1,0,0:0:0:0:
256,190,79584,1,8,0:0:0:0:
256,190,79806,1,8,0:0:0:0:
256,190,80029,1,4,0:0:0:0:
256,190,80473,1,8,0:0:0:0:
256,190,80695,1,8,0:0:0:0:
256,190,80918,1,0,0:0:0:0:
256,190,81140,1,8,0:0:0:0:
256,190,81251,1,8,0:0:0:0:
256,190,81362,1,8,0:0:0:0:
256,190,81584,1,8,0:0:0:0:
256,190,81806,1,0,0:0:0:0:
256,190,82251,1,8,0:0:0:0:
256,190,82473,1,0,0:0:0:0:
256,190,82695,1,8,0:0:0:0:
256,190,82806,1,8,0:0:0:0:
256,190,82918,1,8,0:0:0:0:
256,190,83140,1,0,0:0:0:0:
256,190,83362,1,8,0:0:0:0:
256,190,83584,1,0,0:0:0:0:
256,190,84029,1,12,0:0:0:0:
256,190,84473,1,0,0:0:0:0:
256,190,84695,1,0,0:0:0:0:
256,190,84918,1,12,0:0:0:0:
256,190,85362,1,0,0:0:0:0:
256,190,86251,1,0,0:0:0:0:
256,190,86473,1,0,0:0:0:0:
256,190,86695,1,8,0:0:0:0:
256,190,86918,1,8,0:0:0:0:
256,190,87140,1,4,0:0:0:0:
256,190,87584,1,0,0:0:0:0:
256,190,87806,1,8,0:0:0:0:
256,190,88029,1,0,0:0:0:0:
256,190,88473,1,8,0:0:0:0:
256,190,88918,1,0,0:0:0:0:
256,190,89362,1,8,0:0:0:0:
256,190,89584,1,8,0:0:0:0:
256,190,89806,1,0,0:0:0:0:
256,190,90029,1,8,0:0:0:0:
256,190,90473,1,8,0:0:0:0:
256,190,90695,1,0,0:0:0:0:
256,190,91029,1,0,0:0:0:0:
256,190,91362,1,0,0:0:0:0:
256,190,91584,1,8,0:0:0:0:
256,190,91918,1,8,0:0:0:0:
256,190,92251,1,8,0:0:0:0:
256,190,92473,1,0,0:0:0:0:
256,190,92918,1,0,0:0:0:0:
256,190,93140,1,8,0:0:0:0:
256,190,93362,1,0,0:0:0:0:
256,190,93584,1,0,0:0:0:0:
256,190,93806,1,8,0:0:0:0:
256,190,94029,1,8,0:0:0:0:
256,190,94251,1,0,0:0:0:0:
256,190,95140,1,8,0:0:0:0:
256,190,95362,1,0,0:0:0:0:
256,190,95584,1,8,0:0:0:0:
256,190,95806,1,8,0:0:0:0:
256,190,96029,1,0,0:0:0:0:
256,190,96918,1,0,0:0:0:0:
256,190,97362,1,8,0:0:0:0:
256,190,97806,1,0,0:0:0:0:
256,190,98029,1,8,0:0:0:0:
256,190,98251,1,8,0:0:0:0:
256,190,98473,1,0,0:0:0:0:
256,192,98695,12,0,100473,0:0:0:0:
