osu file format v14

[General]
AudioFilename: audio.ogg
AudioLeadIn: 0
PreviewTime: 71992
Countdown: 0
SampleSet: Normal
StackLeniency: 0.7
Mode: 1
LetterboxInBreaks: 0
WidescreenStoryboard: 1

[Editor]
DistanceSpacing: 0.7
BeatDivisor: 2
GridSize: 4
TimelineZoom: 0.8999997

[Metadata]
Title:Maple Wind
TitleUnicode:遠楓
Artist:himmel feat. YooSanHyakurei
ArtistUnicode:himmel feat. 瑶山百靈
Creator:shoucan91
Version:Kantan
Source:秋楓協奏曲
Tags:Yonder Voice himmeltengoku LEMiao 天国 水幻 AQUATRAX zion 载音 Zyon 載音 rhythm 音灵 音靈 INVAXION 哔哩哔哩 bilibili Hachi Hachi 远枫 Distant Yuan Feng piano galgame visual novel vn Chinese pop video game 秋枫协奏曲 Mandarin Mandopop Cpop C-pop
BeatmapID:4177348
BeatmapSetID:2008002

[Difficulty]
HPDrainRate:8
CircleSize:5
OverallDifficulty:3
ApproachRate:10
SliderMultiplier:1.4
SliderTickRate:1

[Events]
//Background and Video events
0,0,"bg.jpg",0,50
//Break Periods
//Storyboard Layer 0 (Background)
//Storyboard Layer 1 (Fail)
//Storyboard Layer 2 (Pass)
//Storyboard Layer 3 (Foreground)
//Storyboard Layer 4 (Overlay)
//Storyboard Sound Samples

[TimingPoints]
1807,444.444444444444,4,1,0,30,1,0
1807,-100,4,1,0,30,0,0
8251,-100,4,1,0,50,0,0
8918,-100,4,1,0,70,0,0
16029,-100,4,1,0,40,0,0
37362,-100,4,1,0,50,0,0
44473,-100,4,1,0,40,0,0
58695,-100,4,1,0,60,0,0
71140,-100,4,1,0,40,0,0
72029,-95.2380952380952,4,1,0,70,0,0
72918,-95.2380952380952,4,1,0,70,0,1
87140,-95.2380952380952,4,1,0,70,0,0
93140,-96.1538461538461,4,1,0,70,0,0
93362,-97.0873786407767,4,1,0,70,0,0
93584,-98.0392156862745,4,1,0,70,0,0
93806,-99.009900990099,4,1,0,70,0,0
94029,-100,4,1,0,70,0,0
94251,-102.040816326531,4,1,0,60,0,0
95023,-105.263157894737,4,1,0,60,0,0
95133,-105.263157894737,4,1,0,40,0,0

[HitObjects]
85,112,1807,5,8,0:0:0:0:
106,127,3584,1,8,0:0:0:0:
106,127,5362,1,0,0:0:0:0:
256,190,6029,1,0,0:0:0:0:
84,114,7140,1,8,0:0:0:0:
85,118,7806,1,8,0:0:0:0:
83,294,8918,1,0,0:0:0:0:
82,61,9362,1,8,0:0:0:0:
255,190,10251,1,8,0:0:0:0:
80,83,10695,1,0,0:0:0:0:
85,68,11140,1,8,0:0:0:0:
82,63,12029,1,0,0:0:0:0:
85,68,12473,1,0,0:0:0:0:
90,70,12918,1,12,0:0:0:0:
253,192,13806,1,12,0:0:0:0:
85,68,14251,1,0,0:0:0:0:
93,71,16029,1,0,0:0:0:0:
93,72,17584,1,8,0:0:0:0:
93,72,19584,1,8,0:0:0:0:
93,72,21140,1,0,0:0:0:0:
93,72,23140,1,0,0:0:0:0:
93,72,24695,1,8,0:0:0:0:
93,72,26695,1,8,0:0:0:0:
93,72,28473,1,8,0:0:0:0:
93,72,30251,1,0,0:0:0:0:
96,77,32029,1,8,0:0:0:0:
127,86,32918,1,8,0:0:0:0:
96,77,33806,1,0,0:0:0:0:
105,93,35584,1,0,0:0:0:0:
125,91,36473,1,8,0:0:0:0:
105,93,37362,1,0,0:0:0:0:
105,93,38251,1,0,0:0:0:0:
129,77,38695,1,8,0:0:0:0:
129,77,39140,1,0,0:0:0:0:
129,78,40029,1,8,0:0:0:0:
129,78,40473,1,8,0:0:0:0:
129,78,40918,1,0,0:0:0:0:
129,79,41806,1,8,0:0:0:0:
254,192,43140,1,12,0:0:0:0:
102,84,44029,1,12,0:0:0:0:
90,303,44473,1,4,0:0:0:0:
112,79,46251,1,8,0:0:0:0:
112,79,48029,1,8,0:0:0:0:
112,79,49806,1,0,0:0:0:0:
112,79,51584,1,0,0:0:0:0:
90,103,53362,1,8,0:0:0:0:
112,79,55140,1,0,0:0:0:0:
112,79,56918,1,8,0:0:0:0:
112,79,57806,1,8,0:0:0:0:
112,79,58695,1,0,0:0:0:0:
112,79,59584,1,0,0:0:0:0:
112,79,60473,1,0,0:0:0:0:
112,80,61362,1,0,0:0:0:0:
112,80,61806,1,0,0:0:0:0:
112,80,62251,1,8,0:0:0:0:
256,193,63140,1,8,0:0:0:0:
112,80,64029,1,0,0:0:0:0:
255,194,64918,1,8,0:0:0:0:
111,82,65806,1,4,0:0:0:0:
113,83,66695,1,0,0:0:0:0:
113,83,67140,1,8,0:0:0:0:
113,83,67584,1,0,0:0:0:0:
113,83,68473,1,8,0:0:0:0:
113,83,69362,1,0,0:0:0:0:
113,83,70251,1,8,0:0:0:0:
113,83,70695,1,8,0:0:0:0:
113,83,71140,1,0,0:0:0:0:
104,306,72918,1,4,0:0:0:0:
90,123,73806,1,0,0:0:0:0:
93,88,74251,1,8,0:0:0:0:
90,123,74695,1,0,0:0:0:0:
92,87,75584,1,8,0:0:0:0:
92,87,76473,1,0,0:0:0:0:
112,99,76918,1,0,0:0:0:0:
92,87,77362,1,0,0:0:0:0:
92,87,77806,1,8,0:0:0:0:
92,87,78251,1,0,0:0:0:0:
92,87,79140,1,0,0:0:0:0:
64,305,80029,1,4,0:0:0:0:
105,104,80918,1,0,0:0:0:0:
256,191,81362,1,8,0:0:0:0:
105,104,81806,1,0,0:0:0:0:
105,104,82695,1,0,0:0:0:0:
105,104,83140,1,8,0:0:0:0:
192,157,83584,1,0,0:0:0:0:
103,302,84029,1,12,0:0:0:0:
115,236,84918,1,12,0:0:0:0:
121,102,85362,1,8,0:0:0:0:
108,287,87140,1,4,0:0:0:0:
138,109,88029,1,0,0:0:0:0:
136,114,88918,1,0,0:0:0:0:
255,190,89362,1,8,0:0:0:0:
128,111,89806,1,0,0:0:0:0:
136,114,90695,1,0,0:0:0:0:
128,114,91584,1,8,0:0:0:0:
113,104,92473,1,0,0:0:0:0:
134,113,93362,1,8,0:0:0:0:
134,113,93806,1,8,0:0:0:0:
111,337,94251,1,0,0:0:0:0:
155,271,96029,1,8,0:0:0:0:
256,192,97806,12,0,100473,0:0:0:0:
