osu file format v14

[General]
AudioFilename: audio.mp3
AudioLeadIn: 0
PreviewTime: 2578
Countdown: 0
SampleSet: Normal
StackLeniency: 0.4
Mode: 0
LetterboxInBreaks: 0
StoryFireInFront: 0
EpilepsyWarning: 1
WidescreenStoryboard: 1

[Editor]
Bookmarks: 93263
DistanceSpacing: 1.5
BeatDivisor: 4
GridSize: 8
TimelineZoom: 2.4

[Metadata]
Title:Seraphim
TitleUnicode:Seraphim
Artist:himmel feat. YooSanHyakurei
ArtistUnicode:himmel feat. 瑶山百霊
Creator:ailv
Version:Lapis Lazuli
Source:
Tags:himmeltengoku yonder voice empyrean musync attack the music
BeatmapID:1469103
BeatmapSetID:694385

[Difficulty]
HPDrainRate:6
CircleSize:4
OverallDifficulty:8.4
ApproachRate:9.2
SliderMultiplier:1.8
SliderTickRate:1

[Events]
//Background and Video events
0,0,"2996.jpg",0,0
//Break Periods
2,255291,257265
//Storyboard Layer 0 (Background)
Sprite,Background,Centre,"2996.jpg",320,240
//Storyboard Layer 1 (Fail)
//Storyboard Layer 2 (Pass)
//Storyboard Layer 3 (Foreground)
//Storyboard Sound Samples

[TimingPoints]
6,342.857142857143,4,2,0,15,1,0
2749,-166.666666666667,4,2,1,25,0,0
27091,-166.666666666667,4,3,1,40,0,0
27435,-125,4,2,1,60,0,0
30091,-125,4,2,1,5,0,0
30177,-125,4,2,1,60,0,0
38406,-100,4,2,1,60,0,0
49035,-83.3333333333333,4,3,1,70,0,0
49378,-100,4,1,1,60,0,0
54520,-100,4,3,1,60,0,0
54862,-100,4,1,1,60,0,0
59663,-71.4285714285714,4,3,1,70,0,0
60348,-83.3333333333333,4,1,1,80,0,1
69948,-83.3333333333333,4,1,1,80,0,0
71320,-83.3333333333333,4,1,1,80,0,1
76463,-83.3333333333333,4,3,1,80,0,1
76806,-83.3333333333333,4,1,1,80,0,1
81948,-71.4285714285714,4,3,1,70,0,0
82292,-83.3333333333334,4,2,1,70,0,0
82806,-100,4,2,1,70,0,0
87434,-100,4,3,1,70,0,0
87777,-100,4,2,1,70,0,0
91206,-111.111111111111,4,2,1,70,0,0
91891,-166.666666666667,4,2,1,70,0,0
92577,-125,4,2,1,70,0,0
93263,-125,4,2,1,70,0,0
104234,-100,4,2,1,70,0,0
126177,-100,4,2,2,70,0,0
131320,-100,4,3,1,70,0,0
132006,-100,4,2,2,70,0,0
135778,-100,4,2,2,70,0,0
137148,-83.3333333333333,4,1,1,70,0,0
138520,-83.3333333333333,4,1,1,80,0,1
146406,-83.3333333333333,4,3,1,80,0,1
146748,-83.3333333333333,4,1,1,80,0,1
160120,-83.3333333333333,4,3,1,80,0,1
160463,-83.3333333333333,4,1,1,70,0,0
177263,-83.3333333333333,4,1,1,50,0,0
178291,-83.3333333333333,4,1,1,70,0,0
178634,-83.3333333333333,4,1,1,50,0,0
179663,-83.3333333333333,4,1,1,70,0,0
180006,-83.3333333333333,4,1,1,50,0,0
180348,-83.3333333333333,4,1,1,70,0,0
181034,-83.3333333333333,4,2,1,70,0,0
182406,-166.666666666667,4,2,1,70,0,0
204349,-100,4,1,1,70,0,0
215320,-100,4,2,2,70,0,0
220463,-100,4,3,1,70,0,0
221148,-100,4,2,2,70,0,0
223548,-100,4,1,1,70,0,0
226292,-83.3333333333333,4,1,1,70,0,0
227663,-83.3333333333333,4,1,1,80,0,1
235548,-83.3333333333333,4,3,1,80,0,1
235891,-83.3333333333333,4,1,1,80,0,1
249606,-111.111111111111,4,1,1,70,0,0
259891,-166.666666666666,4,2,1,60,0,0
260234,-111.111111111111,4,2,1,70,0,0
260578,-100,4,1,1,70,0,0
304120,-100,4,3,1,70,0,0
304548,-100,4,2,1,70,0,0
305148,-100,4,2,1,60,0,0
305834,-100,4,2,1,50,0,0
306520,-100,4,2,1,40,0,0
307206,-100,4,2,1,30,0,0
307891,-100,4,2,1,20,0,0
308234,-100,4,2,1,10,0,0
308577,-100,4,2,1,5,0,0

[Colours]
Combo1 : 0,128,192
Combo2 : 118,0,236
Combo3 : 0,196,98
Combo4 : 175,18,104

[HitObjects]
256,192,1377,12,0,2577,0:0:0:0:
23,111,2748,5,4,0:0:0:0:
49,89,2920,1,0,0:0:0:0:
122,62,3091,1,0,0:0:0:0:
213,88,3263,1,0,0:0:0:0:
213,88,3606,5,0,0:0:0:0:
151,163,3777,1,0,0:0:0:0:
156,260,3948,1,0,0:0:0:0:
176,293,4120,5,0,0:0:0:0:
237,312,4291,1,0,0:0:0:0:
303,300,4463,1,0,0:0:0:0:
363,245,4634,1,0,0:0:0:0:
476,245,4806,1,0,0:0:0:0:
476,245,5320,5,0,0:0:0:0:
436,323,5492,1,0,0:0:0:0:
359,364,5663,1,0,0:0:0:0:
274,341,5835,1,0,0:0:0:0:
227,267,6006,1,0,0:0:0:0:
227,267,6349,5,0,0:0:0:0:
227,267,6691,5,0,0:0:0:0:
274,341,6862,1,0,0:0:0:0:
359,364,7034,1,0,0:0:0:0:
436,323,7205,1,0,0:0:0:0:
476,245,7377,1,0,0:0:0:0:
431,113,7720,5,0,0:0:0:0:
379,133,7891,1,0,0:0:0:0:
293,109,8063,1,0,0:0:0:0:
238,31,8235,2,0,L|171:26,1,53.9999983520508,0|0,0:0|0:0,0:0:0:0:
48,72,8578,2,0,L|115:67,1,53.9999983520508
158,139,8920,5,0,0:0:0:0:
193,178,9091,1,0,0:0:0:0:
209,256,9263,1,0,0:0:0:0:
167,330,9434,1,0,0:0:0:0:
22,216,10120,5,0,0:0:0:0:
22,216,10463,5,0,0:0:0:0:
131,183,10634,1,0,0:0:0:0:
249,200,10806,1,0,0:0:0:0:
450,224,11491,5,0,0:0:0:0:
450,224,11834,5,0,0:0:0:0:
481,300,12006,1,0,0:0:0:0:
415,348,12177,1,0,0:0:0:0:
342,308,12348,1,0,0:0:0:0:
260,328,12520,1,0,0:0:0:0:
198,273,12691,1,0,0:0:0:0:
118,295,12863,1,0,0:0:0:0:
118,295,13206,5,0,0:0:0:0:
273,243,13377,1,0,0:0:0:0:
466,281,13720,5,4,0:0:0:0:
476,46,14406,5,0,0:0:0:0:
430,40,14577,1,0,0:0:0:0:
356,68,14749,1,0,0:0:0:0:
321,159,14920,1,0,0:0:0:0:
321,159,15435,5,0,0:0:0:0:
148,175,15777,5,0,0:0:0:0:
148,175,15948,1,0,0:0:0:0:
63,248,16120,1,0,0:0:0:0:
75,350,16291,1,0,0:0:0:0:
75,350,16634,5,0,0:0:0:0:
157,302,16806,1,0,0:0:0:0:
242,332,16977,1,0,0:0:0:0:
242,332,17492,5,0,0:0:0:0:
242,332,17663,1,0,0:0:0:0:
478,298,18006,5,0,0:0:0:0:
495,195,18178,1,0,0:0:0:0:
418,132,18349,1,0,0:0:0:0:
309,189,18520,5,0,0:0:0:0:
278,209,18692,1,0,0:0:0:0:
203,207,18863,1,0,0:0:0:0:
118,154,19035,1,0,0:0:0:0:
92,26,19206,1,0,0:0:0:0:
92,26,19548,5,0,0:0:0:0:
118,155,19720,1,0,0:0:0:0:
80,291,20234,5,0,0:0:0:0:
118,155,20406,1,0,0:0:0:0:
27,312,20748,5,0,0:0:0:0:
80,291,20920,1,0,0:0:0:0:
139,311,21091,1,0,0:0:0:0:
163,325,21263,1,0,0:0:0:0:
190,322,21434,1,0,0:0:0:0:
270,282,21606,5,0,0:0:0:0:
254,189,21777,1,0,0:0:0:0:
254,189,22292,5,0,0:0:0:0:
285,375,22463,1,0,0:0:0:0:
285,375,22977,5,0,0:0:0:0:
270,282,23148,1,0,0:0:0:0:
256,192,23320,12,0,26063,0:0:0:0:
305,92,27092,6,0,L|304:128,3,26.9999991760254,0|0|0|0,0:0|0:0|0:0|0:0,0:0:0:0:
363,46,27435,6,0,P|444:53|463:131,1,144,4|0,0:0|0:0,0:0:0:0:
385,278,27949,2,0,P|381:202|383:116,1,144,0|0,0:0|0:0,0:0:0:0:
298,227,28463,1,0,0:0:0:0:
458,173,28635,1,0,0:0:0:0:
296,84,28806,2,0,P|299:159|297:245,1,144
238,384,29320,2,0,P|241:338|238:289,1,72
165,230,29663,1,0,0:0:0:0:
78,308,29835,2,0,P|41:300|5:237,1,108
3,171,30178,6,0,P|6:78|13:11,1,144
172,86,30692,2,0,P|169:150|107:117,1,144,0|0,0:0|0:0,0:0:0:0:
128,8,31206,2,0,P|172:1|225:13,1,72
355,88,31548,2,0,P|319:91|351:19,1,144
479,12,32063,2,0,P|485:87|478:178,1,144
353,260,32577,2,0,P|351:191|357:158,1,72,0|0,0:0|0:0,0:0:0:0:
506,339,32920,6,0,P|476:253|421:234,1,144,4|0,0:0|0:0,0:0:0:0:
295,330,33434,2,0,P|384:347|428:309,1,144,0|0,0:0|0:0,0:0:0:0:
351,188,33948,2,0,P|349:224|353:260,1,72
421,91,34292,1,0,0:0:0:0:
314,19,34463,2,0,L|219:25,1,72
118,113,34806,2,0,L|269:103,1,144
70,43,35320,2,0,P|34:89|32:118,1,72
120,257,35663,6,0,P|120:175|117:93,1,144,0|0,0:0|0:0,0:0:0:0:
236,8,36177,2,0,P|235:89|238:171,1,144
398,119,36691,2,0,P|362:118|326:119,1,72
120,257,37035,6,0,L|269:248,1,144,0|0,0:0|0:0,0:0:0:0:
382,378,37548,2,0,L|238:369,1,144,0|0,0:0|0:0,0:0:0:0:
368,248,38063,2,0,L|442:243,1,72
361,158,38406,6,0,L|368:248,1,90,4|0,0:1|0:1,0:0:0:0:
377,30,38748,1,8,0:1:0:0:
209,75,38920,2,0,P|246:188|300:156,1,180,0|0,0:1|0:1,0:0:0:0:
377,30,39435,2,0,L|287:23,1,90,8|0,0:1|0:1,0:0:0:0:
139,223,39778,2,0,L|228:216,1,90,0|0,0:1|0:1,0:0:0:0:
282,108,40120,1,8,0:1:0:0:
137,18,40292,2,0,L|48:25,1,90,0|0,0:1|0:1,0:0:0:0:
1,185,40635,2,0,L|90:178,1,90,0|8,0:1|0:1,0:0:0:0:
137,18,40978,1,0,0:1:0:0:
1,185,41149,6,0,L|14:364,1,180,0|8,0:1|0:1,0:0:0:0:
172,272,41663,1,0,0:1:0:0:
172,272,41835,2,0,P|120:253|75:257,1,90,0|0,0:1|0:1,0:0:0:0:
206,384,42178,2,0,P|250:383|291:366,1,90,8|0,0:1|0:1,0:0:0:0:
372,192,42520,1,0,0:1:0:0:
257,286,42692,1,0,0:1:0:0:
456,309,42863,1,8,0:1:0:0:
456,309,43035,2,0,P|405:293|346:292,1,90,0|0,0:1|0:1,0:0:0:0:
206,207,43377,2,0,P|250:202|293:188,1,90,0|8,0:1|0:1,0:0:0:0:
464,140,43720,1,0,0:1:0:0:
380,13,43892,6,0,P|374:102|371:192,1,180,4|8,0:1|0:1,0:0:0:0:
372,192,44406,1,0,0:1:0:0:
302,69,44578,2,0,P|267:41|223:34,1,90,0|0,0:1|0:1,0:0:0:0:
147,161,44920,2,0,P|199:150|230:120,1,90,8|0,0:1|0:1,0:0:0:0:
110,7,45263,1,0,0:1:0:0:
0,134,45435,2,0,L|15:251,1,90,0|8,0:1|0:1,0:0:0:0:
205,269,45778,2,0,P|147:242|102:255,1,90,0|0,0:1|0:1,0:0:0:0:
193,373,46120,2,0,P|237:373|274:349,1,90,0|8,0:1|0:1,0:0:0:0:
334,206,46463,1,0,0:1:0:0:
226,6,46635,6,0,P|220:100|214:186,1,180,0|8,0:1|0:1,0:0:0:0:
454,144,47149,2,0,P|392:81|305:85,1,180,0|0,0:1|0:1,0:0:0:0:
348,257,47663,2,0,L|355:168,1,90,8|0,0:1|0:1,0:0:0:0:
214,185,48006,6,0,P|220:279|226:365,1,180,0|8,0:1|0:1,0:0:0:0:
433,277,48520,2,0,P|362:255|335:264,1,90,0|0,0:1|0:1,0:0:0:0:
492,360,48863,1,0,0:1:0:0:
512,121,49035,6,0,P|476:125|444:143,1,53.9999983520508,0|0,0:0|0:0,0:0:0:0:
387,158,49206,2,0,P|360:156|334:147,1,53.9999983520508
274,100,49378,6,0,L|277:10,1,90,6|0,0:0|0:0,0:0:0:0:
143,95,49720,2,0,L|146:184,1,90,8|0,0:0|0:0,0:0:0:0:
99,12,50063,1,2,0:0:0:0:
99,12,50234,1,2,0:0:0:0:
238,118,50406,1,8,0:0:0:0:
85,212,50578,1,0,0:0:0:0:
3,93,50749,6,0,L|0:3,1,90,2|0,0:0|0:0,0:0:0:0:
102,107,51092,1,8,0:0:0:0:
0,217,51263,1,0,0:0:0:0:
97,320,51435,1,2,0:0:0:0:
97,320,51606,1,2,0:0:0:0:
279,216,51778,2,0,P|237:213|182:207,1,90,8|0,0:0|0:0,0:0:0:0:
333,375,52120,6,0,P|375:372|430:366,1,90,2|0,0:0|0:0,0:0:0:0:
372,176,52463,2,0,P|363:233|359:279,1,90,8|0,0:0|0:0,0:0:0:0:
493,315,52806,1,2,0:0:0:0:
493,315,52978,1,2,0:0:0:0:
296,314,53149,2,0,P|254:311|199:305,1,90,8|0,0:0|0:0,0:0:0:0:
111,196,53492,6,0,P|118:288|37:282,1,180,2|8,0:0|0:0,0:0:0:0:
9,176,54006,1,0,0:0:0:0:
196,76,54177,1,2,0:0:0:0:
111,196,54348,1,2,0:0:0:0:
20,86,54520,1,2,0:0:0:0:
20,55,54605,1,0,0:0:0:0:
24,25,54692,2,0,L|84:33,1,45,0|0,0:0|0:0,0:0:0:0:
196,76,54863,6,0,P|273:88|351:67,1,135,2|2,0:0|0:0,0:0:0:0:
379,29,55206,2,0,P|372:82|372:142,1,90,8|0,0:0|0:0,0:0:0:0:
512,241,55549,2,0,P|442:215|413:214,1,90,2|0,0:0|0:0,0:0:0:0:
320,379,55892,1,8,0:0:0:0:
440,301,56063,1,0,0:0:0:0:
312,172,56234,5,2,0:0:0:0:
312,172,56406,2,0,P|315:242|321:271,1,90,0|8,0:0|0:0,0:0:0:0:
186,149,56748,1,0,0:0:0:0:
97,276,56920,2,0,P|90:320|90:365,1,90,2|0,0:0|0:0,0:0:0:0:
35,199,57263,1,8,0:0:0:0:
189,287,57434,1,2,0:0:0:0:
19,115,57606,6,0,P|87:77|89:22,1,135,2|0,0:0|0:0,0:0:0:0:
91,27,57949,2,0,P|36:21|-11:20,1,90,8|0,0:0|0:0,0:0:0:0:
35,199,58292,2,0,P|90:193|137:192,1,90,2|0,0:0|0:0,0:0:0:0:
263,201,58634,1,8,0:0:0:0:
167,350,58806,1,2,0:0:0:0:
319,303,58977,2,0,P|274:301|229:295,1,90,2|0,0:0|0:0,0:0:0:0:
417,358,59320,2,0,P|415:294|423:243,1,90,8|0,0:0|0:0,0:0:0:0:
508,109,59663,5,2,0:0:0:0:
471,65,59748,1,0,0:0:0:0:
421,39,59834,1,0,0:0:0:0:
365,35,59920,1,0,0:0:0:0:
312,53,60006,6,0,P|286:84|265:137,1,62.9999980773926,2|0,0:0|0:0,0:0:0:0:
138,1,60177,2,0,P|141:41|164:93,1,62.9999980773926,2|0,0:0|0:0,0:0:0:0:
0,172,60349,6,0,P|72:222|31:313,1,161.999995056153,6|0,0:0|0:0,0:0:0:0:
78,175,60692,2,0,P|136:167|193:155,1,107.999996704102,8|0,0:0|0:0,0:0:0:0:
389,193,61035,2,0,P|373:262|368:299,1,107.999996704102,2|0,0:0|0:0,0:0:0:0:
479,250,61378,1,8,0:0:0:0:
273,333,61549,1,0,0:0:0:0:
383,109,61720,6,0,L|374:-10,1,107.999996704102,2|0,0:0|0:0,0:0:0:0:
287,211,62063,1,8,0:0:0:0:
494,102,62235,1,0,0:0:0:0:
296,17,62406,2,0,L|287:124,1,107.999996704102,2|0,0:0|0:0,0:0:0:0:
429,269,62749,2,0,L|420:162,1,107.999996704102,8|0,0:0|0:0,0:0:0:0:
161,47,63092,6,0,P|86:60|39:135,1,161.999995056153,2|0,0:0|0:0,0:0:0:0:
29,207,63434,2,0,P|35:262|43:315,1,107.999996704102,8|0,0:0|0:0,0:0:0:0:
227,233,63778,2,0,P|282:227|335:219,1,107.999996704102,2|0,0:0|0:0,0:0:0:0:
139,146,64120,1,8,0:0:0:0:
253,377,64291,1,0,0:0:0:0:
454,226,64463,5,2,0:0:0:0:
275,155,64634,2,0,P|285:207|293:261,1,107.999996704102,0|8,0:0|0:0,0:0:0:0:
330,59,64977,1,0,0:0:0:0:
512,133,65149,2,0,P|458:114|394:89,1,107.999996704102,2|0,0:0|0:0,0:0:0:0:
167,36,65492,2,0,P|220:17|284:-7,1,107.999996704102,8|0,0:0|0:0,0:0:0:0:
81,141,65835,6,0,P|138:196|134:275,1,161.999995056153,2|0,0:0|0:0,0:0:0:0:
50,293,66177,2,0,P|101:309|153:321,1,107.999996704102,8|0,0:0|0:0,0:0:0:0:
322,165,66520,2,0,P|373:149|426:136,1,107.999996704102,2|0,0:0|0:0,0:0:0:0:
298,290,66863,1,8,0:0:0:0:
208,102,67034,1,0,0:0:0:0:
266,380,67206,6,0,P|348:371|388:324,1,107.999996704102,2|0,0:0|0:0,0:0:0:0:
474,249,67548,1,8,0:0:0:0:
322,165,67720,1,0,0:0:0:0:
173,273,67892,2,0,P|164:325|157:402,1,107.999996704102,2|0,0:0|0:0,0:0:0:0:
296,276,68234,1,8,0:0:0:0:
191,120,68406,1,0,0:0:0:0:
2,191,68578,6,0,P|62:197|109:196,1,107.999996704102,2|0,0:0|0:0,0:0:0:0:
299,125,68920,2,0,P|239:119|192:120,1,107.999996704102,8|0,0:0|0:0,0:0:0:0:
466,189,69263,6,0,P|484:87|422:13,1,161.999995056153,2|0,0:0|0:0,0:0:0:0:
424,3,69606,1,8,0:0:0:0:
191,120,69778,1,0,0:0:0:0:
376,239,69948,5,2,0:0:0:0:
376,239,70033,1,0,0:0:0:0:
376,239,70120,2,0,L|374:177,1,53.9999983520508,8|0,0:0|0:0,0:0:0:0:
246,5,70291,1,2,0:0:0:0:
246,5,70376,1,0,0:0:0:0:
246,5,70463,2,0,L|244:67,1,53.9999983520508,8|0,0:0|0:0,0:0:0:0:
3,234,70634,5,2,0:0:0:0:
42,224,70719,1,0,0:0:0:0:
82,223,70805,1,8,0:0:0:0:
122,231,70891,1,0,0:0:0:0:
158,248,70977,6,0,P|184:253|211:255,1,53.9999983520508,2|0,0:0|0:0,0:0:0:0:
323,160,71148,2,0,P|379:152|392:147,1,53.9999983520508,8|0,0:0|0:0,0:0:0:0:
488,19,71320,6,0,P|497:92|498:143,1,107.999996704102,6|0,0:0|0:0,0:0:0:0:
323,160,71663,2,0,P|326:214|334:268,1,107.999996704102,8|0,0:0|0:0,0:0:0:0:
148,119,72006,2,0,P|155:65|158:11,1,107.999996704102,2|0,0:0|0:0,0:0:0:0:
86,179,72349,1,8,0:0:0:0:
263,87,72520,1,0,0:0:0:0:
415,181,72692,6,0,P|416:106|420:60,1,107.999996704102,2|0,0:0|0:0,0:0:0:0:
458,278,73035,1,8,0:0:0:0:
317,136,73206,1,0,0:0:0:0:
203,277,73378,2,0,P|200:330|200:384,1,107.999996704102,2|0,0:0|0:0,0:0:0:0:
1,293,73720,1,8,0:0:0:0:
1,293,74063,6,0,P|-1:239|12:187,1,107.999996704102,2|0,0:0|0:0,0:0:0:0:
219,173,74406,2,0,P|174:202|122:218,1,107.999996704102,8|0,0:0|0:0,0:0:0:0:
8,44,74748,2,0,P|55:69|95:106,1,107.999996704102,2|0,0:0|0:0,0:0:0:0:
201,0,75091,1,8,0:0:0:0:
344,84,75263,1,0,0:0:0:0:
344,84,75435,6,0,P|338:169|343:203,1,107.999996704102,2|0,0:0|0:0,0:0:0:0:
418,336,75778,1,8,0:1:0:0:
274,243,75948,1,0,0:0:0:0:
512,173,76120,2,0,P|438:142|397:152,1,107.999996704102,2|0,0:0|0:0,0:0:0:0:
259,76,76463,6,0,P|234:64|208:60,1,53.9999983520508,0|0,0:0|0:0,0:0:0:0:
136,16,76634,2,0,P|109:25|88:40,1,53.9999983520508,0|0,0:0|0:0,0:0:0:0:
7,57,76806,6,0,L|18:211,1,107.999996704102,2|0,0:0|0:0,0:0:0:0:
56,250,77063,1,0,0:0:0:0:
56,250,77148,2,0,P|54:196|53:142,1,107.999996704102,8|0,0:0|0:0,0:0:0:0:
252,273,77491,2,0,P|250:336|250:394,1,107.999996704102,2|0,0:0|0:0,0:0:0:0:
410,224,77835,1,8,0:0:0:0:
203,123,78006,1,0,0:0:0:0:
347,13,78178,6,0,P|344:85|340:136,1,107.999996704102,2|0,0:0|0:0,0:0:0:0:
498,246,78520,2,0,P|499:299|503:353,1,107.999996704102,8|0,0:0|0:0,0:0:0:0:
324,285,78863,1,2,0:0:0:0:
512,128,79035,1,0,0:0:0:0:
240,148,79206,5,8,0:0:0:0:
498,246,79378,1,2,0:0:0:0:
322,58,79549,6,0,P|279:35|216:29,1,107.999996704102,2|0,0:0|0:0,0:0:0:0:
7,164,79892,2,0,P|60:158|108:134,1,107.999996704102,8|0,0:0|0:0,0:0:0:0:
328,255,80235,2,0,P|279:230|226:227,1,107.999996704102,2|0,0:0|0:0,0:0:0:0:
82,324,80577,1,8,0:0:0:0:
290,384,80748,1,0,0:0:0:0:
205,132,80920,5,2,0:0:0:0:
371,324,81091,1,2,0:0:0:0:
469,78,81263,1,8,0:0:0:0:
292,178,81434,1,2,0:0:0:0:
511,291,81605,1,0,0:0:0:0:
511,291,81949,6,0,P|476:294|438:314,1,62.9999980773926,2|0,0:0|0:0,0:0:0:0:
328,255,82120,2,0,P|363:252|401:232,1,62.9999980773926,2|0,0:0|0:0,0:0:0:0:
425,160,82292,6,0,L|417:384,1,215.999993408203,6|2,0:1|0:1,0:0:0:0:
418,376,82806,1,0,0:1:0:0:
328,255,82978,2,0,P|267:227|221:233,1,90,2|0,0:1|0:1,0:0:0:0:
137,331,83320,1,2,0:1:0:0:
262,311,83492,1,0,0:1:0:0:
162,156,83663,6,0,P|163:222|161:259,1,90,2|0,0:1|0:1,0:0:0:0:
49,185,84006,1,2,0:1:0:0:
49,185,84177,1,0,0:1:0:0:
127,50,84348,1,0,0:0:0:0:
243,142,84520,1,0,0:1:0:0:
294,18,84692,2,0,P|338:12|383:8,1,90,2|0,0:1|0:1,0:0:0:0:
477,142,85035,6,0,P|406:127|331:223,1,180,2|2,0:1|0:1,0:0:0:0:
428,305,85549,1,0,0:1:0:0:
428,305,85720,2,0,P|425:241|423:189,1,90,2|0,0:1|0:1,0:0:0:0:
384,370,86063,1,2,0:1:0:0:
512,261,86235,1,0,0:1:0:0:
318,142,86406,6,0,P|314:186|313:231,1,90,2|0,0:1|0:1,0:0:0:0:
172,295,86748,2,0,P|176:339|176:384,1,90,2|0,0:1|0:1,0:0:0:0:
216,218,87092,1,2,0:1:0:0:
91,318,87263,1,0,0:1:0:0:
0,121,87435,6,0,P|44:120|75:136,1,45,2|0,1:0|0:0,0:0:0:0:
108,162,87606,2,0,P|130:164|152:161,1,45,2|0,0:1|0:0,0:0:0:0:
214,107,87777,6,0,P|263:86|315:87,1,90,2|0,0:1|0:0,0:0:0:0:
374,9,88120,2,0,P|416:40|441:86,1,90,0|0,0:0|0:0,0:0:0:0:
512,123,88463,2,0,P|505:175|478:220,1,90,0|0,0:0|0:0,0:0:0:0:
398,251,88806,1,0,0:0:0:0:
322,178,88977,1,0,0:0:0:0:
226,285,89149,6,0,P|215:328|198:369,1,90,2|0,0:1|0:0,0:0:0:0:
101,384,89491,2,0,P|68:352|40:317,1,90,0|0,0:0|0:0,0:0:0:0:
77,227,89834,2,0,P|119:213|164:207,1,90,0|0,0:0|0:0,0:0:0:0:
252,131,90177,1,2,0:1:0:0:
252,131,90348,1,0,0:0:0:0:
72,69,90520,6,0,P|117:65|162:63,1,90
233,21,90777,1,0,0:0:0:0:
233,21,90863,2,0,P|288:24|333:28,1,90
408,76,91120,1,0,0:0:0:0:
408,76,91206,6,0,P|416:136|417:170,1,80.9999975280763,0|0,0:0|0:0,0:0:0:0:
417,156,91463,1,0,0:0:0:0:
417,156,91548,1,0,0:0:0:0:
365,262,91720,1,0,0:0:0:0:
282,197,91891,6,0,P|262:102|298:51,1,161.999995056153
296,53,92577,6,0,L|361:59,3,36,0|0|0|0,0:0|0:0|0:0|0:0,0:0:0:0:
224,110,92920,2,0,L|159:116,3,36
121,43,93263,6,0,P|40:50|21:128,1,144,4|0,0:0|0:0,0:0:0:0:
99,275,93777,2,0,P|103:199|101:113,1,144,0|0,0:0|0:0,0:0:0:0:
23,176,94291,1,0,0:0:0:0:
121,43,94463,1,0,0:0:0:0:
187,152,94634,2,0,P|185:194|186:243,1,72
185,223,94977,1,0,0:0:0:0:
246,373,95148,6,0,P|242:327|259:273,1,72
314,157,95491,2,0,P|355:176|394:218,1,72
405,357,95834,1,0,0:0:0:0:
305,246,96006,6,0,P|305:136|309:75,1,144,0|0,0:0|0:0,0:0:0:0:
512,135,96520,2,0,P|478:176|386:179,1,144,0|0,0:0|0:0,0:0:0:0:
424,24,97034,2,0,P|428:60|430:96,1,72,0|0,0:0|0:0,0:0:0:0:
259,77,97377,2,0,P|294:81|330:82,1,72,0|0,0:0|0:0,0:0:0:0:
330,82,97720,1,0,0:0:0:0:
161,22,97892,6,0,P|90:13|30:88,1,144,0|0,0:0|0:0,0:0:0:0:
113,168,98406,2,0,P|116:133|115:97,1,72,0|0,0:0|0:0,0:0:0:0:
5,299,98748,6,0,P|62:257|132:266,1,144,4|0,0:0|0:0,0:0:0:0:
254,338,99263,2,0,P|321:346|386:296,1,144
310,176,99777,2,0,P|301:210|298:246,1,72
429,176,100120,1,0,0:0:0:0:
352,80,100291,6,0,P|305:84|257:86,1,72
148,180,100634,2,0,P|195:176|243:174,1,72,0|0,0:0|0:0,0:0:0:0:
105,90,100977,1,0,0:0:0:0:
37,197,101148,2,0,P|39:232|42:268,1,72,0|0,0:0|0:0,0:0:0:0:
250,384,101492,6,0,P|250:309|247:235,1,144
352,80,102006,2,0,P|351:154|354:228,1,144,0|0,0:0|0:0,0:0:0:0:
463,322,102520,6,0,P|427:323|391:323,1,72,0|0,0:0|0:0,0:0:0:0:
325,377,102863,1,0,0:0:0:0:
494,243,103034,2,0,P|458:244|422:244,1,72,0|0,0:0|0:0,0:0:0:0:
325,139,103377,5,0,0:0:0:0:
179,98,103548,1,0,0:0:0:0:
360,139,103720,1,0,0:0:0:0:
185,188,103891,1,0,0:0:0:0:
302,60,104063,1,0,0:0:0:0:
385,252,104234,6,0,L|392:342,1,90,2|0,0:1|0:1,0:0:0:0:
295,237,104577,1,8,0:1:0:0:
448,119,104749,1,0,0:0:0:0:
279,42,104920,2,0,L|173:64,1,90,2|0,0:1|0:1,0:0:0:0:
6,132,105263,2,0,L|112:154,1,90,8|0,0:1|0:0,0:0:0:0:
187,340,105606,6,0,P|187:283|190:227,1,90,2|0,0:1|0:1,0:0:0:0:
260,167,105948,1,8,0:1:0:0:
384,278,106120,2,0,P|355:280|288:280,1,90,0|2,0:0|0:1,0:0:0:0:
411,181,106463,2,0,P|440:183|507:183,1,90,0|8,0:1|0:1,0:0:0:0:
410,64,106806,5,0,0:0:0:0:
260,167,106977,2,0,L|273:346,1,180,2|8,0:1|0:1,0:0:0:0:
435,229,107491,1,0,0:0:0:0:
435,229,107663,2,0,P|383:210|338:214,1,90,2|0,0:1|0:1,0:0:0:0:
415,357,108006,2,0,P|459:356|513:333,1,90,8|0,0:1|0:0,0:0:0:0:
246,293,108349,2,0,L|253:396,1,90,2|0,0:1|0:1,0:0:0:0:
40,323,108691,5,8,0:1:0:0:
40,323,108863,2,0,P|94:282|142:276,1,90,0|2,0:0|0:1,0:0:0:0:
251,205,109206,2,0,P|210:189|177:158,1,90,0|8,0:1|0:1,0:0:0:0:
76,16,109548,1,0,0:0:0:0:
76,16,109720,6,0,P|82:107|84:223,1,180,2|8,0:1|0:1,0:0:0:0:
208,266,110234,1,0,0:0:0:0:
261,96,110406,2,0,P|226:68|182:61,1,90,2|0,0:1|0:1,0:0:0:0:
251,197,110748,2,0,P|303:186|334:156,1,90,8|0,0:1|0:0,0:0:0:0:
403,21,111091,5,2,0:1:0:0:
505,132,111263,2,0,L|490:249,1,90,0|8,0:1|0:1,0:0:0:0:
378,285,111606,2,0,P|320:258|275:271,1,90,0|2,0:0|0:1,0:0:0:0:
366,384,111948,2,0,P|410:384|447:360,1,90,0|8,0:1|0:1,0:0:0:0:
485,269,112291,1,0,0:0:0:0:
388,106,112463,6,0,L|378:286,1,180,2|8,0:1|0:1,0:0:0:0:
202,384,112978,2,0,L|192:205,1,180,0|0,0:1|0:1,0:0:0:0:
233,18,113491,2,0,L|228:107,1,90,8|0,0:1|0:1,0:0:0:0:
363,184,113835,5,2,0:1:0:0:
191,204,114006,1,2,0:1:0:0:
450,313,114178,1,8,0:1:0:0:
273,266,114349,1,2,0:1:0:0:
474,170,114520,5,2,0:1:0:0:
502,335,114692,1,0,0:1:0:0:
301,280,114863,1,2,0:1:0:0:
512,239,115035,1,2,0:1:0:0:
383,83,115206,6,0,P|312:83|291:82,1,90,2|0,0:1|0:1,0:0:0:0:
178,0,115549,1,8,0:1:0:0:
78,127,115720,2,0,P|118:146|162:146,1,90,0|2,0:0|0:1,0:0:0:0:
93,16,116063,1,0,0:1:0:0:
93,16,116235,2,0,P|49:16|9:36,1,90,8|0,0:1|0:0,0:0:0:0:
8,226,116578,6,0,L|99:222,1,90,2|0,0:1|0:1,0:0:0:0:
237,123,116920,2,0,L|327:127,1,90,8|0,0:1|0:0,0:0:0:0:
492,194,117263,1,2,0:1:0:0:
326,218,117435,1,0,0:1:0:0:
424,58,117606,2,0,P|416:109|417:154,1,90,8|0,0:1|0:0,0:0:0:0:
512,265,117949,6,0,P|442:229|331:252,1,180,2|8,0:1|0:1,0:0:0:0:
257,384,118463,2,0,P|252:313|238:262,1,90,0|2,0:0|0:1,0:0:0:0:
151,218,118806,1,0,0:1:0:0:
90,344,118978,2,0,P|147:353|191:334,1,90,8|0,0:1|0:0,0:0:0:0:
237,184,119320,6,0,P|235:139|238:94,1,90,2|0,0:1|0:1,0:0:0:0:
424,8,119663,2,0,P|403:48|380:86,1,90,8|0,0:1|0:0,0:0:0:0:
465,205,120006,2,0,P|425:225|387:249,1,90,2|0,0:1|0:1,0:0:0:0:
340,370,120349,1,8,0:1:0:0:
340,370,120434,1,0,0:1:0:0:
340,370,120520,1,0,0:1:0:0:
340,370,120606,1,0,0:1:0:0:
340,370,120692,6,0,P|339:252|334:170,1,180,2|8,0:1|0:1,0:0:0:0:
182,264,121206,2,0,P|228:290|280:289,1,90,0|2,0:0|0:1,0:0:0:0:
186,170,121549,2,0,P|141:174|103:198,1,90,0|8,0:1|0:1,0:0:0:0:
7,318,121892,1,0,0:0:0:0:
7,318,122063,6,0,P|7:252|6:207,1,90,2|0,0:1|0:1,0:1:0:0:
38,65,122406,1,8,0:1:0:0:
38,65,122577,2,0,P|38:131|39:176,1,90,0|2,0:1|0:1,0:1:0:0:
139,29,122920,1,0,0:1:0:0:
207,154,123092,1,8,0:1:0:0:
207,154,123435,6,0,P|311:154|408:146,1,180,2|8,0:1|0:1,0:0:0:0:
348,64,123949,1,0,0:1:0:0:
348,64,124120,2,0,P|303:107|297:155,1,90,2|0,0:1|0:1,0:0:0:0:
446,226,124463,1,8,0:1:0:0:
434,79,124634,1,0,0:1:0:0:
312,238,124806,5,2,0:1:0:0:
512,309,124978,1,2,0:1:0:0:
386,148,125149,1,8,0:1:0:0:
374,381,125320,1,2,0:1:0:0:
194,317,125492,5,2,0:1:0:0:
357,297,125663,1,0,0:1:0:0:
162,200,125835,1,2,0:1:0:0:
310,228,126006,1,2,0:1:0:0:
108,365,126178,6,0,P|111:308|107:265,1,90,6|0,0:2|0:2,0:0:0:0:
9,218,126520,2,0,P|47:178|88:165,1,90,8|0,0:2|0:2,0:0:0:0:
56,34,126863,2,0,P|111:32|149:52,1,90,0|0,0:2|0:2,0:0:0:0:
276,142,127206,1,8,0:2:0:0:
211,18,127378,1,8,0:2:0:0:
174,220,127549,6,0,P|182:159|205:125,1,90,2|0,0:2|0:2,0:0:0:0:
303,167,127891,2,0,P|357:138|398:137,1,90,8|0,0:2|0:2,0:0:0:0:
406,237,128234,2,0,P|460:265|484:298,1,90,0|0,0:2|0:2,0:0:0:0:
316,252,128578,1,8,0:2:0:0:
286,384,128749,1,8,0:2:0:0:
209,275,128920,6,0,P|147:275|120:284,1,90,2|0,0:2|0:2,0:0:0:0:
128,134,129263,2,0,P|77:169|60:192,1,90,8|0,0:2|0:2,0:0:0:0:
37,10,129606,2,0,P|15:68|15:96,1,90,0|0,0:2|0:2,0:0:0:0:
128,134,129949,1,8,0:2:0:0:
184,0,130120,1,8,0:2:0:0:
322,95,130292,6,0,P|252:87|222:87,1,90,2|0,0:2|0:2,0:0:0:0:
338,281,130635,2,0,P|379:224|394:198,1,90,8|0,0:2|0:2,0:0:0:0:
168,201,130978,2,0,P|196:265|211:291,1,90,0|0,0:2|0:2,0:0:0:0:
389,207,131320,6,0,L|338:195,1,45,0|0,0:2|0:2,0:0:0:0:
310,97,131492,2,0,L|321:50,1,45,0|0,0:2|0:2,0:0:0:0:
410,0,131663,1,0,0:2:0:0:
410,0,132006,6,0,P|416:57|412:90,1,90,0|0,0:2|0:2,0:0:0:0:
503,216,132349,2,0,P|451:200|406:197,1,90,8|0,0:2|0:2,0:0:0:0:
421,378,132692,1,8,0:2:0:0:
350,268,132863,1,8,0:2:0:0:
192,379,133035,6,0,P|234:330|279:311,1,90,8|0,0:2|0:2,0:0:0:0:
73,279,133378,2,0,P|131:265|170:270,1,90,8|0,0:2|0:2,0:0:0:0:
23,147,133720,2,0,P|85:163|116:187,1,90,8|0,0:2|0:2,0:0:0:0:
87,5,134063,1,8,0:2:0:0:
166,94,134235,1,8,0:2:0:0:
246,18,134406,6,0,P|291:20|335:30,1,90,8|8,0:2|0:2,0:0:0:0:
429,121,134663,1,0,0:0:0:0:
429,121,134749,2,0,P|384:123|341:133,1,90,8|8,0:2|0:2,0:0:0:0:
301,242,135006,1,0,0:0:0:0:
301,242,135092,2,0,P|214:230|188:232,1,90,8|8,0:2|0:2,0:0:0:0:
362,300,135435,1,8,0:2:0:0:
276,151,135606,1,8,0:2:0:0:
161,379,135778,5,8,0:2:0:0:
113,260,135949,2,0,P|122:203|143:149,1,90,0|8,0:2|0:2,0:0:0:0:
26,385,136292,2,0,P|18:331|0:281,1,90,0|8,0:2|0:2,0:0:0:0:
7,297,136548,1,0,0:1:0:0:
7,297,136635,5,0,0:2:0:0:
216,217,136806,1,8,0:2:0:0:
0,104,136978,1,8,0:2:0:0:
149,36,137148,6,0,B|205:40|205:40|250:26|250:26|308:31,1,161.999995056153,2|0,0:2|0:2,0:2:0:0:
468,118,137491,6,0,P|415:174|341:150,1,161.999995056153,2|0,0:2|0:2,0:2:0:0:
394,50,137834,6,0,L|396:103,1,53.9999983520508,2|0,0:2|0:2,0:2:0:0:
405,274,138006,6,0,L|406:301,11,26.9999991760254,0|0|0|0|0|0|0|0|0|0|0|0,0:2|0:2|0:2|0:2|0:2|0:2|0:2|0:2|0:2|0:2|0:2|0:2,0:2:0:0:
440,242,138520,6,0,P|473:321|369:359,1,215.999993408203,6|8,0:0|0:0,0:0:0:0:
260,206,139035,1,0,0:0:0:0:
142,384,139206,2,0,P|212:376|268:372,1,107.999996704102,2|0,0:0|0:0,0:0:0:0:
111,256,139549,2,0,P|41:248|-15:244,1,107.999996704102,8|0,0:0|0:0,0:0:0:0:
216,108,139892,6,0,P|216:20|213:-29,1,107.999996704102,2|0,0:0|0:0,0:0:0:0:
131,176,140235,1,8,0:0:0:0:
362,67,140406,1,0,0:0:0:0:
110,0,140578,1,2,0:0:0:0:
110,0,140749,1,2,0:0:0:0:
215,190,140920,1,0,0:0:0:0:
215,190,141263,6,0,P|280:143|363:155,1,161.999995056153,2|0,0:0|0:0,0:0:0:0:
410,215,141606,2,0,P|412:172|411:102,1,107.999996704102,8|0,0:0|0:0,0:0:0:0:
237,36,141949,1,2,0:0:0:0:
158,260,142120,1,0,0:0:0:0:
8,115,142292,2,0,P|61:108|115:106,1,107.999996704102,8|0,0:0|0:0,0:0:0:0:
244,283,142634,6,0,P|211:336|148:352,1,107.999996704102,2|0,0:0|0:0,0:0:0:0:
0,203,142977,2,0,P|53:196|107:194,1,107.999996704102,8|0,0:0|0:0,0:0:0:0:
390,210,143320,5,2,0:0:0:0:
158,260,143492,1,2,0:0:0:0:
333,130,143663,1,0,0:0:0:0:
182,101,143835,1,0,0:0:0:0:
323,371,144006,6,0,P|319:308|316:252,1,107.999996704102,2|0,0:0|0:0,0:0:0:0:
509,153,144349,2,0,P|504:206|501:260,1,107.999996704102,8|0,0:0|0:0,0:0:0:0:
303,133,144691,2,0,P|299:79|296:25,1,107.999996704102,2|0,0:0|0:0,0:0:0:0:
381,196,145034,1,8,0:0:0:0:
213,78,145206,1,0,0:0:0:0:
398,8,145377,6,0,P|451:11|505:16,1,107.999996704102,2|0,0:0|0:0,0:0:0:0:
303,133,145720,1,8,0:0:0:0:
512,216,145891,1,0,0:0:0:0:
336,267,146063,2,0,P|329:320|326:374,1,107.999996704102,2|0,0:0|0:0,0:0:0:0:
262,205,146406,6,0,P|238:194|212:190,1,53.9999983520508,0|0,0:0|0:0,0:0:0:0:
114,162,146578,2,0,P|89:171|67:187,1,53.9999983520508,0|0,0:0|0:0,0:0:0:0:
6,267,146749,6,0,L|16:403,1,107.999996704102,6|0,0:0|0:0,0:0:0:0:
135,247,147091,1,8,0:0:0:0:
135,247,147262,1,0,0:0:0:0:
0,86,147434,2,0,P|71:83|129:89,1,107.999996704102,2|0,0:0|0:0,0:0:0:0:
270,0,147777,2,0,P|308:59|331:113,1,107.999996704102,8|0,0:0|0:0,0:0:0:0:
317,382,148120,5,2,0:0:0:0:
398,161,148291,1,2,0:0:0:0:
503,347,148463,1,8,0:0:0:0:
239,298,148635,1,2,0:0:0:0:
512,251,148806,6,0,P|437:236|367:251,1,107.999996704102,2|0,0:0|0:0,0:0:0:0:
199,171,149149,1,2,0:0:0:0:
383,57,149320,1,2,0:0:0:0:
119,115,149492,6,0,P|112:64|112:-4,1,107.999996704102,6|0,0:0|0:0,0:0:0:0:
403,87,149834,2,0,P|395:140|382:197,1,107.999996704102,8|0,0:0|0:0,0:0:0:0:
202,318,150178,1,2,0:0:0:0:
247,142,150349,1,0,0:0:0:0:
382,287,150520,2,0,P|430:275|502:266,1,107.999996704102,8|0,0:0|0:0,0:0:0:0:
280,379,150863,6,0,P|232:367|160:358,1,107.999996704102,2|0,0:0|0:0,0:0:0:0:
11,268,151206,2,0,P|19:341|21:389,1,107.999996704102,8|0,0:0|0:0,0:0:0:0:
197,254,151549,1,2,0:0:0:0:
0,144,151720,1,0,0:0:0:0:
261,98,151892,2,0,P|202:140|108:127,1,161.999995056153,8|0,0:0|0:0,0:0:0:0:
86,61,152235,6,0,P|88:117|94:190,1,107.999996704102,2|0,0:0|0:0,0:0:0:0:
192,384,152578,2,0,P|222:298|249:269,1,107.999996704102,8|0,0:0|0:0,0:0:0:0:
505,308,152920,2,0,P|442:325|387:324,1,107.999996704102,2|0,0:0|0:0,0:0:0:0:
231,285,153263,1,8,0:0:0:0:
420,175,153435,1,0,0:0:0:0:
265,19,153606,5,2,0:0:0:0:
265,19,153778,2,0,P|269:92|268:132,1,107.999996704102,0|8,0:0|0:0,0:0:0:0:
342,248,154120,1,0,0:0:0:0:
157,75,154292,5,2,0:0:0:0:
0,224,154463,1,0,0:0:0:0:
226,287,154635,1,8,0:0:0:0:
90,151,154806,1,0,0:0:0:0:
96,384,154978,6,0,P|100:321|118:275,1,107.999996704102,2|0,0:0|0:0,0:0:0:0:
315,158,155320,2,0,P|258:186|209:193,1,107.999996704102,8|0,0:0|0:0,0:0:0:0:
10,82,155663,2,0,P|62:116|93:155,1,107.999996704102,2|0,0:0|0:0,0:0:0:0:
96,384,156006,1,8,0:0:0:0:
214,193,156178,1,0,0:0:0:0:
354,315,156349,5,2,0:0:0:0:
354,315,156520,2,0,P|302:315|245:317,1,107.999996704102,0|8,0:0|0:0,0:0:0:0:
444,370,156863,1,0,0:0:0:0:
318,116,157034,2,0,P|316:169|317:223,1,107.999996704102,2|0,0:0|0:0,0:0:0:0:
162,367,157378,2,0,P|162:283|160:240,1,107.999996704102,8|0,0:0|0:0,0:0:0:0:
10,190,157720,6,0,P|103:184|148:98,1,161.999995056153,2|0,0:0|0:0,0:0:0:0:
147,46,158063,2,0,P|161:110|168:168,1,107.999996704102,8|0,0:0|0:0,0:0:0:0:
358,41,158406,2,0,P|304:34|250:27,1,107.999996704102,2|0,0:0|0:0,0:0:0:0:
394,178,158749,2,0,P|447:171|501:164,1,107.999996704102,8|0,0:0|0:0,0:0:0:0:
195,271,159092,5,2,0:0:0:0:
414,282,159264,1,2,0:0:0:0:
283,135,159435,1,8,0:0:0:0:
188,365,159607,1,2,0:0:0:0:
301,230,159778,1,2,0:0:0:0:
106,98,159949,1,0,0:0:0:0:
17,316,160120,6,0,P|57:325|98:316,1,53.9999983520508,0|0,0:0|0:0,0:0:0:0:
143,280,160292,2,0,P|183:271|224:280,1,53.9999983520508
281,323,160463,6,0,B|400:323|400:323|456:287,1,161.999995056153,6|0,0:0|0:0,0:0:0:0:
373,245,160806,2,0,P|346:171|392:100,1,161.999995056153,8|0,0:0|0:0,0:0:0:0:
494,184,161148,1,2,0:0:0:0:
252,170,161320,1,0,0:0:0:0:
463,50,161492,6,0,B|412:24|412:24|261:39,1,161.999995056153,8|0,0:0|0:0,0:0:0:0:
246,74,161835,2,0,P|185:73|123:70,1,107.999996704102,2|0,0:0|0:0,0:0:0:0:
0,213,162178,2,0,P|53:210|107:210,1,107.999996704102,8|0,0:0|0:0,0:0:0:0:
53,9,162520,2,0,P|53:62|55:116,1,107.999996704102,2|0,0:0|0:0,0:0:0:0:
110,327,162863,1,8,0:0:0:0:
275,148,163035,1,2,0:0:0:0:
443,273,163206,6,0,B|360:258|360:258|305:348,1,161.999995056153,2|0,0:0|0:0,0:0:0:0:
402,351,163549,2,0,L|517:345,1,107.999996704102,8|0,0:0|0:0,0:0:0:0:
220,263,163892,2,0,P|231:338|235:387,1,107.999996704102,2|0,0:0|0:0,0:0:0:0:
419,264,164235,2,0,P|416:237|412:210,1,53.9999983520508,8|0,0:0|0:0,0:0:0:0:
369,148,164406,2,0,P|371:121|375:94,1,53.9999983520508,0|0,0:0|0:0,0:0:0:0:
449,33,164578,6,0,B|406:72|406:72|290:73,1,161.999995056153,2|0,0:0|0:0,0:0:0:0:
196,4,164920,2,0,P|232:23|245:36,1,53.9999983520508,8|0,0:0|0:0,0:0:0:0:
245,130,165092,2,0,P|224:147|199:157,1,53.9999983520508,0|0,0:0|0:0,0:0:0:0:
72,78,165263,2,0,P|134:81|200:83,1,107.999996704102,2|0,0:0|0:0,0:0:0:0:
62,298,165606,5,2,0:0:0:0:
296,197,165778,1,8,0:0:0:0:
2,155,165949,5,6,0:0:0:0:
232,294,166120,1,0,0:0:0:0:
107,157,166292,1,8,0:0:0:0:
135,369,166463,2,0,P|137:304|134:252,1,107.999996704102,0|2,0:0|0:0,0:0:0:0:
269,384,166806,1,0,0:0:0:0:
332,171,166978,2,0,P|332:239|343:300,1,107.999996704102,8|0,0:0|0:0,0:0:0:0:
501,199,167320,5,2,0:0:0:0:
246,79,167492,2,0,L|234:198,1,107.999996704102,0|8,0:0|0:0,0:0:0:0:
377,10,167835,5,0,0:0:0:0:
102,107,168007,2,0,L|90:-12,1,107.999996704102,2|0,0:0|0:0,0:0:0:0:
246,79,168349,5,8,0:0:0:0:
4,190,168520,1,0,0:0:0:0:
266,305,168692,2,0,L|278:186,1,107.999996704102,2|0,0:0|0:0,0:0:0:0:
135,374,169035,5,8,0:0:0:0:
410,277,169206,2,0,L|422:396,1,107.999996704102,0|2,0:0|0:0,0:0:0:0:
191,248,169549,1,2,0:0:0:0:
413,197,169720,1,2,0:0:0:0:
249,382,169892,1,2,0:0:0:0:
100,262,170063,6,0,B|104:206|104:206|92:151|92:151|99:95,1,161.999995056153
253,11,170406,6,0,P|275:96|213:148,1,161.999995056153,0|0,0:0|0:0,0:0:0:0:
201,70,170749,6,0,L|175:74,4,26.9999991760254,0|0|0|0|0,0:0|0:0|0:0|0:0|0:0,0:0:0:0:
81,16,171092,2,0,L|107:19,4,26.9999991760254
10,48,171348,1,0,0:0:0:0:
4,61,171435,6,0,L|12:173,1,107.999996704102,6|0,0:0|0:0,0:0:0:0:
201,267,171778,2,0,L|208:374,1,107.999996704102,8|0,0:0|0:0,0:0:0:0:
112,209,172120,2,0,L|119:101,1,107.999996704102,2|0,0:0|0:0,0:0:0:0:
307,36,172463,2,0,P|393:60|416:129,1,161.999995056153,8|0,0:0|0:0,0:0:0:0:
334,228,172806,6,0,P|330:174|330:120,1,107.999996704102,2|0,0:0|0:0,0:0:0:0:
502,297,173148,2,0,P|506:243|506:189,1,107.999996704102,8|0,0:0|0:0,0:0:0:0:
370,375,173491,1,2,0:0:0:0:
370,375,173663,1,0,0:0:0:0:
214,202,173835,5,8,0:0:0:0:
222,233,173920,1,0,0:0:0:0:
228,265,174006,1,0,0:0:0:0:
229,298,174092,1,0,0:0:0:0:
227,330,174178,6,0,P|160:330|91:339,1,107.999996704102,2|0,0:0|0:0,0:0:0:0:
0,228,174520,1,8,0:0:0:0:
168,113,174692,2,0,P|112:111|40:105,1,107.999996704102,0|2,0:0|0:0,0:0:0:0:
130,199,175035,1,0,0:0:0:0:
240,25,175206,2,0,B|283:74|267:143,1,107.999996704102,8|0,0:0|0:0,0:0:0:0:
304,232,175549,6,0,B|344:178|344:178|474:169,1,161.999995056153,2|0,0:0|0:0,0:0:0:0:
495,250,175892,2,0,L|385:258,1,107.999996704102,8|0,0:0|0:0,0:0:0:0:
512,371,176235,1,2,0:0:0:0:
324,310,176406,2,0,L|242:303,1,53.9999983520508,0|0,0:0|0:0,0:0:0:0:
203,267,176578,2,0,L|150:272,1,53.9999983520508,8|0,0:0|0:0,0:0:0:0:
51,342,176749,1,0,0:0:0:0:
46,355,176835,1,0,0:0:0:0:
42,369,176920,6,0,P|29:200|28:135,1,215.999993408203,2|8,0:0|0:0,0:0:0:0:
189,7,177606,2,0,P|176:176|175:241,1,215.999993408203,2|8,0:0|0:0,0:0:0:0:
470,367,178292,6,0,P|480:259|483:152,1,215.999993408203,2|8,0:0|0:0,0:0:0:0:
322,6,178977,2,0,P|333:114|336:222,1,215.999993408203,2|8,0:0|0:0,0:0:0:0:
336,221,179491,1,0,0:0:0:0:
226,370,179663,6,0,P|169:375|114:373,1,107.999996704102,2|0,0:0|0:0,0:0:0:0:
41,261,179920,5,0,0:0:0:0:
49,287,180006,2,0,P|106:292|161:290,1,107.999996704102,8|0,0:0|0:0,0:0:0:0:
227,182,180263,5,0,0:0:0:0:
219,207,180349,2,0,P|162:212|107:210,1,107.999996704102,0|0,0:0|0:0,0:0:0:0:
37,106,180606,5,0,0:0:0:0:
45,131,180692,2,0,P|102:136|157:134,1,107.999996704102,2|0,0:0|0:0,0:0:0:0:
215,89,180949,1,0,0:0:0:0:
215,89,181035,5,2,0:0:0:0:
215,89,181720,1,2,0:0:0:0:
203,375,182406,6,0,B|230:233|87:190|87:190|181:168|215:90|215:90|192:220|366:335|543:155|423:-10|321:-2|285:16|285:16|327:57|316:114|316:114|420:70|493:131|493:131|485:171|468:200,1,1295.99996044922,2|0,0:0|0:0,0:0:0:0:
419,245,187206,2,0,P|369:237|300:241,1,107.999996704102,0|0,0:0|0:0,0:0:0:0:
102,268,187892,6,0,B|161:234|257:290|196:438|-17:455|-87:292|-22:147|125:153|154:163|154:163|209:248|446:376|528:34|304:-1|178:75|178:75|101:51|101:51|12:81,1,1295.99996044922,2|0,0:0|0:0,0:0:0:0:
18,154,192692,2,0,P|55:148|83:133,1,53.9999983520508
122,73,193035,2,0,P|159:79|187:94,1,53.9999983520508,0|0,0:0|0:0,0:0:0:0:
368,128,193377,6,0,B|306:88|263:93|215:110|206:175|245:213|292:217|340:203|363:161|399:151|448:160|506:177,1,431.999986816407,2|0,0:0|0:0,0:0:0:0:
491,260,195434,2,0,P|412:244|374:257,1,107.999996704102
248,340,196120,6,0,P|116:336|250:194,1,431.999986816407,2|0,0:0|0:0,0:0:0:0:
341,122,198177,2,0,P|290:104|220:106,1,107.999996704102
115,186,198863,6,0,B|105:139|132:105|132:105|39:86|-30:168|-3:317|172:330|205:200|205:200|304:131|339:258|454:202,1,755.999976928712,2|0,0:0|0:0,0:0:0:0:
397,131,201606,6,0,B|434:110|483:115|534:143|546:203|549:262|474:319|407:291|407:291|425:346|403:377,1,431.999986816407,2|0,0:0|0:0,0:0:0:0:
256,192,203063,12,0,204177,0:0:0:0:
150,244,204349,6,0,P|210:252|256:240,1,90,6|0,0:0|0:0,0:0:0:0:
337,158,204692,1,8,0:0:0:0:
442,233,204863,2,0,P|435:296|438:338,1,90,0|2,0:0|0:0,0:0:0:0:
304,384,205206,1,0,0:0:0:0:
304,384,205377,2,0,P|311:321|308:279,1,90,8|0,0:0|0:0,0:0:0:0:
128,354,205720,6,0,L|219:350,1,90,2|0,0:0|0:0,0:0:0:0:
89,229,206063,2,0,L|-1:225,1,90,8|0,0:0|0:0,0:0:0:0:
133,125,206405,1,2,0:0:0:0:
206,273,206577,1,0,0:0:0:0:
324,154,206748,2,0,P|324:109|331:64,1,90,8|0,0:0|0:0,0:0:0:0:
491,175,207092,6,0,P|421:139|310:162,1,180,2|8,0:0|0:0,0:0:0:0:
338,337,207606,2,0,P|301:290|270:265,1,90,0|2,0:0|0:0,0:0:0:0:
185,203,207948,1,0,0:0:0:0:
173,383,208120,2,0,P|147:313|120:277,1,90,8|0,0:0|0:0,0:0:0:0:
6,294,208463,6,0,P|37:235|58:206,1,90,2|0,0:0|0:0,0:0:0:0:
17,104,208806,2,0,P|76:98|129:123,1,90,8|0,0:0|0:0,0:0:0:0:
196,29,209149,2,0,P|249:57|307:48,1,90,2|0,0:0|0:0,0:0:0:0:
414,16,209491,1,8,0:0:0:0:
414,16,209577,1,0,0:0:0:0:
414,16,209663,1,0,0:0:0:0:
414,16,209748,1,0,0:0:0:0:
414,16,209834,6,0,P|415:134|420:216,1,180,6|8,0:0|0:0,0:0:0:0:
512,308,210348,2,0,P|466:282|414:283,1,90,0|2,0:0|0:0,0:0:0:0:
228,217,210691,2,0,P|266:193|311:190,1,90,0|8,0:0|0:0,0:0:0:0:
292,369,211034,1,0,0:0:0:0:
292,369,211206,6,0,P|292:303|291:258,1,90,2|0,0:0|0:0,0:0:0:0:
109,266,211549,2,0,P|64:262|19:261,1,90,8|0,0:0|0:0,0:0:0:0:
169,177,211891,1,2,0:0:0:0:
172,371,212063,1,0,0:0:0:0:
172,371,212235,1,8,0:0:0:0:
291,279,212406,1,0,0:0:0:0:
207,154,212577,6,0,P|103:154|6:146,1,180,2|8,0:0|0:0,0:0:0:0:
257,81,213091,1,0,0:0:0:0:
257,81,213263,2,0,P|288:123|288:177,1,90,2|0,0:0|0:0,0:0:0:0:
71,269,213606,1,8,0:0:0:0:
27,148,213777,1,0,0:0:0:0:
199,16,213949,5,2,0:0:0:0:
184,256,214120,1,2,0:0:0:0:
373,102,214292,1,8,0:0:0:0:
207,154,214463,1,2,0:0:0:0:
426,211,214635,5,2,0:0:0:0:
286,370,214806,1,0,0:0:0:0:
447,298,214978,1,8,0:0:0:0:
296,220,215149,1,2,0:0:0:0:
404,378,215320,6,0,P|367:324|354:271,1,90,6|0,0:2|0:2,0:0:0:0:
512,235,215663,2,0,P|448:222|400:194,1,90,8|0,0:2|0:2,0:0:0:0:
444,64,216006,2,0,P|390:100|337:114,1,90,0|0,0:2|0:2,0:0:0:0:
240,73,216349,1,8,0:2:0:0:
327,0,216520,1,8,0:2:0:0:
326,212,216692,6,0,P|281:178|264:134,1,90,6|0,0:2|0:2,0:0:0:0:
177,289,217034,2,0,P|183:233|213:196,1,90,8|0,0:2|0:2,0:0:0:0:
16,205,217377,2,0,P|67:183|114:190,1,90,0|0,0:2|0:2,0:0:0:0:
24,61,217720,1,8,0:2:0:0:
157,107,217892,1,8,0:2:0:0:
86,274,218063,6,0,P|87:234|110:168,1,90,6|0,0:2|0:2,0:0:0:0:
255,361,218406,2,0,P|236:326|222:258,1,90,8|0,0:2|0:2,0:0:0:0:
442,328,218749,2,0,P|378:303|356:281,1,90,0|0,0:2|0:2,0:0:0:0:
512,215,219092,1,8,0:2:0:0:
382,178,219263,1,8,0:2:0:0:
297,76,219434,6,0,P|319:37|356:13,1,90,6|0,0:2|0:2,0:0:0:0:
194,132,219778,2,0,P|182:89|191:46,1,90
155,242,220120,2,0,P|116:220|91:184,1,90,0|0,0:2|0:2,0:0:0:0:
362,138,220463,6,0,P|313:168|300:178,1,45,0|0,0:0|0:0,0:0:0:0:
272,236,220635,2,0,P|265:278|266:302,1,45,0|0,0:0|0:0,0:0:0:0:
309,361,220806,1,0,0:0:0:0:
309,361,221149,6,0,P|408:327|425:330,1,90,0|0,0:2|0:2,0:0:0:0:
512,247,221492,2,0,P|468:237|431:212,1,90,8|0,0:2|0:2,0:0:0:0:
443,76,221835,1,8,0:2:0:0:
334,185,222006,1,8,0:2:0:0:
334,185,222178,1,0,0:0:0:0:
223,44,222349,6,0,P|290:27|317:25,1,90,0|0,0:2|0:0,0:0:0:0:
225,198,222692,1,0,0:2:0:0:
50,111,222864,2,0,P|94:117|138:130,1,90,0|0,0:2|0:0,0:0:0:0:
119,36,223206,1,8,0:2:0:0:
1,190,223378,1,8,0:2:0:0:
235,249,223549,6,0,P|135:248|109:252,1,90,8|0,0:0|0:0,0:0:0:0:
149,343,223806,5,0,0:0:0:0:
159,365,223892,2,0,P|259:366|285:362,1,90,8|0,0:0|0:0,0:0:0:0:
312,297,224149,5,0,0:0:0:0:
334,287,224235,2,0,P|335:187|331:161,1,90,8|0,0:0|0:0,0:0:0:0:
248,89,224492,5,0,0:0:0:0:
238,111,224578,2,0,P|138:112|112:108,1,90,8|0,0:0|0:0,0:0:0:0:
95,58,224835,1,0,0:0:0:0:
95,58,224920,5,0,0:0:0:0:
263,183,225092,1,0,0:0:0:0:
46,124,225263,1,0,0:0:0:0:
192,37,225435,1,0,0:0:0:0:
338,268,225606,5,0,0:0:0:0:
127,201,225778,1,0,0:0:0:0:
389,106,225949,1,0,0:0:0:0:
195,135,226120,1,0,0:0:0:0:
173,344,226292,6,0,B|231:349|231:349|276:335|276:335|351:341,1,161.999995056153,2|0,0:2|0:0,0:0:0:0:
512,293,226634,6,0,P|459:236|382:262,1,161.999995056153,2|0,0:2|0:0,0:0:0:0:
438,361,226977,6,0,L|440:307,1,53.9999983520508,2|0,0:2|0:0,0:0:0:0:
445,135,227149,6,0,L|446:108,11,26.9999991760254
480,168,227663,6,0,P|513:89|409:51,1,215.999993408203,6|8,0:0|0:0,0:0:0:0:
326,182,228177,1,0,0:0:0:0:
166,6,228349,2,0,P|165:59|161:113,1,107.999996704102,2|0,0:0|0:0,0:0:0:0:
10,230,228691,2,0,P|10:176|14:122,1,107.999996704102,8|0,0:0|0:0,0:0:0:0:
165,288,229035,6,0,P|216:244|288:237,1,107.999996704102,2|0,0:0|0:0,0:0:0:0:
433,371,229377,1,8,0:0:0:0:
453,179,229548,1,0,0:0:0:0:
256,338,229720,1,2,0:0:0:0:
256,338,229892,1,2,0:0:0:0:
254,109,230063,1,0,0:0:0:0:
254,109,230406,6,0,P|176:72|85:131,1,161.999995056153,2|0,0:0|0:0,0:0:0:0:
94,175,230749,2,0,P|85:118|82:57,1,107.999996704102,8|0,0:0|0:0,0:0:0:0:
345,124,231092,2,0,P|347:70|357:17,1,107.999996704102,2|0,0:0|0:0,0:0:0:0:
265,196,231435,1,8,0:0:0:0:
455,128,231606,1,0,0:0:0:0:
479,304,231778,6,0,P|435:261|358:244,1,107.999996704102,2|0,0:0|0:0,0:0:0:0:
94,333,232120,2,0,P|143:312|180:274,1,107.999996704102,8|0,0:0|0:0,0:0:0:0:
193,109,232463,5,2,0:0:0:0:
254,327,232635,1,2,0:0:0:0:
334,164,232806,1,0,0:0:0:0:
95,234,232978,1,0,0:0:0:0:
367,295,233148,6,0,L|486:302,1,107.999996704102,2|0,0:0|0:0,0:0:0:0:
379,145,233491,2,0,L|271:138,1,107.999996704102,8|0,0:0|0:0,0:0:0:0:
142,282,233834,2,0,L|249:267,1,107.999996704102,2|0,0:0|0:0,0:0:0:0:
103,126,234177,1,8,0:0:0:0:
0,277,234348,1,0,0:0:0:0:
0,277,234520,6,0,P|5:330|8:384,1,107.999996704102,2|0,0:0|0:0,0:0:0:0:
201,234,234863,1,8,0:0:0:0:
0,143,235034,1,0,0:0:0:0:
164,16,235206,2,0,P|156:89|154:137,1,107.999996704102,2|0,0:0|0:0,0:0:0:0:
214,338,235548,6,0,P|238:349|264:353,1,53.9999983520508,0|0,0:0|0:0,0:0:0:0:
362,381,235720,2,0,P|387:372|409:356,1,53.9999983520508,0|0,0:0|0:0,0:0:0:0:
470,276,235891,6,0,L|460:140,1,107.999996704102,6|0,0:0|0:0,0:0:0:0:
329,25,236234,1,8,0:0:0:0:
329,25,236405,1,0,0:0:0:0:
174,163,236577,2,0,P|248:204|310:182,1,107.999996704102,2|0,0:0|0:0,0:0:0:0:
183,56,236919,2,0,P|130:61|89:95,1,107.999996704102,8|0,0:0|0:0,0:0:0:0:
284,384,237263,5,2,0:0:0:0:
174,162,237435,1,2,0:0:0:0:
34,372,237606,1,8,0:0:0:0:
308,304,237778,1,2,0:0:0:0:
0,278,237949,6,0,P|75:256|140:255,1,107.999996704102,2|0,0:0|0:0,0:0:0:0:
328,186,238292,1,2,0:0:0:0:
92,85,238463,1,2,0:0:0:0:
385,0,238635,6,0,P|373:56|369:113,1,107.999996704102,6|0,0:0|0:0,0:0:0:0:
192,246,238978,2,0,P|187:192|176:139,1,107.999996704102,8|0,0:0|0:0,0:0:0:0:
317,320,239320,2,0,P|402:264|470:286,1,161.999995056153,2|0,0:0|0:0,0:0:0:0:
489,351,239663,6,0,P|486:289|494:200,1,107.999996704102,8|0,0:0|0:0,0:0:0:0:
512,87,240006,2,0,P|448:126|402:134,1,107.999996704102,2|0,0:0|0:0,0:0:0:0:
249,1,240349,2,0,P|285:60|287:142,1,107.999996704102,8|0,0:0|0:0,0:0:0:0:
402,12,240692,1,2,0:0:0:0:
315,221,240863,1,0,0:0:0:0:
172,55,241035,2,0,P|86:50|26:128,1,161.999995056153,8|0,0:0|0:0,0:0:0:0:
79,171,241378,6,0,P|144:161|226:130,1,107.999996704102,2|0,0:0|0:0,0:0:0:0:
383,7,241720,2,0,P|344:101|338:124,1,107.999996704102,8|0,0:0|0:0,0:0:0:0:
383,377,242063,2,0,P|344:283|338:260,1,107.999996704102,2|0,0:0|0:0,0:0:0:0:
146,71,242406,1,8,0:0:0:0:
342,106,242578,1,0,0:0:0:0:
229,276,242748,6,0,P|221:349|219:397,1,107.999996704102,2|0,0:0|0:0,0:0:0:0:
31,190,243091,2,0,P|39:263|41:311,1,107.999996704102,8|0,0:0|0:0,0:0:0:0:
242,144,243434,5,2,0:0:0:0:
4,97,243606,1,0,0:0:0:0:
266,2,243777,1,8,0:0:0:0:
72,31,243948,1,0,0:0:0:0:
371,109,244120,6,0,P|363:18|352:-25,1,107.999996704102,2|0,0:0|0:0,0:0:0:0:
169,195,244463,2,0,P|247:230|311:210,1,107.999996704102,8|0,0:0|0:0,0:0:0:0:
148,23,244806,2,0,P|94:27|49:56,1,107.999996704102,2|0,0:0|0:0,0:0:0:0:
169,195,245149,1,8,0:0:0:0:
290,0,245320,1,0,0:0:0:0:
436,167,245492,5,2,0:0:0:0:
436,167,245663,2,0,P|382:162|329:171,1,107.999996704102,0|8,0:0|0:0,0:0:0:0:
118,293,246006,2,0,P|171:297|224:288,1,107.999996704102,0|2,0:0|0:0,0:0:0:0:
345,79,246349,1,0,0:0:0:0:
487,288,246520,2,0,P|431:266|335:299,1,161.999995056153,8|0,0:0|0:0,0:0:0:0:
278,355,246863,6,0,P|230:379|176:384,1,107.999996704102,2|0,0:0|0:0,0:0:0:0:
6,208,247206,2,0,P|59:214|107:238,1,107.999996704102,8|0,0:0|0:0,0:0:0:0:
350,146,247549,2,0,P|302:170|248:175,1,107.999996704102,2|0,0:0|0:0,0:0:0:0:
62,120,247892,1,8,0:0:0:0:
266,30,248063,1,0,0:0:0:0:
335,276,248235,5,2,0:0:0:0:
215,109,248406,1,2,0:0:0:0:
71,330,248578,1,2,0:0:0:0:
248,230,248749,1,2,0:0:0:0:
69,201,248920,5,2,0:0:0:0:
297,377,249092,1,0,0:0:0:0:
399,67,249263,1,2,0:0:0:0:
172,210,249435,1,2,0:0:0:0:
360,183,249606,1,0,0:0:0:0:
256,192,249691,12,4,255091,0:0:0:0:
256,192,257835,12,0,259720,0:0:0:0:
214,78,259891,6,0,L|198:80,4,13.4999995880127
102,21,260235,6,0,L|122:23,4,20.2499993820191
35,61,260491,1,0,0:0:0:0:
23,75,260578,6,0,L|31:187,1,90,6|0,0:0|0:0,0:0:0:0:
104,295,260920,1,8,0:0:0:0:
216,165,261092,2,0,P|168:141|98:150,1,90,0|2,0:0|0:0,0:0:0:0:
199,263,261435,1,0,0:0:0:0:
199,263,261606,2,0,P|243:259|282:237,1,90,8|0,0:0|0:0,0:0:0:0:
372,24,261949,6,0,P|372:116|375:237,1,180,2|8,0:0|0:0,0:0:0:0:
455,156,262463,1,0,0:0:0:0:
455,156,262635,2,0,P|408:117|356:113,1,90,2|0,0:0|0:0,0:0:0:0:
292,219,262978,5,8,0:0:0:0:
284,250,263063,1,0,0:0:0:0:
278,282,263149,1,0,0:0:0:0:
277,315,263235,1,0,0:0:0:0:
279,347,263321,6,0,P|338:347|399:354,1,90,2|0,0:0|0:0,0:0:0:0:
512,273,263663,1,8,0:0:0:0:
365,158,263835,2,0,P|409:158|454:155,1,90,0|2,0:0|0:0,0:0:0:0:
324,79,264178,1,0,0:0:0:0:
324,79,264349,2,0,P|289:108|285:179,1,90,8|0,0:0|0:0,0:0:0:0:
242,243,264692,6,0,B|193:207|193:207|93:204,1,135,2|0,0:0|0:0,0:0:0:0:
57,289,265035,2,0,L|154:292,1,90,8|0,0:0|0:0,0:0:0:0:
15,105,265378,2,0,L|22:206,1,90,2|0,0:0|0:0,0:0:0:0:
116,119,265720,1,8,0:0:0:0:
117,96,265805,1,0,0:0:0:0:
119,74,265891,1,0,0:0:0:0:
120,51,265977,1,0,0:0:0:0:
121,26,266063,6,0,L|225:17,1,90,2|0,0:0|0:0,0:0:0:0:
257,98,266406,2,0,L|346:105,1,90,8|0,0:0|0:0,0:0:0:0:
491,14,266749,2,0,P|513:74|509:121,1,90,2|0,0:0|0:0,0:0:0:0:
380,194,267092,1,8,0:0:0:0:
347,22,267263,1,0,0:0:0:0:
512,181,267435,5,2,0:0:0:0:
512,181,267606,2,0,L|411:170,1,90,0|8,0:0|0:0,0:0:0:0:
278,236,267949,1,0,0:0:0:0:
393,371,268120,2,0,P|385:309|356:263,1,90,2|0,0:0|0:0,0:0:0:0:
200,365,268463,2,0,L|292:348,1,90,8|0,0:0|0:0,0:0:0:0:
368,189,268806,5,2,0:0:0:0:
207,283,268978,1,0,0:0:0:0:
229,278,269063,1,0,0:0:0:0:
251,274,269149,1,8,0:0:0:0:
198,186,269320,1,0,0:0:0:0:
175,181,269405,1,0,0:0:0:0:
153,177,269491,1,2,0:0:0:0:
68,263,269663,1,0,0:0:0:0:
90,258,269748,1,0,0:0:0:0:
112,254,269834,1,8,0:0:0:0:
59,166,270005,1,0,0:0:0:0:
36,161,270090,1,0,0:0:0:0:
14,157,270176,5,2,0:0:0:0:
165,379,270349,1,2,0:0:0:0:
153,177,270520,1,2,0:0:0:0:
0,364,270692,1,2,0:0:0:0:
236,316,270863,5,2,0:0:0:0:
0,246,271034,1,0,0:0:0:0:
275,212,271206,6,0,L|213:208,1,45,2|0,0:0|0:0,0:0:0:0:
87,116,271378,2,0,L|149:112,1,45,2|0,0:0|0:0,0:0:0:0:
330,28,271549,6,0,P|429:17|485:81,1,180,6|8,0:0|0:0,0:0:0:0:
379,189,272063,2,0,L|392:87,1,90,0|2,0:0|0:0,0:0:0:0:
501,210,272406,1,0,0:0:0:0:
501,210,272578,2,0,L|512:299,1,90,8|0,0:0|0:0,0:0:0:0:
370,354,272920,6,0,B|321:308|240:308|240:308|187:334,1,180,2|8,0:0|0:0,0:0:0:0:
66,365,273434,1,0,0:0:0:0:
66,365,273606,2,0,P|86:304|67:243,1,90,2|0,0:0|0:0,0:0:0:0:
0,146,273949,5,8,0:0:0:0:
38,123,274034,1,0,0:0:0:0:
82,117,274120,1,0,0:0:0:0:
125,129,274206,1,0,0:0:0:0:
160,157,274292,6,0,L|260:150,1,90,2|0,0:0|0:0,0:0:0:0:
328,257,274635,1,8,0:0:0:0:
418,79,274806,2,0,L|328:73,1,90,0|2,0:0|0:0,0:0:0:0:
422,187,275149,1,0,0:0:0:0:
422,187,275320,2,0,L|511:181,1,90,8|0,0:0|0:0,0:0:0:0:
353,273,275663,6,0,B|304:237|304:237|204:234,1,135,2|0,0:0|0:0,0:0:0:0:
168,319,276006,2,0,L|265:322,1,90,8|0,0:0|0:0,0:0:0:0:
64,279,276349,2,0,L|71:380,1,90,2|0,0:0|0:0,0:0:0:0:
140,234,276691,1,8,0:0:0:0:
139,211,276776,1,0,0:0:0:0:
137,189,276862,1,0,0:0:0:0:
136,166,276948,1,0,0:0:0:0:
135,141,277034,6,0,L|31:132,1,90,2|0,0:0|0:0,0:0:0:0:
160,26,277378,2,0,L|264:17,1,90,8|0,0:0|0:0,0:0:0:0:
373,143,277720,2,0,L|269:134,1,90,2|0,0:0|0:0,0:0:0:0:
441,52,278063,1,8,0:0:0:0:
492,206,278235,1,0,0:0:0:0:
271,232,278406,5,2,0:0:0:0:
271,232,278577,2,0,L|182:242,1,90,0|8,0:0|0:0,0:0:0:0:
370,169,278920,1,0,0:0:0:0:
443,350,279091,2,0,P|435:288|406:242,1,90,2|0,0:0|0:0,0:0:0:0:
256,344,279434,2,0,L|348:327,1,90,8|0,0:0|0:0,0:0:0:0:
258,228,279777,5,2,0:0:0:0:
163,316,279949,1,0,0:0:0:0:
168,338,280034,1,0,0:0:0:0:
172,360,280120,1,8,0:0:0:0:
77,264,280292,1,0,0:0:0:0:
72,286,280377,1,0,0:0:0:0:
68,308,280463,1,2,0:0:0:0:
139,159,280635,1,0,0:0:0:0:
144,181,280720,1,0,0:0:0:0:
148,203,280806,1,8,0:0:0:0:
53,107,280978,1,0,0:0:0:0:
48,129,281063,1,0,0:0:0:0:
44,151,281149,5,0,0:0:0:0:
269,99,281320,1,2,0:0:0:0:
0,31,281491,1,2,0:0:0:0:
216,216,281663,1,2,0:0:0:0:
201,10,281834,5,2,0:0:0:0:
105,234,282005,1,0,0:0:0:0:
338,186,282177,6,0,L|276:182,1,45,2|0,0:0|0:0,0:0:0:0:
87,115,282349,2,0,L|149:111,1,45,2|0,0:0|0:0,0:0:0:0:
371,108,282520,6,0,L|258:100,1,90,6|0,0:0|0:0,0:0:0:0:
436,62,282863,1,8,0:0:0:0:
338,202,283034,1,0,0:0:0:0:
208,101,283206,2,0,L|202:11,1,90,2|0,0:0|0:0,0:0:0:0:
158,204,283548,1,8,0:0:0:0:
33,155,283720,1,0,0:0:0:0:
123,376,283891,5,2,0:0:0:0:
123,376,284063,2,0,L|229:365,1,90,0|8,0:0|0:0,0:0:0:0:
348,212,284406,1,0,0:0:0:0:
197,276,284577,2,0,L|286:285,1,90,2|0,0:0|0:0,0:0:0:0:
405,369,284920,2,0,L|414:279,1,90,8|0,0:0|0:0,0:0:0:0:
244,92,285263,6,0,L|253:181,1,90,2|0,0:0|0:0,0:0:0:0:
459,98,285606,2,0,L|468:8,1,90,8|0,0:0|0:0,0:0:0:0:
332,143,285948,2,0,L|341:232,1,90,2|0,0:0|0:0,0:0:0:0:
379,77,286291,1,8,0:0:0:0:
253,181,286463,1,0,0:0:0:0:
512,216,286634,5,2,0:0:0:0:
512,216,286806,2,0,P|444:198|384:200,1,90,0|8,0:0|0:0,0:0:0:0:
236,259,287148,1,0,0:0:0:0:
452,291,287320,1,2,0:0:0:0:
370,82,287491,1,0,0:0:0:0:
349,378,287663,6,0,L|356:306,1,45,8|0,0:0|0:0,0:0:0:0:
257,135,287834,2,0,L|261:179,1,45,0|0,0:0|0:0,0:0:0:0:
141,384,288006,6,0,L|152:270,1,90,2|0,0:0|0:0,0:0:0:0:
0,179,288348,2,0,L|8:268,1,90,8|0,0:0|0:0,0:0:0:0:
168,141,288691,2,0,L|176:51,1,90,2|0,0:0|0:0,0:0:0:0:
90,190,289034,1,8,0:0:0:0:
259,97,289206,1,0,0:0:0:0:
63,15,289377,5,2,0:0:0:0:
63,15,289548,2,0,L|71:104,1,90,0|8,0:0|0:0,0:0:0:0:
211,33,289891,1,0,0:0:0:0:
330,175,290063,2,0,P|290:194|246:195,1,90,2|0,0:0|0:0,0:0:0:0:
427,53,290406,1,8,0:0:0:0:
272,100,290577,1,0,0:0:0:0:
489,127,290748,5,2,0:0:0:0:
392,226,290920,1,0,0:0:0:0:
424,221,291005,1,0,0:0:0:0:
456,217,291091,1,8,0:0:0:0:
330,176,291263,1,0,0:0:0:0:
298,171,291348,1,0,0:0:0:0:
266,167,291434,1,2,0:0:0:0:
176,295,291606,1,0,0:0:0:0:
208,290,291691,1,0,0:0:0:0:
240,286,291777,1,8,0:0:0:0:
144,200,291949,1,0,0:0:0:0:
112,195,292034,1,0,0:0:0:0:
80,191,292120,5,2,0:0:0:0:
171,384,292291,1,2,0:0:0:0:
215,218,292463,1,2,0:0:0:0:
0,327,292634,1,2,0:0:0:0:
306,336,292806,1,2,0:0:0:0:
306,336,293148,6,0,L|249:330,1,45,2|0,0:0|0:0,0:0:0:0:
9,249,293320,2,0,L|53:244,1,45,2|0,0:0|0:0,0:0:0:0:
365,175,293491,6,0,L|275:166,1,90,6|0,0:0|0:0,0:0:0:0:
161,57,293834,2,0,L|250:48,1,90,8|0,0:0|0:0,0:0:0:0:
89,148,294177,2,0,L|0:139,1,90,2|0,0:0|0:0,0:0:0:0:
89,18,294520,1,8,0:0:0:0:
185,141,294691,1,0,0:0:0:0:
345,4,294863,5,2,0:0:0:0:
345,4,295034,2,0,L|339:103,1,90,0|8,0:0|0:0,0:0:0:0:
389,215,295377,1,0,0:0:0:0:
512,71,295548,2,0,L|394:55,1,90,2|0,0:0|0:0,0:0:0:0:
228,180,295891,2,0,L|317:167,1,90,8|0,0:0|0:0,0:0:0:0:
410,373,296234,6,0,P|386:284|364:270,1,90,2|0,0:0|0:0,0:0:0:0:
146,354,296577,2,0,P|234:327|247:304,1,90,8|0,0:0|0:0,0:0:0:0:
163,117,296920,2,0,P|140:206|153:229,1,90,2|0,0:0|0:0,0:0:0:0:
317,167,297263,1,8,0:0:0:0:
240,17,297434,1,0,0:0:0:0:
73,124,297606,6,0,L|186:114,1,90,2|0,0:0|0:0,0:0:0:0:
259,226,297948,2,0,L|146:216,1,90,8|0,0:0|0:0,0:0:0:0:
355,75,298291,5,2,0:0:0:0:
512,224,298462,1,0,0:0:0:0:
295,313,298634,1,8,0:0:0:0:
422,151,298805,1,0,0:0:0:0:
412,368,298977,5,6,0:0:0:0:
412,368,299320,1,8,0:0:0:0:
412,368,299663,1,2,0:0:0:0:
412,368,300006,1,8,0:0:0:0:
363,289,300177,1,0,0:0:0:0:
321,368,300348,5,6,0:0:0:0:
321,368,300691,1,8,0:0:0:0:
321,368,301034,1,2,0:0:0:0:
321,368,301377,1,8,0:0:0:0:
404,164,301720,5,2,0:0:0:0:
303,236,301892,1,0,0:0:0:0:
325,231,301977,1,0,0:0:0:0:
347,227,302063,1,8,0:0:0:0:
259,171,302234,1,0,0:0:0:0:
236,166,302319,1,0,0:0:0:0:
214,162,302405,1,2,0:0:0:0:
112,226,302577,1,0,0:0:0:0:
134,221,302662,1,0,0:0:0:0:
156,217,302748,1,8,0:0:0:0:
59,166,302919,1,0,0:0:0:0:
36,161,303006,1,0,0:0:0:0:
14,157,303090,5,2,0:0:0:0:
168,303,303263,1,2,0:0:0:0:
46,79,303434,1,2,0:0:0:0:
0,328,303606,1,2,0:0:0:0:
201,204,303777,2,0,L|308:193,1,90,2|0,0:0|0:0,0:0:0:0:
463,105,304120,5,0,0:0:0:0:
458,149,304205,1,0,0:0:0:0:
453,194,304291,1,0,0:0:0:0:
449,239,304377,1,0,0:0:0:0:
444,284,304463,1,0,0:0:0:0:
256,192,304548,12,0,308577,0:0:0:0:
