osu file format v14

[General]
AudioFilename: audio.mp3
AudioLeadIn: 0
PreviewTime: 51449
Countdown: 0
SampleSet: Soft
StackLeniency: 0.7
Mode: 3
LetterboxInBreaks: 0
SpecialStyle: 0
WidescreenStoryboard: 0

[Editor]
Bookmarks: 18604,51449,88949
DistanceSpacing: 1
BeatDivisor: 4
GridSize: 32
TimelineZoom: 0.6999999

[Metadata]
Title:Ever Dream
TitleUnicode:未梦
Artist:himmel
ArtistUnicode:himmel
Creator:__Ag
Version:Normal
Source:秋楓協奏曲
Tags:-Timerains- Crystallized- himmeltengoku wei meng 天国 水幻 aquatrax zion 载音 zyon 載音 远枫 yuan feng piano galgame visual novel vn instrumental video game 秋枫协奏曲 yf_bmp Seiran-
BeatmapID:4524049
BeatmapSetID:2144757

[Difficulty]
HPDrainRate:7
CircleSize:4
OverallDifficulty:7
ApproachRate:5
SliderMultiplier:1.4
SliderTickRate:1

[Events]
//Background and Video events
0,0,"bg.jpg",0,0
//Break Periods
//Storyboard Layer 0 (Background)
//Storyboard Layer 1 (Fail)
//Storyboard Layer 2 (Pass)
//Storyboard Layer 3 (Foreground)
//Storyboard Layer 4 (Overlay)
//Storyboard Sound Samples

[TimingPoints]
-16,517.241379310345,4,2,0,5,1,0
151794,750,4,2,0,5,1,0
151794,-68.9655172413793,4,2,0,5,0,0
152169,810.810810810811,4,2,0,5,1,0
152169,-63.6942675159236,4,2,0,5,0,0
152574,789.473684210526,4,2,0,5,1,0
152574,-65.359477124183,4,2,0,5,0,0
153362,1000,4,2,0,5,1,0
153363,-51.8134715025907,4,2,0,5,0,0
153862,1415.09433962264,4,2,0,5,1,0
153862,-36.4963503649635,4,2,0,5,0,0

[HitObjects]
64,192,2052,5,0,0:0:0:0:
320,192,2311,1,0,0:0:0:0:
192,192,2570,1,0,0:0:0:0:
448,192,2828,1,0,0:0:0:0:
64,192,3087,128,0,3346:0:0:0:0:
320,192,3346,1,0,0:0:0:0:
64,192,3604,128,0,3863:0:0:0:0:
192,192,3863,128,0,4121:0:0:0:0:
448,192,4121,1,0,0:0:0:0:
192,192,4380,1,0,0:0:0:0:
320,192,4639,1,0,0:0:0:0:
64,192,4897,1,0,0:0:0:0:
448,192,5156,128,0,5415:0:0:0:0:
192,192,5415,1,0,0:0:0:0:
448,192,5673,128,0,5932:0:0:0:0:
320,192,5932,128,0,6190:0:0:0:0:
64,192,6190,1,0,0:0:0:0:
320,192,6449,1,0,0:0:0:0:
192,192,6708,1,0,0:0:0:0:
448,192,6966,1,0,0:0:0:0:
64,192,7225,128,0,7484:0:0:0:0:
448,192,7484,1,0,0:0:0:0:
64,192,7742,128,0,8001:0:0:0:0:
192,192,8001,128,0,8259:0:0:0:0:
448,192,8259,1,0,0:0:0:0:
192,192,8518,1,0,0:0:0:0:
320,192,8777,1,0,0:0:0:0:
64,192,9035,1,0,0:0:0:0:
448,192,9294,1,0,0:0:0:0:
320,192,9552,1,0,0:0:0:0:
192,192,9811,1,0,0:0:0:0:
64,192,10070,1,0,0:0:0:0:
320,192,10328,1,0,0:0:0:0:
448,192,10328,1,0,0:0:0:0:
64,192,10587,1,0,0:0:0:0:
192,192,10846,1,0,0:0:0:0:
448,192,11104,1,0,0:0:0:0:
320,192,11104,1,0,0:0:0:0:
64,192,11363,1,0,0:0:0:0:
192,192,11363,128,0,11621:0:0:0:0:
448,192,11621,1,0,0:0:0:0:
64,192,11880,128,0,12139:0:0:0:0:
320,192,12139,128,0,12397:0:0:0:0:
448,192,12397,1,0,0:0:0:0:
192,192,12656,1,0,0:0:0:0:
320,192,12915,1,0,0:0:0:0:
64,192,12915,128,0,13432:0:0:0:0:
448,192,13432,1,0,0:0:0:0:
320,192,13432,128,0,13690:0:0:0:0:
192,192,13690,1,0,0:0:0:0:
448,192,13949,128,0,14208:0:0:0:0:
192,192,14208,128,0,14466:0:0:0:0:
64,192,14466,1,0,0:0:0:0:
320,192,14725,1,0,0:0:0:0:
192,192,14984,1,0,0:0:0:0:
64,192,15242,1,0,0:0:0:0:
320,192,15501,1,0,0:0:0:0:
448,192,15759,1,0,0:0:0:0:
64,192,16018,1,0,0:0:0:0:
192,192,16277,1,0,0:0:0:0:
448,192,16535,128,0,18087:0:0:0:0:
320,192,16535,1,0,0:0:0:0:
192,192,17052,128,0,18087:0:0:0:0:
64,192,18604,1,0,0:0:0:0:
448,192,18863,1,0,0:0:0:0:
192,192,19121,1,0,0:0:0:0:
320,192,19380,1,0,0:0:0:0:
64,192,19639,1,0,0:0:0:0:
192,192,19897,128,0,20156:0:0:0:0:
448,192,20156,128,0,20415:0:0:0:0:
320,192,20415,128,0,20673:0:0:0:0:
64,192,20673,1,0,0:0:0:0:
192,192,20932,1,0,0:0:0:0:
320,192,21190,1,0,0:0:0:0:
448,192,21449,1,0,0:0:0:0:
192,192,22225,128,0,22484:0:0:0:0:
448,192,22484,128,0,22742:0:0:0:0:
320,192,22742,1,0,0:0:0:0:
192,192,23001,1,0,0:0:0:0:
64,192,23259,1,0,0:0:0:0:
320,192,23518,1,0,0:0:0:0:
448,192,23777,128,0,24294:0:0:0:0:
192,192,24294,128,0,24552:0:0:0:0:
320,192,24552,128,0,24811:0:0:0:0:
64,192,24811,1,0,0:0:0:0:
448,192,25070,1,0,0:0:0:0:
320,192,25328,1,0,0:0:0:0:
64,192,25328,128,0,25587:0:0:0:0:
192,192,25587,128,0,25846:0:0:0:0:
448,192,25846,128,0,26104:0:0:0:0:
320,192,26104,128,0,26363:0:0:0:0:
192,192,26363,1,0,0:0:0:0:
64,192,26363,128,0,26621:0:0:0:0:
320,192,26621,1,0,0:0:0:0:
448,192,26621,128,0,26880:0:0:0:0:
64,192,26880,1,0,0:0:0:0:
320,192,27139,1,0,0:0:0:0:
448,192,27397,1,0,0:0:0:0:
64,192,27656,1,0,0:0:0:0:
192,192,27656,1,0,0:0:0:0:
320,192,27915,1,0,0:0:0:0:
448,192,28173,128,0,28432:0:0:0:0:
192,192,28432,128,0,28690:0:0:0:0:
320,192,28690,128,0,28949:0:0:0:0:
64,192,28949,1,0,0:0:0:0:
192,192,29208,1,0,0:0:0:0:
320,192,29466,1,0,0:0:0:0:
448,192,29725,1,0,0:0:0:0:
64,192,29725,1,0,0:0:0:0:
64,192,30242,128,0,30501:0:0:0:0:
320,192,30501,128,0,30759:0:0:0:0:
192,192,30759,128,0,31018:0:0:0:0:
448,192,31018,1,0,0:0:0:0:
64,192,31277,1,0,0:0:0:0:
320,192,31535,1,0,0:0:0:0:
448,192,31794,1,0,0:0:0:0:
192,192,32052,1,0,0:0:0:0:
64,192,32052,1,0,0:0:0:0:
320,192,32311,128,0,32570:0:0:0:0:
192,192,32570,128,0,32828:0:0:0:0:
448,192,32828,1,0,0:0:0:0:
64,192,32828,128,0,33087:0:0:0:0:
320,192,33087,1,0,0:0:0:0:
192,192,33346,1,0,0:0:0:0:
64,192,33604,1,0,0:0:0:0:
448,192,33863,128,0,34121:0:0:0:0:
64,192,34121,1,0,0:0:0:0:
192,192,34121,128,0,34380:0:0:0:0:
320,192,34380,1,0,0:0:0:0:
448,192,34639,1,0,0:0:0:0:
192,192,34897,128,0,35156:0:0:0:0:
64,192,35156,1,0,0:0:0:0:
448,192,35156,128,0,35673:0:0:0:0:
192,192,35673,1,0,0:0:0:0:
320,192,35932,1,0,0:0:0:0:
64,192,36190,1,0,0:0:0:0:
448,192,36190,1,0,0:0:0:0:
192,192,36449,128,0,36708:0:0:0:0:
448,192,36708,128,0,36966:0:0:0:0:
320,192,36708,1,0,0:0:0:0:
192,192,36966,1,0,0:0:0:0:
64,192,36966,128,0,37225:0:0:0:0:
448,192,37225,1,0,0:0:0:0:
320,192,37484,1,0,0:0:0:0:
64,192,37742,1,0,0:0:0:0:
192,192,38001,128,0,38518:0:0:0:0:
448,192,38777,128,0,39035:0:0:0:0:
320,192,39035,128,0,39294:0:0:0:0:
192,192,39294,1,0,0:0:0:0:
64,192,39552,1,0,0:0:0:0:
320,192,39811,128,0,40070:0:0:0:0:
192,192,40070,128,0,40328:0:0:0:0:
448,192,40328,128,0,40846:0:0:0:0:
192,192,40846,128,0,41104:0:0:0:0:
320,192,41104,128,0,41363:0:0:0:0:
64,192,41363,1,0,0:0:0:0:
448,192,41621,1,0,0:0:0:0:
320,192,41880,1,0,0:0:0:0:
64,192,41880,128,0,42139:0:0:0:0:
192,192,42139,128,0,42397:0:0:0:0:
448,192,42397,128,0,42656:0:0:0:0:
320,192,42656,128,0,42915:0:0:0:0:
64,192,42915,128,0,43173:0:0:0:0:
192,192,42915,1,0,0:0:0:0:
320,192,43173,1,0,0:0:0:0:
448,192,43173,128,0,43432:0:0:0:0:
64,192,43432,1,0,0:0:0:0:
320,192,43690,1,0,0:0:0:0:
192,192,43949,1,0,0:0:0:0:
448,192,44208,1,0,0:0:0:0:
320,192,44466,1,0,0:0:0:0:
64,192,44466,1,0,0:0:0:0:
192,192,44725,128,0,44984:0:0:0:0:
320,192,44984,1,0,0:0:0:0:
448,192,44984,128,0,45242:0:0:0:0:
192,192,45242,1,0,0:0:0:0:
64,192,45242,128,0,45501:0:0:0:0:
448,192,45501,1,0,0:0:0:0:
192,192,45759,1,0,0:0:0:0:
320,192,46018,1,0,0:0:0:0:
64,192,46277,1,0,0:0:0:0:
320,192,46794,1,0,0:0:0:0:
448,192,47052,128,0,47311:0:0:0:0:
64,192,47311,128,0,47570:0:0:0:0:
192,192,47570,1,0,0:0:0:0:
320,192,47828,1,0,0:0:0:0:
448,192,48087,1,0,0:0:0:0:
192,192,48346,1,0,0:0:0:0:
64,192,48604,1,0,0:0:0:0:
320,192,48863,128,0,49121:0:0:0:0:
448,192,49121,128,0,49380:0:0:0:0:
64,192,49121,1,0,0:0:0:0:
192,192,49380,128,0,49639:0:0:0:0:
448,192,49639,1,0,0:0:0:0:
320,192,49639,1,0,0:0:0:0:
64,192,49897,1,0,0:0:0:0:
320,192,50156,1,0,0:0:0:0:
448,192,50415,1,0,0:0:0:0:
192,192,50673,128,0,51190:0:0:0:0:
64,192,50673,1,0,0:0:0:0:
64,192,51449,1,0,0:0:0:0:
192,192,51578,1,0,0:0:0:0:
448,192,51708,128,0,52225:0:0:0:0:
320,192,52225,1,0,0:0:0:0:
192,192,52484,1,0,0:0:0:0:
448,192,52742,1,0,0:0:0:0:
320,192,53001,1,0,0:0:0:0:
64,192,53259,128,0,53518:0:0:0:0:
192,192,53518,128,0,53777:0:0:0:0:
320,192,53777,128,0,54294:0:0:0:0:
64,192,54294,1,0,0:0:0:0:
192,192,54552,1,0,0:0:0:0:
448,192,54811,128,0,55070:0:0:0:0:
320,192,54811,1,0,0:0:0:0:
64,192,55070,1,0,0:0:0:0:
192,192,55328,1,0,0:0:0:0:
320,192,55328,128,0,55587:0:0:0:0:
448,192,55587,1,0,0:0:0:0:
64,192,55846,1,0,0:0:0:0:
192,192,55846,128,0,56363:0:0:0:0:
320,192,56363,1,0,0:0:0:0:
192,192,56621,1,0,0:0:0:0:
320,192,56880,1,0,0:0:0:0:
448,192,56880,128,0,57139:0:0:0:0:
64,192,57139,128,0,57397:0:0:0:0:
192,192,57139,1,0,0:0:0:0:
448,192,57397,1,0,0:0:0:0:
320,192,57656,1,0,0:0:0:0:
192,192,57915,128,0,58173:0:0:0:0:
64,192,57915,1,0,0:0:0:0:
448,192,58173,1,0,0:0:0:0:
320,192,58432,128,0,58690:0:0:0:0:
64,192,58690,1,0,0:0:0:0:
448,192,58690,128,0,59208:0:0:0:0:
192,192,59208,128,0,59466:0:0:0:0:
320,192,59466,128,0,59725:0:0:0:0:
64,192,59725,128,0,59984:0:0:0:0:
192,192,59984,1,0,0:0:0:0:
448,192,59984,128,0,60501:0:0:0:0:
320,192,60501,1,0,0:0:0:0:
64,192,60759,1,0,0:0:0:0:
64,192,61018,1,0,0:0:0:0:
192,192,61277,1,0,0:0:0:0:
448,192,61535,128,0,61794:0:0:0:0:
320,192,61794,128,0,62052:0:0:0:0:
64,192,62052,128,0,62570:0:0:0:0:
320,192,62570,1,0,0:0:0:0:
192,192,62828,1,0,0:0:0:0:
448,192,63087,1,0,0:0:0:0:
64,192,63087,1,0,0:0:0:0:
320,192,63346,1,0,0:0:0:0:
64,192,63604,128,0,63863:0:0:0:0:
448,192,63604,1,0,0:0:0:0:
192,192,63863,128,0,64121:0:0:0:0:
320,192,64121,128,0,64639:0:0:0:0:
192,192,64639,1,0,0:0:0:0:
64,192,64897,1,0,0:0:0:0:
320,192,65156,128,0,65415:0:0:0:0:
448,192,65415,128,0,65673:0:0:0:0:
192,192,65673,128,0,65932:0:0:0:0:
64,192,65673,1,0,0:0:0:0:
320,192,65932,128,0,66190:0:0:0:0:
448,192,66190,1,0,0:0:0:0:
64,192,66449,1,0,0:0:0:0:
192,192,66708,1,0,0:0:0:0:
320,192,66966,128,0,67225:0:0:0:0:
64,192,67225,128,0,68001:0:0:0:0:
192,192,68001,1,0,0:0:0:0:
320,192,68130,1,0,0:0:0:0:
448,192,68259,1,0,0:0:0:0:
192,192,68518,1,0,0:0:0:0:
320,192,68777,1,0,0:0:0:0:
64,192,69035,1,0,0:0:0:0:
320,192,69294,128,0,69811:0:0:0:0:
448,192,69811,128,0,70070:0:0:0:0:
192,192,70070,128,0,70328:0:0:0:0:
64,192,70070,1,0,0:0:0:0:
320,192,70328,1,0,0:0:0:0:
448,192,70587,1,0,0:0:0:0:
448,192,71104,1,0,0:0:0:0:
192,192,71363,128,0,71621:0:0:0:0:
320,192,71363,1,0,0:0:0:0:
64,192,71621,1,0,0:0:0:0:
448,192,71880,1,0,0:0:0:0:
320,192,71880,128,0,72139:0:0:0:0:
192,192,72139,1,0,0:0:0:0:
64,192,72397,1,0,0:0:0:0:
448,192,72397,128,0,72915:0:0:0:0:
192,192,72915,1,0,0:0:0:0:
320,192,73173,1,0,0:0:0:0:
64,192,73432,1,0,0:0:0:0:
192,192,73432,1,0,0:0:0:0:
448,192,73690,1,0,0:0:0:0:
320,192,73949,1,0,0:0:0:0:
448,192,73949,1,0,0:0:0:0:
64,192,74208,1,0,0:0:0:0:
192,192,74466,1,0,0:0:0:0:
64,192,74466,128,0,74984:0:0:0:0:
448,192,74984,1,0,0:0:0:0:
320,192,74984,1,0,0:0:0:0:
448,192,75242,128,0,76018:0:0:0:0:
320,192,75242,1,0,0:0:0:0:
192,192,75501,1,0,0:0:0:0:
64,192,75759,1,0,0:0:0:0:
320,192,76018,128,0,76277:0:0:0:0:
64,192,76277,128,0,76535:0:0:0:0:
192,192,76277,1,0,0:0:0:0:
448,192,76535,1,0,0:0:0:0:
192,192,76794,1,0,0:0:0:0:
320,192,77052,1,0,0:0:0:0:
64,192,77311,1,0,0:0:0:0:
320,192,77570,1,0,0:0:0:0:
448,192,77828,1,0,0:0:0:0:
192,192,78087,128,0,78346:0:0:0:0:
448,192,78346,128,0,78604:0:0:0:0:
320,192,78346,1,0,0:0:0:0:
64,192,78604,1,0,0:0:0:0:
192,192,78863,1,0,0:0:0:0:
320,192,79121,1,0,0:0:0:0:
448,192,79121,1,0,0:0:0:0:
448,192,79380,128,0,79897:0:0:0:0:
320,192,79380,1,0,0:0:0:0:
64,192,79897,128,0,80415:0:0:0:0:
192,192,79897,1,0,0:0:0:0:
320,192,80415,128,0,80673:0:0:0:0:
448,192,80415,1,0,0:0:0:0:
192,192,80673,1,0,0:0:0:0:
64,192,80932,1,0,0:0:0:0:
448,192,81190,1,0,0:0:0:0:
320,192,81449,1,0,0:0:0:0:
192,192,81708,1,0,0:0:0:0:
320,192,81966,128,0,82225:0:0:0:0:
448,192,81966,1,0,0:0:0:0:
64,192,82225,128,0,82484:0:0:0:0:
192,192,82225,1,0,0:0:0:0:
448,192,82484,128,0,82742:0:0:0:0:
320,192,82484,1,0,0:0:0:0:
64,192,82742,1,0,0:0:0:0:
192,192,82742,128,0,83001:0:0:0:0:
320,192,83001,1,0,0:0:0:0:
448,192,83259,1,0,0:0:0:0:
64,192,83518,1,0,0:0:0:0:
192,192,83777,1,0,0:0:0:0:
320,192,84035,1,0,0:0:0:0:
448,192,84294,1,0,0:0:0:0:
192,192,84552,1,0,0:0:0:0:
64,192,84811,128,0,85328:0:0:0:0:
448,192,84811,128,0,85328:0:0:0:0:
192,192,85846,128,0,86363:0:0:0:0:
320,192,86880,128,0,87397:0:0:0:0:
64,192,87915,128,0,88432:0:0:0:0:
448,192,87915,128,0,88432:0:0:0:0:
448,192,88949,1,0,0:0:0:0:
320,192,89208,1,0,0:0:0:0:
192,192,89466,1,0,0:0:0:0:
448,192,89466,1,0,0:0:0:0:
64,192,89725,1,0,0:0:0:0:
320,192,89725,1,0,0:0:0:0:
192,192,89984,1,0,0:0:0:0:
64,192,90242,1,0,0:0:0:0:
320,192,90501,1,0,0:0:0:0:
448,192,90501,1,0,0:0:0:0:
64,192,90759,1,0,0:0:0:0:
192,192,90759,1,0,0:0:0:0:
320,192,91018,128,0,91535:0:0:0:0:
64,192,91794,1,0,0:0:0:0:
320,192,92052,1,0,0:0:0:0:
448,192,92052,1,0,0:0:0:0:
448,192,92311,1,0,0:0:0:0:
320,192,92311,1,0,0:0:0:0:
192,192,92570,1,0,0:0:0:0:
320,192,92828,1,0,0:0:0:0:
64,192,93087,128,0,93604:0:0:0:0:
448,192,93087,1,0,0:0:0:0:
320,192,93604,1,0,0:0:0:0:
192,192,93863,1,0,0:0:0:0:
448,192,93863,128,0,94380:0:0:0:0:
192,192,94639,1,0,0:0:0:0:
320,192,94897,1,0,0:0:0:0:
64,192,94897,128,0,95415:0:0:0:0:
192,192,95415,1,0,0:0:0:0:
448,192,95932,128,0,96449:0:0:0:0:
64,192,95932,1,0,0:0:0:0:
64,192,96449,1,0,0:0:0:0:
192,192,96449,1,0,0:0:0:0:
320,192,96708,1,0,0:0:0:0:
448,192,96708,1,0,0:0:0:0:
64,192,96966,1,0,0:0:0:0:
192,192,96966,1,0,0:0:0:0:
448,192,97225,128,0,97742:0:0:0:0:
192,192,97742,1,0,0:0:0:0:
64,192,97742,1,0,0:0:0:0:
320,192,98001,1,0,0:0:0:0:
192,192,98001,1,0,0:0:0:0:
320,192,98259,1,0,0:0:0:0:
448,192,98259,1,0,0:0:0:0:
448,192,98777,1,0,0:0:0:0:
320,192,98777,1,0,0:0:0:0:
320,192,99035,1,0,0:0:0:0:
448,192,99035,1,0,0:0:0:0:
64,192,99294,128,0,99811:0:0:0:0:
192,192,99294,1,0,0:0:0:0:
64,192,100070,1,0,0:0:0:0:
192,192,100070,1,0,0:0:0:0:
448,192,100328,1,0,0:0:0:0:
64,192,100328,1,0,0:0:0:0:
320,192,100716,1,0,0:0:0:0:
448,192,100716,1,0,0:0:0:0:
320,192,101104,1,0,0:0:0:0:
192,192,101104,1,0,0:0:0:0:
192,192,101363,1,0,0:0:0:0:
64,192,101363,128,0,101880:0:0:0:0:
448,192,101621,1,0,0:0:0:0:
320,192,101880,1,0,0:0:0:0:
192,192,102139,1,0,0:0:0:0:
448,192,102397,1,0,0:0:0:0:
320,192,102397,1,0,0:0:0:0:
64,192,102656,1,0,0:0:0:0:
192,192,102656,1,0,0:0:0:0:
192,192,102915,1,0,0:0:0:0:
320,192,102915,1,0,0:0:0:0:
320,192,103173,1,0,0:0:0:0:
448,192,103173,1,0,0:0:0:0:
192,192,103432,1,0,0:0:0:0:
64,192,103432,128,0,103949:0:0:0:0:
448,192,103949,1,0,0:0:0:0:
448,192,104208,1,0,0:0:0:0:
320,192,104466,128,0,104984:0:0:0:0:
64,192,104466,1,0,0:0:0:0:
192,192,104984,1,0,0:0:0:0:
448,192,104984,128,0,105501:0:0:0:0:
64,192,105501,1,0,0:0:0:0:
192,192,105759,1,0,0:0:0:0:
320,192,106018,1,0,0:0:0:0:
64,192,106018,1,0,0:0:0:0:
448,192,106277,1,0,0:0:0:0:
192,192,106277,1,0,0:0:0:0:
320,192,106535,1,0,0:0:0:0:
448,192,106794,1,0,0:0:0:0:
192,192,107052,1,0,0:0:0:0:
64,192,107052,1,0,0:0:0:0:
448,192,107311,1,0,0:0:0:0:
320,192,107311,1,0,0:0:0:0:
192,192,107570,128,0,108087:0:0:0:0:
448,192,108346,1,0,0:0:0:0:
192,192,108604,1,0,0:0:0:0:
64,192,108604,1,0,0:0:0:0:
320,192,108863,1,0,0:0:0:0:
192,192,109121,1,0,0:0:0:0:
64,192,109121,1,0,0:0:0:0:
320,192,109380,1,0,0:0:0:0:
448,192,109639,128,0,110156:0:0:0:0:
64,192,109639,1,0,0:0:0:0:
192,192,110156,1,0,0:0:0:0:
320,192,110415,1,0,0:0:0:0:
64,192,110415,128,0,110932:0:0:0:0:
448,192,110673,1,0,0:0:0:0:
320,192,111190,1,0,0:0:0:0:
448,192,111449,128,0,111966:0:0:0:0:
64,192,111708,1,0,0:0:0:0:
192,192,112484,1,0,0:0:0:0:
64,192,112742,1,0,0:0:0:0:
448,192,113001,1,0,0:0:0:0:
320,192,113001,1,0,0:0:0:0:
192,192,113259,1,0,0:0:0:0:
64,192,113259,1,0,0:0:0:0:
448,192,113518,1,0,0:0:0:0:
320,192,113518,1,0,0:0:0:0:
64,192,113777,128,0,114294:0:0:0:0:
320,192,114294,1,0,0:0:0:0:
448,192,114294,1,0,0:0:0:0:
192,192,114552,1,0,0:0:0:0:
320,192,114552,1,0,0:0:0:0:
192,192,114811,1,0,0:0:0:0:
64,192,114811,1,0,0:0:0:0:
64,192,115328,1,0,0:0:0:0:
192,192,115328,1,0,0:0:0:0:
192,192,115587,1,0,0:0:0:0:
64,192,115587,1,0,0:0:0:0:
448,192,115846,128,0,116363:0:0:0:0:
320,192,115846,1,0,0:0:0:0:
320,192,116621,1,0,0:0:0:0:
64,192,116880,1,0,0:0:0:0:
448,192,116880,1,0,0:0:0:0:
64,192,117139,1,0,0:0:0:0:
192,192,117139,1,0,0:0:0:0:
192,192,117656,1,0,0:0:0:0:
320,192,117656,1,0,0:0:0:0:
320,192,117915,1,0,0:0:0:0:
448,192,117915,128,0,118432:0:0:0:0:
64,192,118173,1,0,0:0:0:0:
192,192,118432,1,0,0:0:0:0:
320,192,118690,1,0,0:0:0:0:
64,192,118949,1,0,0:0:0:0:
192,192,118949,1,0,0:0:0:0:
448,192,119208,1,0,0:0:0:0:
320,192,119208,1,0,0:0:0:0:
64,192,119466,1,0,0:0:0:0:
448,192,119725,1,0,0:0:0:0:
320,192,119725,1,0,0:0:0:0:
64,192,119984,128,0,120501:0:0:0:0:
448,192,120501,1,0,0:0:0:0:
64,192,120759,1,0,0:0:0:0:
320,192,120759,1,0,0:0:0:0:
192,192,121018,128,0,121535:0:0:0:0:
448,192,121018,1,0,0:0:0:0:
64,192,121535,128,0,122052:0:0:0:0:
320,192,121535,1,0,0:0:0:0:
448,192,122052,128,0,122570:0:0:0:0:
320,192,122570,1,0,0:0:0:0:
192,192,122828,1,0,0:0:0:0:
448,192,123087,1,0,0:0:0:0:
320,192,123346,1,0,0:0:0:0:
64,192,123604,128,0,123863:0:0:0:0:
192,192,123863,128,0,124121:0:0:0:0:
320,192,124121,128,0,124639:0:0:0:0:
64,192,124639,1,0,0:0:0:0:
192,192,124897,1,0,0:0:0:0:
448,192,125156,128,0,125415:0:0:0:0:
192,192,125415,1,0,0:0:0:0:
64,192,125415,1,0,0:0:0:0:
320,192,125673,128,0,125932:0:0:0:0:
448,192,125932,1,0,0:0:0:0:
64,192,126190,1,0,0:0:0:0:
192,192,126190,128,0,126708:0:0:0:0:
320,192,126708,1,0,0:0:0:0:
192,192,126966,1,0,0:0:0:0:
320,192,127225,1,0,0:0:0:0:
448,192,127225,128,0,127484:0:0:0:0:
64,192,127484,128,0,127742:0:0:0:0:
192,192,127484,1,0,0:0:0:0:
448,192,127742,1,0,0:0:0:0:
320,192,128001,1,0,0:0:0:0:
192,192,128259,128,0,128518:0:0:0:0:
64,192,128259,1,0,0:0:0:0:
448,192,128518,1,0,0:0:0:0:
320,192,128777,128,0,129035:0:0:0:0:
64,192,129035,1,0,0:0:0:0:
448,192,129035,128,0,129552:0:0:0:0:
192,192,129552,128,0,129811:0:0:0:0:
320,192,129811,128,0,130070:0:0:0:0:
64,192,130070,128,0,130328:0:0:0:0:
192,192,130328,1,0,0:0:0:0:
448,192,130328,128,0,130846:0:0:0:0:
192,192,130846,1,0,0:0:0:0:
64,192,131104,1,0,0:0:0:0:
320,192,131363,1,0,0:0:0:0:
192,192,131621,1,0,0:0:0:0:
448,192,131880,128,0,132139:0:0:0:0:
320,192,132139,128,0,132397:0:0:0:0:
64,192,132397,128,0,132915:0:0:0:0:
320,192,132915,1,0,0:0:0:0:
192,192,133173,1,0,0:0:0:0:
64,192,133432,1,0,0:0:0:0:
320,192,133690,1,0,0:0:0:0:
64,192,133949,128,0,134208:0:0:0:0:
448,192,133949,1,0,0:0:0:0:
192,192,134208,128,0,134466:0:0:0:0:
320,192,134466,128,0,134984:0:0:0:0:
192,192,134984,1,0,0:0:0:0:
64,192,135242,1,0,0:0:0:0:
320,192,135501,128,0,135759:0:0:0:0:
448,192,135759,128,0,136018:0:0:0:0:
192,192,136018,128,0,136277:0:0:0:0:
320,192,136277,128,0,136535:0:0:0:0:
448,192,136535,1,0,0:0:0:0:
320,192,137052,1,0,0:0:0:0:
192,192,137311,128,0,137570:0:0:0:0:
64,192,137570,128,0,138346:0:0:0:0:
448,192,137570,1,0,0:0:0:0:
192,192,138604,1,0,0:0:0:0:
320,192,138863,1,0,0:0:0:0:
64,192,139121,1,0,0:0:0:0:
192,192,139380,1,0,0:0:0:0:
448,192,139639,128,0,139897:0:0:0:0:
320,192,139897,128,0,140156:0:0:0:0:
192,192,140156,128,0,140415:0:0:0:0:
64,192,140415,128,0,140673:0:0:0:0:
320,192,140673,1,0,0:0:0:0:
192,192,140932,1,0,0:0:0:0:
448,192,141190,1,0,0:0:0:0:
320,192,141449,1,0,0:0:0:0:
64,192,141708,128,0,141966:0:0:0:0:
192,192,141966,128,0,142225:0:0:0:0:
320,192,142225,128,0,142484:0:0:0:0:
448,192,142484,128,0,142742:0:0:0:0:
192,192,142742,1,0,0:0:0:0:
64,192,143001,1,0,0:0:0:0:
320,192,143259,1,0,0:0:0:0:
448,192,143518,1,0,0:0:0:0:
192,192,143777,128,0,144035:0:0:0:0:
64,192,144035,1,0,0:0:0:0:
448,192,144294,128,0,144552:0:0:0:0:
320,192,144552,128,0,144811:0:0:0:0:
64,192,144811,1,0,0:0:0:0:
192,192,145070,1,0,0:0:0:0:
448,192,145328,1,0,0:0:0:0:
320,192,145587,1,0,0:0:0:0:
64,192,145846,1,0,0:0:0:0:
448,192,146104,1,0,0:0:0:0:
192,192,146363,1,0,0:0:0:0:
448,192,146621,1,0,0:0:0:0:
64,192,146880,1,0,0:0:0:0:
320,192,147139,1,0,0:0:0:0:
192,192,147397,1,0,0:0:0:0:
448,192,147656,1,0,0:0:0:0:
64,192,147915,128,0,148173:0:0:0:0:
192,192,148173,128,0,148432:0:0:0:0:
320,192,148432,128,0,148690:0:0:0:0:
448,192,148690,128,0,148949:0:0:0:0:
64,192,148949,1,0,0:0:0:0:
192,192,149208,1,0,0:0:0:0:
320,192,149466,1,0,0:0:0:0:
64,192,149725,1,0,0:0:0:0:
320,192,149984,128,0,150242:0:0:0:0:
192,192,150242,128,0,150501:0:0:0:0:
64,192,150501,128,0,150759:0:0:0:0:
448,192,150759,128,0,151018:0:0:0:0:
320,192,151018,1,0,0:0:0:0:
64,192,151277,1,0,0:0:0:0:
192,192,151535,1,0,0:0:0:0:
448,192,151794,128,0,152169:0:0:0:0:
192,192,152169,128,0,152574:0:0:0:0:
320,192,152574,128,0,152968:0:0:0:0:
448,192,152968,1,0,0:0:0:0:
64,192,153362,128,0,153862:0:0:0:0:
448,192,153862,128,0,156515:0:0:0:0:
320,192,156515,1,0,0:0:0:0:
192,192,156692,1,0,0:0:0:0:
