osu file format v14

[General]
AudioFilename: audio.mp3
AudioLeadIn: 0
PreviewTime: 94059
Countdown: 0
SampleSet: None
StackLeniency: 0.7
Mode: 3
LetterboxInBreaks: 0
SpecialStyle: 0
WidescreenStoryboard: 1

[Editor]
Bookmarks: 3545,14516,26859,48802,59773,70745,81716,94059,116002,126973
DistanceSpacing: 2.4
BeatDivisor: 2
GridSize: 8
TimelineZoom: 1.4

[Metadata]
Title:Empyrean
TitleUnicode:Empyrean
Artist:himmel
ArtistUnicode:himmel
Creator:NightNarumi
Version:Easy
Source:
Tags:
BeatmapID:2026433
BeatmapSetID:808717

[Difficulty]
HPDrainRate:7
CircleSize:4
OverallDifficulty:7
ApproachRate:5
SliderMultiplier:1.4
SliderTickRate:1

[Events]
//Background and Video events
0,0,"image.jpg",0,0
//Break Periods
//Storyboard Layer 0 (Background)
//Storyboard Layer 1 (Fail)
//Storyboard Layer 2 (Pass)
//Storyboard Layer 3 (Foreground)
//Storyboard Sound Samples

[TimingPoints]
3545.13828418232,342.857142857143,4,3,0,20,1,0
94059,-100,4,3,0,20,0,1
116002,-100,4,3,0,20,0,0

[HitObjects]
192,192,3545,5,0,0:0:0:0:
64,192,4573,1,0,0:0:0:0:
192,192,4745,1,0,0:0:0:0:
320,192,4916,1,0,0:0:0:0:
448,192,4916,1,0,0:0:0:0:
192,192,5259,1,0,0:0:0:0:
64,192,5430,1,0,0:0:0:0:
320,192,5773,1,0,0:0:0:0:
192,192,6116,1,0,0:0:0:0:
64,192,6287,1,0,0:0:0:0:
448,192,6630,1,0,0:0:0:0:
192,192,6973,1,0,0:0:0:0:
320,192,7316,1,0,0:0:0:0:
448,192,7487,1,0,0:0:0:0:
64,192,7659,1,0,0:0:0:0:
192,192,7830,1,0,0:0:0:0:
320,192,8002,1,0,0:0:0:0:
192,192,8173,1,0,0:0:0:0:
448,192,8345,1,0,0:0:0:0:
64,192,8516,1,0,0:0:0:0:
320,192,8687,1,0,0:0:0:0:
192,192,8859,1,0,0:0:0:0:
448,192,9030,1,0,0:0:0:0:
192,192,9373,1,0,0:0:0:0:
64,192,9716,1,0,0:0:0:0:
320,192,10059,1,0,0:0:0:0:
448,192,10230,1,0,0:0:0:0:
320,192,10402,1,0,0:0:0:0:
192,192,10573,1,0,0:0:0:0:
192,192,10916,1,0,0:0:0:0:
64,192,11259,1,0,0:0:0:0:
192,192,11602,1,0,0:0:0:0:
448,192,11773,1,0,0:0:0:0:
320,192,12116,1,0,0:0:0:0:
64,192,12287,1,0,0:0:0:0:
192,192,12459,1,0,0:0:0:0:
320,192,12802,1,0,0:0:0:0:
448,192,12973,1,0,0:0:0:0:
448,192,13316,1,0,0:0:0:0:
320,192,13659,1,0,0:0:0:0:
192,192,13830,1,0,0:0:0:0:
448,192,14173,1,0,0:0:0:0:
64,192,14345,1,0,0:0:0:0:
192,192,14516,1,0,0:0:0:0:
320,192,14516,1,0,0:0:0:0:
448,192,14859,1,0,0:0:0:0:
64,192,15202,1,0,0:0:0:0:
192,192,15545,1,0,0:0:0:0:
448,192,15716,1,0,0:0:0:0:
320,192,15887,1,0,0:0:0:0:
448,192,16230,1,0,0:0:0:0:
192,192,16573,1,0,0:0:0:0:
320,192,16916,1,0,0:0:0:0:
448,192,17087,1,0,0:0:0:0:
64,192,17259,1,0,0:0:0:0:
320,192,17602,1,0,0:0:0:0:
192,192,17945,1,0,0:0:0:0:
64,192,18287,1,0,0:0:0:0:
192,192,18459,1,0,0:0:0:0:
448,192,18630,1,0,0:0:0:0:
320,192,18973,1,0,0:0:0:0:
64,192,19316,1,0,0:0:0:0:
192,192,19659,1,0,0:0:0:0:
320,192,19830,1,0,0:0:0:0:
64,192,20002,1,0,0:0:0:0:
448,192,20002,1,0,0:0:0:0:
192,192,20345,1,0,0:0:0:0:
320,192,20687,1,0,0:0:0:0:
64,192,21030,1,0,0:0:0:0:
448,192,21373,1,0,0:0:0:0:
192,192,21716,1,0,0:0:0:0:
320,192,22059,1,0,0:0:0:0:
64,192,22402,1,0,0:0:0:0:
192,192,22745,1,0,0:0:0:0:
448,192,22916,1,0,0:0:0:0:
320,192,23087,1,0,0:0:0:0:
64,192,23259,1,0,0:0:0:0:
192,192,23430,1,0,0:0:0:0:
320,192,23602,1,0,0:0:0:0:
64,192,23773,1,0,0:0:0:0:
448,192,23945,1,0,0:0:0:0:
192,192,24116,128,0,24802:0:0:0:0:
320,192,24802,128,0,25487:0:0:0:0:
64,192,26516,128,0,26859:0:0:0:0:
320,192,26859,1,0,0:0:0:0:
192,192,26859,1,0,0:0:0:0:
448,192,27202,1,0,0:0:0:0:
64,192,27202,1,0,0:0:0:0:
320,192,27545,1,0,0:0:0:0:
448,192,27545,1,0,0:0:0:0:
192,192,27887,1,0,0:0:0:0:
64,192,27887,1,0,0:0:0:0:
320,192,28059,1,0,0:0:0:0:
192,192,28402,1,0,0:0:0:0:
448,192,28745,1,0,0:0:0:0:
320,192,28916,1,0,0:0:0:0:
64,192,29259,1,0,0:0:0:0:
448,192,29602,1,0,0:0:0:0:
192,192,29602,1,0,0:0:0:0:
320,192,29945,1,0,0:0:0:0:
64,192,29945,1,0,0:0:0:0:
192,192,30287,1,0,0:0:0:0:
320,192,30287,1,0,0:0:0:0:
448,192,30630,1,0,0:0:0:0:
64,192,30630,1,0,0:0:0:0:
192,192,30802,1,0,0:0:0:0:
320,192,31145,1,0,0:0:0:0:
64,192,31487,1,0,0:0:0:0:
448,192,31659,1,0,0:0:0:0:
192,192,32002,1,0,0:0:0:0:
64,192,32173,1,0,0:0:0:0:
320,192,32345,1,0,0:0:0:0:
448,192,32345,1,0,0:0:0:0:
192,192,32687,1,0,0:0:0:0:
64,192,32687,1,0,0:0:0:0:
320,192,33030,1,0,0:0:0:0:
448,192,33030,1,0,0:0:0:0:
192,192,33373,1,0,0:0:0:0:
64,192,33373,1,0,0:0:0:0:
448,192,33545,1,0,0:0:0:0:
320,192,33887,1,0,0:0:0:0:
64,192,34230,1,0,0:0:0:0:
192,192,34402,1,0,0:0:0:0:
320,192,34745,1,0,0:0:0:0:
192,192,35087,1,0,0:0:0:0:
448,192,35087,1,0,0:0:0:0:
320,192,35430,1,0,0:0:0:0:
192,192,35430,1,0,0:0:0:0:
320,192,35773,1,0,0:0:0:0:
64,192,35773,1,0,0:0:0:0:
448,192,36116,1,0,0:0:0:0:
64,192,36116,1,0,0:0:0:0:
192,192,36287,1,0,0:0:0:0:
320,192,36459,128,0,36802:0:0:0:0:
64,192,36802,128,0,37145:0:0:0:0:
448,192,37145,128,0,37487:0:0:0:0:
320,192,37487,128,0,37830:0:0:0:0:
192,192,37830,1,0,0:0:0:0:
64,192,37830,1,0,0:0:0:0:
192,192,38173,1,0,0:0:0:0:
448,192,38173,1,0,0:0:0:0:
64,192,38516,1,0,0:0:0:0:
320,192,38516,1,0,0:0:0:0:
192,192,38859,1,0,0:0:0:0:
320,192,38859,1,0,0:0:0:0:
64,192,39030,1,0,0:0:0:0:
64,192,39373,1,0,0:0:0:0:
64,192,39716,1,0,0:0:0:0:
320,192,39887,1,0,0:0:0:0:
192,192,40230,1,0,0:0:0:0:
448,192,40573,1,0,0:0:0:0:
64,192,40573,1,0,0:0:0:0:
320,192,40916,1,0,0:0:0:0:
192,192,40916,1,0,0:0:0:0:
448,192,41259,1,0,0:0:0:0:
320,192,41259,1,0,0:0:0:0:
64,192,41602,1,0,0:0:0:0:
448,192,41773,1,0,0:0:0:0:
448,192,42116,1,0,0:0:0:0:
448,192,42459,1,0,0:0:0:0:
192,192,42630,1,0,0:0:0:0:
320,192,42973,1,0,0:0:0:0:
192,192,43316,1,0,0:0:0:0:
64,192,43316,1,0,0:0:0:0:
448,192,43659,1,0,0:0:0:0:
192,192,43659,1,0,0:0:0:0:
64,192,44002,1,0,0:0:0:0:
320,192,44002,1,0,0:0:0:0:
192,192,44345,1,0,0:0:0:0:
320,192,44516,1,0,0:0:0:0:
320,192,44859,1,0,0:0:0:0:
320,192,45202,1,0,0:0:0:0:
192,192,45373,1,0,0:0:0:0:
448,192,45716,1,0,0:0:0:0:
320,192,46059,1,0,0:0:0:0:
64,192,46059,1,0,0:0:0:0:
192,192,46402,1,0,0:0:0:0:
448,192,46402,1,0,0:0:0:0:
192,192,46745,1,0,0:0:0:0:
64,192,46745,1,0,0:0:0:0:
320,192,47087,1,0,0:0:0:0:
448,192,47087,1,0,0:0:0:0:
64,192,47430,1,0,0:0:0:0:
192,192,47602,1,0,0:0:0:0:
320,192,47773,1,0,0:0:0:0:
64,192,47945,1,0,0:0:0:0:
448,192,48116,1,0,0:0:0:0:
320,192,48287,1,0,0:0:0:0:
192,192,48459,128,0,48802:0:0:0:0:
448,192,48802,1,0,0:0:0:0:
320,192,48802,1,0,0:0:0:0:
64,192,49145,1,0,0:0:0:0:
320,192,49487,1,0,0:0:0:0:
192,192,49830,1,0,0:0:0:0:
448,192,50173,1,0,0:0:0:0:
64,192,50516,1,0,0:0:0:0:
192,192,50859,1,0,0:0:0:0:
320,192,51545,1,0,0:0:0:0:
64,192,51887,1,0,0:0:0:0:
192,192,52230,1,0,0:0:0:0:
448,192,52573,1,0,0:0:0:0:
320,192,52916,1,0,0:0:0:0:
64,192,53259,1,0,0:0:0:0:
192,192,53602,1,0,0:0:0:0:
448,192,53945,128,0,54287:0:0:0:0:
320,192,54287,1,0,0:0:0:0:
192,192,54459,1,0,0:0:0:0:
64,192,54630,1,0,0:0:0:0:
448,192,54802,1,0,0:0:0:0:
192,192,55145,1,0,0:0:0:0:
320,192,55487,1,0,0:0:0:0:
448,192,55659,1,0,0:0:0:0:
320,192,55830,1,0,0:0:0:0:
192,192,56002,1,0,0:0:0:0:
448,192,56173,1,0,0:0:0:0:
64,192,56516,1,0,0:0:0:0:
192,192,56859,1,0,0:0:0:0:
320,192,57030,1,0,0:0:0:0:
64,192,57202,1,0,0:0:0:0:
192,192,57373,1,0,0:0:0:0:
320,192,57545,1,0,0:0:0:0:
192,192,58059,1,0,0:0:0:0:
320,192,58402,1,0,0:0:0:0:
448,192,59087,1,0,0:0:0:0:
192,192,59430,128,0,59773:0:0:0:0:
320,192,59773,1,0,0:0:0:0:
448,192,59945,1,0,0:0:0:0:
64,192,60116,1,0,0:0:0:0:
320,192,60287,1,0,0:0:0:0:
192,192,60459,1,0,0:0:0:0:
448,192,60630,1,0,0:0:0:0:
64,192,60802,1,0,0:0:0:0:
320,192,60973,1,0,0:0:0:0:
192,192,61145,1,0,0:0:0:0:
448,192,61316,1,0,0:0:0:0:
64,192,61487,1,0,0:0:0:0:
320,192,61659,1,0,0:0:0:0:
192,192,61830,1,0,0:0:0:0:
448,192,62173,128,0,62516:0:0:0:0:
320,192,62516,1,0,0:0:0:0:
64,192,62687,1,0,0:0:0:0:
192,192,62859,1,0,0:0:0:0:
448,192,63030,1,0,0:0:0:0:
64,192,63202,1,0,0:0:0:0:
320,192,63373,1,0,0:0:0:0:
192,192,63545,1,0,0:0:0:0:
320,192,63716,1,0,0:0:0:0:
448,192,63887,1,0,0:0:0:0:
64,192,64059,1,0,0:0:0:0:
192,192,64230,1,0,0:0:0:0:
320,192,64402,1,0,0:0:0:0:
64,192,64573,1,0,0:0:0:0:
448,192,64745,1,0,0:0:0:0:
192,192,64916,128,0,65259:0:0:0:0:
320,192,65259,1,0,0:0:0:0:
64,192,65430,1,0,0:0:0:0:
192,192,65602,1,0,0:0:0:0:
448,192,65773,1,0,0:0:0:0:
320,192,65945,1,0,0:0:0:0:
64,192,66116,1,0,0:0:0:0:
192,192,66287,1,0,0:0:0:0:
448,192,66459,1,0,0:0:0:0:
320,192,66630,1,0,0:0:0:0:
64,192,66802,1,0,0:0:0:0:
448,192,66973,1,0,0:0:0:0:
192,192,67145,1,0,0:0:0:0:
320,192,67316,1,0,0:0:0:0:
64,192,67487,1,0,0:0:0:0:
192,192,67659,1,0,0:0:0:0:
320,192,67830,128,0,68002:0:0:0:0:
448,192,68002,1,0,0:0:0:0:
64,192,68173,128,0,68345:0:0:0:0:
192,192,68345,1,0,0:0:0:0:
448,192,68516,1,0,0:0:0:0:
320,192,68687,1,0,0:0:0:0:
192,192,68859,1,0,0:0:0:0:
448,192,69030,1,0,0:0:0:0:
64,192,69202,1,0,0:0:0:0:
320,192,69373,128,0,70059:0:0:0:0:
64,192,70059,128,0,70745:0:0:0:0:
192,192,70745,1,0,0:0:0:0:
448,192,70745,1,0,0:0:0:0:
320,192,71259,1,0,0:0:0:0:
64,192,71430,1,0,0:0:0:0:
320,192,71773,1,0,0:0:0:0:
192,192,72116,1,0,0:0:0:0:
320,192,72630,1,0,0:0:0:0:
192,192,72973,1,0,0:0:0:0:
448,192,73145,1,0,0:0:0:0:
320,192,73316,1,0,0:0:0:0:
64,192,73487,1,0,0:0:0:0:
192,192,73659,1,0,0:0:0:0:
64,192,73830,1,0,0:0:0:0:
320,192,74002,1,0,0:0:0:0:
192,192,74173,1,0,0:0:0:0:
448,192,74516,1,0,0:0:0:0:
64,192,74859,1,0,0:0:0:0:
192,192,75030,1,0,0:0:0:0:
448,192,75202,1,0,0:0:0:0:
192,192,75373,1,0,0:0:0:0:
320,192,75887,1,0,0:0:0:0:
64,192,76059,1,0,0:0:0:0:
192,192,76230,1,0,0:0:0:0:
320,192,76573,1,0,0:0:0:0:
448,192,76916,1,0,0:0:0:0:
192,192,77259,1,0,0:0:0:0:
320,192,77602,1,0,0:0:0:0:
64,192,78287,1,0,0:0:0:0:
192,192,78459,1,0,0:0:0:0:
448,192,78630,1,0,0:0:0:0:
320,192,78802,1,0,0:0:0:0:
192,192,78973,1,0,0:0:0:0:
320,192,79316,1,0,0:0:0:0:
448,192,79659,1,0,0:0:0:0:
192,192,80002,1,0,0:0:0:0:
64,192,80173,1,0,0:0:0:0:
320,192,80516,1,0,0:0:0:0:
448,192,80687,1,0,0:0:0:0:
320,192,80859,1,0,0:0:0:0:
192,192,81030,1,0,0:0:0:0:
64,192,81202,1,0,0:0:0:0:
320,192,81373,1,0,0:0:0:0:
448,192,81545,1,0,0:0:0:0:
192,192,81716,1,0,0:0:0:0:
320,192,81887,1,0,0:0:0:0:
64,192,82059,1,0,0:0:0:0:
192,192,82402,1,0,0:0:0:0:
448,192,82745,1,0,0:0:0:0:
64,192,82916,1,0,0:0:0:0:
320,192,83087,1,0,0:0:0:0:
192,192,83430,1,0,0:0:0:0:
448,192,83773,1,0,0:0:0:0:
64,192,84116,1,0,0:0:0:0:
192,192,84287,1,0,0:0:0:0:
320,192,84459,1,0,0:0:0:0:
448,192,84802,1,0,0:0:0:0:
64,192,85145,1,0,0:0:0:0:
320,192,85487,1,0,0:0:0:0:
192,192,85659,1,0,0:0:0:0:
448,192,85830,1,0,0:0:0:0:
64,192,86173,1,0,0:0:0:0:
192,192,86516,1,0,0:0:0:0:
320,192,86859,1,0,0:0:0:0:
64,192,87030,1,0,0:0:0:0:
320,192,87202,1,0,0:0:0:0:
192,192,87545,1,0,0:0:0:0:
448,192,87887,1,0,0:0:0:0:
320,192,88230,1,0,0:0:0:0:
192,192,88402,1,0,0:0:0:0:
448,192,88745,1,0,0:0:0:0:
64,192,89087,1,0,0:0:0:0:
192,192,89259,1,0,0:0:0:0:
320,192,89602,1,0,0:0:0:0:
192,192,89945,128,0,90630:0:0:0:0:
448,192,90630,128,0,91316:0:0:0:0:
320,192,91316,128,0,92002:0:0:0:0:
64,192,92002,128,0,92687:0:0:0:0:
448,192,92687,128,0,93030:0:0:0:0:
320,192,93030,128,0,93373:0:0:0:0:
192,192,93373,128,0,94059:0:0:0:0:
64,192,94059,1,0,0:0:0:0:
448,192,94059,1,0,0:0:0:0:
64,192,94402,1,0,0:0:0:0:
320,192,94402,1,0,0:0:0:0:
192,192,94745,1,0,0:0:0:0:
320,192,94745,1,0,0:0:0:0:
192,192,95087,1,0,0:0:0:0:
448,192,95087,1,0,0:0:0:0:
64,192,95259,1,0,0:0:0:0:
320,192,95602,1,0,0:0:0:0:
64,192,95945,1,0,0:0:0:0:
192,192,96116,1,0,0:0:0:0:
448,192,96459,1,0,0:0:0:0:
64,192,96802,1,0,0:0:0:0:
320,192,96802,1,0,0:0:0:0:
192,192,97145,1,0,0:0:0:0:
320,192,97145,1,0,0:0:0:0:
448,192,97487,1,0,0:0:0:0:
192,192,97487,1,0,0:0:0:0:
64,192,97830,1,0,0:0:0:0:
448,192,97830,1,0,0:0:0:0:
320,192,98002,1,0,0:0:0:0:
192,192,98345,1,0,0:0:0:0:
448,192,98687,1,0,0:0:0:0:
64,192,98859,1,0,0:0:0:0:
192,192,99030,1,0,0:0:0:0:
448,192,99202,1,0,0:0:0:0:
320,192,99373,1,0,0:0:0:0:
192,192,99545,1,0,0:0:0:0:
64,192,99545,1,0,0:0:0:0:
192,192,99887,1,0,0:0:0:0:
448,192,99887,1,0,0:0:0:0:
448,192,100230,1,0,0:0:0:0:
64,192,100230,1,0,0:0:0:0:
320,192,100573,1,0,0:0:0:0:
64,192,100573,1,0,0:0:0:0:
192,192,100745,1,0,0:0:0:0:
448,192,101087,1,0,0:0:0:0:
192,192,101430,1,0,0:0:0:0:
320,192,101602,1,0,0:0:0:0:
192,192,101945,1,0,0:0:0:0:
320,192,102287,1,0,0:0:0:0:
64,192,102287,1,0,0:0:0:0:
192,192,102630,1,0,0:0:0:0:
320,192,102630,1,0,0:0:0:0:
192,192,102973,1,0,0:0:0:0:
448,192,102973,1,0,0:0:0:0:
64,192,103316,1,0,0:0:0:0:
448,192,103316,1,0,0:0:0:0:
320,192,103487,1,0,0:0:0:0:
192,192,103659,128,0,104002:0:0:0:0:
448,192,104002,128,0,104345:0:0:0:0:
64,192,104345,128,0,104687:0:0:0:0:
192,192,104687,128,0,105030:0:0:0:0:
320,192,105030,1,0,0:0:0:0:
448,192,105030,1,0,0:0:0:0:
320,192,105373,1,0,0:0:0:0:
64,192,105373,1,0,0:0:0:0:
64,192,105716,1,0,0:0:0:0:
192,192,105716,1,0,0:0:0:0:
448,192,106059,1,0,0:0:0:0:
192,192,106059,1,0,0:0:0:0:
320,192,106230,1,0,0:0:0:0:
320,192,106573,1,0,0:0:0:0:
320,192,106916,1,0,0:0:0:0:
448,192,107087,1,0,0:0:0:0:
64,192,107430,1,0,0:0:0:0:
320,192,107773,1,0,0:0:0:0:
192,192,107773,1,0,0:0:0:0:
448,192,108116,1,0,0:0:0:0:
320,192,108116,1,0,0:0:0:0:
448,192,108459,1,0,0:0:0:0:
64,192,108459,1,0,0:0:0:0:
64,192,108802,1,0,0:0:0:0:
320,192,108802,1,0,0:0:0:0:
192,192,108973,1,0,0:0:0:0:
192,192,109316,1,0,0:0:0:0:
192,192,109659,1,0,0:0:0:0:
320,192,109830,1,0,0:0:0:0:
448,192,110002,1,0,0:0:0:0:
64,192,110173,1,0,0:0:0:0:
320,192,110345,1,0,0:0:0:0:
192,192,110516,1,0,0:0:0:0:
64,192,110516,1,0,0:0:0:0:
192,192,110859,1,0,0:0:0:0:
448,192,110859,1,0,0:0:0:0:
448,192,111202,1,0,0:0:0:0:
320,192,111202,1,0,0:0:0:0:
320,192,111545,1,0,0:0:0:0:
64,192,111545,1,0,0:0:0:0:
448,192,111716,1,0,0:0:0:0:
448,192,112059,1,0,0:0:0:0:
448,192,112402,1,0,0:0:0:0:
192,192,112573,1,0,0:0:0:0:
320,192,112916,1,0,0:0:0:0:
64,192,113259,1,0,0:0:0:0:
192,192,113430,1,0,0:0:0:0:
320,192,113602,1,0,0:0:0:0:
64,192,113773,1,0,0:0:0:0:
448,192,113945,1,0,0:0:0:0:
320,192,114116,1,0,0:0:0:0:
192,192,114287,1,0,0:0:0:0:
64,192,114459,1,0,0:0:0:0:
320,192,114630,128,0,114973:0:0:0:0:
192,192,114973,128,0,115316:0:0:0:0:
448,192,115316,128,0,116002:0:0:0:0:
64,192,116002,1,0,0:0:0:0:
320,192,116345,1,0,0:0:0:0:
192,192,116687,1,0,0:0:0:0:
448,192,117030,1,0,0:0:0:0:
320,192,117373,1,0,0:0:0:0:
64,192,117716,1,0,0:0:0:0:
192,192,118059,1,0,0:0:0:0:
448,192,118402,1,0,0:0:0:0:
320,192,118745,1,0,0:0:0:0:
64,192,119087,1,0,0:0:0:0:
192,192,119430,1,0,0:0:0:0:
448,192,119773,1,0,0:0:0:0:
192,192,120116,1,0,0:0:0:0:
320,192,120459,1,0,0:0:0:0:
64,192,120802,1,0,0:0:0:0:
192,192,121145,1,0,0:0:0:0:
320,192,121487,1,0,0:0:0:0:
192,192,121830,1,0,0:0:0:0:
448,192,122173,1,0,0:0:0:0:
320,192,122516,1,0,0:0:0:0:
64,192,122859,1,0,0:0:0:0:
192,192,123202,1,0,0:0:0:0:
448,192,123545,1,0,0:0:0:0:
192,192,123887,1,0,0:0:0:0:
64,192,124230,1,0,0:0:0:0:
192,192,124573,1,0,0:0:0:0:
448,192,124745,1,0,0:0:0:0:
320,192,124916,1,0,0:0:0:0:
64,192,125087,1,0,0:0:0:0:
448,192,125259,1,0,0:0:0:0:
192,192,125430,1,0,0:0:0:0:
320,192,125602,1,0,0:0:0:0:
448,192,125773,1,0,0:0:0:0:
64,192,125945,1,0,0:0:0:0:
320,192,126116,1,0,0:0:0:0:
448,192,126287,1,0,0:0:0:0:
320,192,126459,1,0,0:0:0:0:
192,192,126630,1,0,0:0:0:0:
64,192,126802,1,0,0:0:0:0:
320,192,126973,1,0,0:0:0:0:
