osu file format v14

[General]
AudioFilename: Audio.mp3
AudioLeadIn: 0
PreviewTime: 60003
Countdown: 0
SampleSet: Soft
StackLeniency: 0.2
Mode: 0
LetterboxInBreaks: 0
WidescreenStoryboard: 0

[Editor]
Bookmarks: 15089,27432,49375,60346,71318,82289
DistanceSpacing: 1.1
BeatDivisor: 4
GridSize: 8
TimelineZoom: 1.6

[Metadata]
Title:Empyrean
TitleUnicode:Empyrean
Artist:himmel
ArtistUnicode:himmel
Creator:Imouto koko
Version:Insane
Source:Zyon 載音
Tags:HEAVENLY TRINITY Dynamix 84461810 papapa213 Dored Ametrin Fushimi Rio Firika Hanazawa Kana Vert Suzuki_1112
BeatmapID:1673383
BeatmapSetID:796766

[Difficulty]
HPDrainRate:7
CircleSize:4
OverallDifficulty:8
ApproachRate:9
SliderMultiplier:1.6
SliderTickRate:1

[Events]
//Background and Video events
0,0,"BG.png",0,0
//Break Periods
//Storyboard Layer 0 (Background)
//Storyboard Layer 1 (Fail)
//Storyboard Layer 2 (Pass)
//Storyboard Layer 3 (Foreground)
//Storyboard Sound Samples

[TimingPoints]
4118,342.857142857144,4,2,1,70,1,0
14746,-33.3333333333333,4,2,1,70,0,0
15089,-83.3333333333333,4,2,1,70,0,0
27432,-62.5,4,2,1,70,0,0
37032,-33.3333333333333,4,2,1,70,0,0
38060,-50,4,2,1,70,0,0
38403,-62.5,4,2,1,70,0,0
49375,-83.3333333333333,4,2,1,70,0,0
94632,-100,4,2,1,70,0,1
116575,-100,4,2,1,70,0,0

[HitObjects]
59,329,4118,6,0,L|140:349,1,80
194,183,4460,2,0,L|275:203,1,80
225,361,4803,1,0,0:0:0:0:
225,361,5146,2,0,L|323:356,1,80
364,175,5489,1,0,0:0:0:0:
391,350,5660,1,0,0:0:0:0:
391,350,6003,2,0,L|223:360,1,160
231,359,6689,1,0,0:0:0:0:
107,232,6860,2,0,L|162:291,1,80
321,252,7203,2,0,L|379:196,1,80
107,232,7546,1,0,0:0:0:0:
107,232,7889,1,0,0:0:0:0:
278,267,8060,1,0,0:0:0:0:
147,77,8232,2,0,L|151:163,1,80
150,156,8746,2,0,L|284:44,1,160
272,53,9432,1,0,0:0:0:0:
150,156,9603,2,0,L|205:223,1,80
379,51,9946,2,0,L|333:121,1,80
150,156,10289,1,0,0:0:0:0:
150,156,10632,1,0,0:0:0:0:
299,229,10803,1,0,0:0:0:0:
247,51,10975,1,0,0:0:0:0:
237,138,11146,1,0,0:0:0:0:
237,138,11489,1,0,0:0:0:0:
237,138,11832,2,0,L|225:302,1,160
319,220,12346,1,0,0:0:0:0:
57,276,12860,1,0,0:0:0:0:
325,96,13375,1,0,0:0:0:0:
154,327,13718,2,0,L|321:319,1,160
343,235,14232,2,0,L|218:109,1,160
265,63,14746,2,0,P|280:167|176:161,1,240.000009155274
413,32,15089,2,0,L|390:138,1,95.9999970703126
473,218,15432,2,0,L|493:124,2,95.9999970703126
444,349,15946,1,0,0:0:0:0:
375,260,16118,1,0,0:0:0:0:
375,260,16289,1,0,0:0:0:0:
325,185,16460,2,0,L|215:195,1,95.9999970703126
75,294,16803,2,0,L|180:281,1,95.9999970703126
374,336,17146,1,0,0:0:0:0:
374,336,17318,1,0,0:0:0:0:
132,371,17489,1,0,0:0:0:0:
247,257,17660,1,0,0:0:0:0:
118,99,17832,2,0,L|126:204,2,95.9999970703126
125,194,18346,1,0,0:0:0:0:
37,64,18518,1,0,0:0:0:0:
37,64,18689,1,0,0:0:0:0:
314,37,18860,1,0,0:0:0:0:
118,99,19032,1,0,0:0:0:0:
214,250,19203,2,0,L|211:133,1,95.9999970703126
391,63,19546,1,0,0:0:0:0:
211,154,19718,1,0,0:0:0:0:
341,229,19889,1,0,0:0:0:0:
341,229,19975,1,0,0:0:0:0:
341,229,20060,1,0,0:0:0:0:
341,229,20146,1,0,0:0:0:0:
341,229,20232,1,0,0:0:0:0:
341,229,20318,1,0,0:0:0:0:
341,229,20403,1,0,0:0:0:0:
341,229,20489,1,0,0:0:0:0:
341,229,20575,2,0,L|346:331,1,95.9999970703126
439,243,20918,2,0,L|434:147,1,95.9999970703126
341,229,21260,2,0,L|346:331,1,95.9999970703126
434,147,21603,1,0,0:0:0:0:
434,147,21775,1,0,0:0:0:0:
341,229,21946,2,0,L|346:331,1,95.9999970703126
439,243,22289,2,0,L|434:147,1,95.9999970703126
252,207,22632,1,0,0:0:0:0:
252,207,22718,1,0,0:0:0:0:
252,207,22803,1,0,0:0:0:0:
252,207,22889,1,0,0:0:0:0:
252,207,22975,1,0,0:0:0:0:
353,58,23146,1,0,0:0:0:0:
353,58,23232,1,0,0:0:0:0:
353,58,23317,1,0,0:0:0:0:
171,181,23489,1,0,0:0:0:0:
354,189,23660,1,0,0:0:0:0:
262,87,23832,1,0,0:0:0:0:
281,285,24003,1,0,0:0:0:0:
405,118,24175,1,0,0:0:0:0:
171,181,24346,2,0,L|218:183,1,47.9999985351563
354,189,24518,1,0,0:0:0:0:
354,189,24603,1,0,0:0:0:0:
354,189,24689,1,0,0:0:0:0:
433,299,24860,2,0,L|383:303,1,47.9999985351563
274,318,25032,1,0,0:0:0:0:
274,318,25118,1,0,0:0:0:0:
274,318,25203,1,0,0:0:0:0:
274,318,25289,1,0,0:0:0:0:
274,318,25375,2,0,L|250:321,7,23.9999992675781
163,312,25718,2,0,L|139:315,3,23.9999992675781
144,231,25889,2,0,L|129:212,4,23.9999992675781
355,317,27089,1,0,0:0:0:0:
364,270,27174,1,0,0:0:0:0:
390,230,27260,1,0,0:0:0:0:
429,202,27346,1,0,0:0:0:0:
475,189,27432,2,0,P|392:202|327:178,1,128
276,382,27775,2,0,L|254:255,1,128
254,255,28032,1,0,0:0:0:0:
254,255,28118,1,0,0:0:0:0:
183,324,28289,1,0,0:0:0:0:
360,149,28460,2,0,L|344:276,1,128
360,149,28803,1,0,0:0:0:0:
263,216,28975,1,0,0:0:0:0:
360,149,29146,1,0,0:0:0:0:
63,234,29318,1,0,0:0:0:0:
63,234,29403,1,0,0:0:0:0:
63,234,29489,2,0,P|128:229|186:176,1,128
142,20,29832,2,0,P|99:90|105:155,1,128
389,141,30175,2,0,L|237:142,1,128
297,361,30518,2,0,L|303:211,1,128
302,233,30775,1,0,0:0:0:0:
302,233,30860,1,0,0:0:0:0:
122,301,31032,1,0,0:0:0:0:
212,223,31203,2,0,P|212:146|189:93,1,128
121,217,31546,1,0,0:0:0:0:
302,233,31718,1,0,0:0:0:0:
121,217,31889,1,0,0:0:0:0:
149,12,32060,1,0,0:0:0:0:
149,12,32146,1,0,0:0:0:0:
149,12,32232,2,0,P|111:74|114:155,1,128
335,113,32575,2,0,P|271:90|171:119,1,128
337,241,32918,2,0,L|488:200,1,128
443,0,33260,2,0,L|424:144,1,128
426,126,33518,1,0,0:0:0:0:
426,126,33603,1,0,0:0:0:0:
257,219,33775,1,0,0:0:0:0:
399,346,33946,2,0,L|415:219,1,128
399,346,34289,1,0,0:0:0:0:
501,194,34460,1,0,0:0:0:0:
399,346,34632,1,0,0:0:0:0:
373,103,34803,1,0,0:0:0:0:
373,103,34889,1,0,0:0:0:0:
373,103,34975,2,0,P|380:166|415:219,1,128
273,348,35318,2,0,P|316:289|314:202,1,128
207,87,35660,1,0,0:0:0:0:
191,294,35832,1,0,0:0:0:0:
356,155,36003,1,0,0:0:0:0:
156,206,36175,1,0,0:0:0:0:
156,206,36260,1,0,0:0:0:0:
156,206,36346,1,0,0:0:0:0:
417,239,36518,1,0,0:0:0:0:
253,225,36689,1,0,0:0:0:0:
275,19,36860,1,0,0:0:0:0:
354,176,37032,2,0,P|308:147|377:168,1,240.000009155274
354,176,37375,2,0,B|317:174|301:150|299:123|314:102|314:102|293:127|262:183|200:169,1,240.000009155274
124,138,37718,2,0,L|67:110,7,60.0000022888184
211,173,38060,2,0,L|174:255,1,80
59,296,38232,2,0,L|91:223,1,80
475,189,38403,2,0,P|392:202|327:178,1,128
276,382,38746,2,0,L|254:255,1,128
254,255,39003,1,0,0:0:0:0:
254,255,39089,1,0,0:0:0:0:
183,324,39260,1,0,0:0:0:0:
360,149,39431,2,0,L|344:276,1,128
360,149,39774,1,0,0:0:0:0:
263,216,39946,1,0,0:0:0:0:
360,149,40117,1,0,0:0:0:0:
63,234,40289,1,0,0:0:0:0:
63,234,40374,1,0,0:0:0:0:
63,234,40460,2,0,P|128:229|186:176,1,128
142,20,40803,2,0,P|99:90|105:155,1,128
389,141,41146,2,0,L|237:142,1,128
297,361,41489,2,0,L|303:211,1,128
302,233,41746,1,0,0:0:0:0:
302,233,41831,1,0,0:0:0:0:
122,301,42003,1,0,0:0:0:0:
212,223,42174,2,0,P|212:146|189:93,1,128
121,217,42517,1,0,0:0:0:0:
302,233,42689,1,0,0:0:0:0:
121,217,42860,1,0,0:0:0:0:
149,12,43031,1,0,0:0:0:0:
149,12,43117,1,0,0:0:0:0:
149,12,43203,2,0,P|111:74|114:155,1,128
335,113,43546,2,0,P|271:90|171:119,1,128
337,241,43889,2,0,L|488:200,1,128
443,0,44231,2,0,L|424:144,1,128
426,126,44489,1,0,0:0:0:0:
426,126,44574,1,0,0:0:0:0:
257,219,44746,1,0,0:0:0:0:
399,346,44917,2,0,L|415:219,1,128
399,346,45260,1,0,0:0:0:0:
501,194,45431,1,0,0:0:0:0:
399,346,45603,1,0,0:0:0:0:
373,103,45774,1,0,0:0:0:0:
373,103,45860,1,0,0:0:0:0:
373,103,45946,2,0,P|380:166|415:219,1,128
273,348,46289,2,0,P|316:289|314:202,1,128
207,87,46631,1,0,0:0:0:0:
191,294,46803,1,0,0:0:0:0:
356,155,46974,1,0,0:0:0:0:
156,206,47146,1,0,0:0:0:0:
156,206,47231,1,0,0:0:0:0:
156,206,47317,1,0,0:0:0:0:
417,239,47489,1,0,0:0:0:0:
253,225,47660,1,0,0:0:0:0:
275,19,47831,1,0,0:0:0:0:
423,29,48003,1,0,0:0:0:0:
444,65,48174,1,0,0:0:0:0:
441,107,48345,1,0,0:0:0:0:
415,140,48517,1,0,0:0:0:0:
375,152,48688,1,0,0:0:0:0:
334,140,48860,1,0,0:0:0:0:
257,57,49032,1,0,0:0:0:0:
227,45,49118,1,0,0:0:0:0:
195,39,49203,1,0,0:0:0:0:
163,38,49289,1,0,0:0:0:0:
132,43,49375,1,0,0:0:0:0:
218,267,49546,1,0,0:0:0:0:
119,163,49718,1,0,0:0:0:0:
276,198,49889,1,0,0:0:0:0:
29,142,50060,2,0,L|61:246,1,95.9999970703126
171,381,50403,2,0,L|131:270,1,95.9999970703126
381,334,50746,2,0,P|309:342|233:240,1,191.999994140625
279,165,51260,1,0,0:0:0:0:
171,381,51432,1,0,0:0:0:0:
329,247,51603,1,0,0:0:0:0:
329,247,51689,1,0,0:0:0:0:
329,247,51775,1,0,0:0:0:0:
279,165,51946,1,0,0:0:0:0:
503,74,52118,2,0,L|463:193,1,95.9999970703126
423,72,52460,2,0,L|358:156,1,95.9999970703126
320,69,52803,2,0,L|236:120,1,95.9999970703126
221,33,53146,2,0,L|105:32,1,95.9999970703126
90,0,53403,1,0,0:0:0:0:
90,0,53489,2,0,L|121:97,1,95.9999970703126
62,251,53832,2,0,L|32:159,1,95.9999970703126
228,184,54175,2,0,P|170:174|106:205,1,95.9999970703126
233,280,54518,1,0,0:0:0:0:
268,282,54603,1,0,0:0:0:0:
304,285,54689,1,0,0:0:0:0:
340,288,54775,1,0,0:0:0:0:
376,291,54860,1,0,0:0:0:0:
290,372,55032,1,0,0:0:0:0:
394,192,55203,1,0,0:0:0:0:
471,299,55375,2,0,L|365:290,1,95.9999970703126
471,299,55718,1,0,0:0:0:0:
394,192,55889,1,0,0:0:0:0:
290,372,56060,1,0,0:0:0:0:
204,291,56232,1,0,0:0:0:0:
290,372,56404,1,0,0:0:0:0:
186,192,56575,1,0,0:0:0:0:
109,299,56747,2,0,L|215:290,1,95.9999970703126
240,287,57003,1,0,0:0:0:0:
276,284,57089,1,0,0:0:0:0:
312,281,57175,1,0,0:0:0:0:
347,279,57260,1,0,0:0:0:0:
392,76,57432,1,0,0:0:0:0:
281,183,57603,2,0,L|185:191,1,95.9999970703126
240,287,57946,1,0,0:0:0:0:
296,84,58118,2,0,L|391:75,1,95.9999970703126
281,183,58460,1,0,0:0:0:0:
119,102,58632,1,0,0:0:0:0:
240,287,58803,1,0,0:0:0:0:
259,0,58975,2,0,P|219:36|211:115,1,95.9999970703126
92,292,59318,2,0,P|103:238|82:176,1,95.9999970703126
331,263,59660,2,0,P|377:293|442:293,1,95.9999970703126
237,157,60003,1,0,0:0:0:0:
216,186,60088,1,0,0:0:0:0:
205,220,60174,1,0,0:0:0:0:
205,256,60260,1,0,0:0:0:0:
216,290,60345,1,0,0:0:0:0:
320,351,60518,1,0,0:0:0:0:
307,238,60689,1,0,0:0:0:0:
234,375,60860,1,0,0:0:0:0:
396,252,61032,2,0,L|447:267,2,47.9999985351563
396,252,61375,1,0,0:0:0:0:
502,329,61546,1,0,0:0:0:0:
449,173,61718,1,0,0:0:0:0:
339,321,61889,1,0,0:0:0:0:
512,225,62060,1,0,0:0:0:0:
418,346,62232,1,0,0:0:0:0:
301,169,62403,2,0,L|340:195,1,47.9999985351563
376,214,62575,1,0,0:0:0:0:
376,214,62660,1,0,0:0:0:0:
376,214,62746,1,0,0:0:0:0:
291,74,62918,1,0,0:0:0:0:
291,74,63003,1,0,0:0:0:0:
291,74,63089,1,0,0:0:0:0:
222,213,63260,1,0,0:0:0:0:
370,41,63432,1,0,0:0:0:0:
186,131,63603,1,0,0:0:0:0:
357,127,63775,2,0,L|470:127,1,95.9999970703126
357,127,64118,1,0,0:0:0:0:
204,36,64289,1,0,0:0:0:0:
265,287,64460,1,0,0:0:0:0:
277,127,64632,1,0,0:0:0:0:
168,302,64803,1,0,0:0:0:0:
351,278,64975,1,0,0:0:0:0:
311,47,65146,2,0,L|378:44,3,47.9999985351563
400,46,65489,1,0,0:0:0:0:
387,79,65574,1,0,0:0:0:0:
384,115,65660,1,0,0:0:0:0:
392,150,65746,1,0,0:0:0:0:
410,181,65831,1,0,0:0:0:0:
500,161,66003,1,0,0:0:0:0:
306,149,66175,1,0,0:0:0:0:
451,268,66346,1,0,0:0:0:0:
480,81,66518,2,0,L|487:32,2,47.9999985351563
451,268,66860,1,0,0:0:0:0:
