osu file format v14

[General]
AudioFilename: audio.mp3
AudioLeadIn: 0
PreviewTime: 60762
Countdown: 0
SampleSet: Soft
StackLeniency: 0.7
Mode: 3
LetterboxInBreaks: 0
SpecialStyle: 0
WidescreenStoryboard: 1

[Editor]
DistanceSpacing: 1.2
BeatDivisor: 3
GridSize: 4
TimelineZoom: 1.8

[Metadata]
Title:Carnation
TitleUnicode:Carnation
Artist:himmel
ArtistUnicode:himmel
Creator:Unpredictable
Version:Prot's Special
Source:VOEZ
Tags:lemiao taiwanese rayark project V Protastic101
BeatmapID:1264069
BeatmapSetID:592997

[Difficulty]
HPDrainRate:7.5
CircleSize:4
OverallDifficulty:7.5
ApproachRate:5
SliderMultiplier:1.4
SliderTickRate:1

[Events]
//Background and Video events
0,0,"Carnation.jpg",0,0
//Break Periods
//Storyboard Layer 0 (Background)
//Storyboard Layer 1 (Fail)
//Storyboard Layer 2 (Pass)
//Storyboard Layer 3 (Foreground)
//Storyboard Sound Samples

[TimingPoints]
762,508.474576271186,6,2,1,20,1,0
61778,-100,6,2,1,20,0,1
73982,-100,6,2,1,20,0,0
86185,-100,6,2,1,20,0,1
98389,-100,6,2,1,20,0,0

[HitObjects]
64,192,0,5,0,0:0:0:0:
192,192,253,1,0,0:0:0:0:
320,192,507,1,0,0:0:0:0:
448,192,762,1,0,0:0:0:0:
192,192,762,1,0,0:0:0:0:
64,192,762,128,0,1778:0:0:0:0:
320,192,1016,1,0,0:0:0:0:
192,192,1270,1,0,0:0:0:0:
192,192,1524,1,0,0:0:0:0:
448,192,1778,1,0,0:0:0:0:
320,192,1778,1,0,0:0:0:0:
64,192,2033,1,0,0:0:0:0:
192,192,2287,1,0,0:0:0:0:
448,192,2541,1,0,0:0:0:0:
64,192,2795,1,0,0:0:0:0:
448,192,2795,1,0,0:0:0:0:
192,192,3050,1,0,0:0:0:0:
192,192,3304,1,0,0:0:0:0:
320,192,3304,1,0,0:0:0:0:
64,192,3558,1,0,0:0:0:0:
448,192,3558,1,0,0:0:0:0:
320,192,3812,1,0,0:0:0:0:
448,192,3812,1,0,0:0:0:0:
192,192,4067,1,0,0:0:0:0:
64,192,4321,1,0,0:0:0:0:
320,192,4321,1,0,0:0:0:0:
448,192,4575,1,0,0:0:0:0:
192,192,4575,1,0,0:0:0:0:
320,192,4829,1,0,0:0:0:0:
448,192,4829,1,0,0:0:0:0:
64,192,5084,1,0,0:0:0:0:
192,192,5338,1,0,0:0:0:0:
448,192,5338,1,0,0:0:0:0:
320,192,5592,1,0,0:0:0:0:
448,192,5846,1,0,0:0:0:0:
64,192,5846,128,0,6736:0:0:0:0:
192,192,6100,128,0,6736:0:0:0:0:
320,192,6355,128,0,6736:0:0:0:0:
448,192,6609,128,0,6863:0:0:0:0:
192,192,6863,1,0,0:0:0:0:
320,192,6863,1,0,0:0:0:0:
64,192,6863,128,0,7880:0:0:0:0:
320,192,7117,1,0,0:0:0:0:
192,192,7372,1,0,0:0:0:0:
448,192,7372,1,0,0:0:0:0:
320,192,7626,1,0,0:0:0:0:
448,192,7880,128,0,8389:0:0:0:0:
192,192,7880,1,0,0:0:0:0:
320,192,8134,1,0,0:0:0:0:
64,192,8389,128,0,9787:0:0:0:0:
192,192,8389,1,0,0:0:0:0:
320,192,8643,1,0,0:0:0:0:
448,192,8897,128,0,9787:0:0:0:0:
320,192,8897,1,0,0:0:0:0:
192,192,9151,1,0,0:0:0:0:
192,192,9406,128,0,9787:0:0:0:0:
320,192,9406,1,0,0:0:0:0:
320,192,9660,128,0,9914:0:0:0:0:
448,192,9914,1,0,0:0:0:0:
64,192,9914,128,0,10677:0:0:0:0:
192,192,10168,1,0,0:0:0:0:
192,192,10423,1,0,0:0:0:0:
320,192,10423,1,0,0:0:0:0:
448,192,10677,1,0,0:0:0:0:
448,192,10931,128,0,11694:0:0:0:0:
192,192,10931,128,0,11185:0:0:0:0:
320,192,11185,128,0,11439:0:0:0:0:
192,192,11439,1,0,0:0:0:0:
64,192,11439,128,0,11948:0:0:0:0:
320,192,11694,128,0,11948:0:0:0:0:
192,192,11948,1,0,0:0:0:0:
448,192,11948,128,0,12838:0:0:0:0:
64,192,12202,1,0,0:0:0:0:
64,192,12456,128,0,12965:0:0:0:0:
320,192,12456,1,0,0:0:0:0:
192,192,12711,128,0,12965:0:0:0:0:
320,192,12965,1,0,0:0:0:0:
448,192,12965,128,0,13982:0:0:0:0:
64,192,13219,1,0,0:0:0:0:
192,192,13473,1,0,0:0:0:0:
320,192,13473,1,0,0:0:0:0:
64,192,13728,1,0,0:0:0:0:
192,192,13982,1,0,0:0:0:0:
320,192,13982,128,0,14236:0:0:0:0:
448,192,14236,1,0,0:0:0:0:
64,192,14490,128,0,14745:0:0:0:0:
320,192,14490,1,0,0:0:0:0:
192,192,14745,1,0,0:0:0:0:
448,192,14999,128,0,16016:0:0:0:0:
320,192,14999,1,0,0:0:0:0:
192,192,15253,1,0,0:0:0:0:
64,192,15507,128,0,16016:0:0:0:0:
320,192,15507,1,0,0:0:0:0:
192,192,15761,1,0,0:0:0:0:
192,192,16016,1,0,0:0:0:0:
320,192,16016,128,0,17033:0:0:0:0:
64,192,16270,1,0,0:0:0:0:
64,192,16524,1,0,0:0:0:0:
448,192,16524,1,0,0:0:0:0:
192,192,16778,128,0,17541:0:0:0:0:
448,192,17033,128,0,17541:0:0:0:0:
64,192,17033,1,0,0:0:0:0:
320,192,17287,1,0,0:0:0:0:
64,192,17541,1,0,0:0:0:0:
320,192,17541,128,0,18050:0:0:0:0:
192,192,17795,1,0,0:0:0:0:
448,192,18050,1,0,0:0:0:0:
64,192,18050,128,0,19067:0:0:0:0:
192,192,18304,1,0,0:0:0:0:
192,192,18558,1,0,0:0:0:0:
448,192,18558,1,0,0:0:0:0:
320,192,18812,1,0,0:0:0:0:
192,192,19067,1,0,0:0:0:0:
448,192,19067,128,0,20338:0:0:0:0:
320,192,19321,1,0,0:0:0:0:
64,192,19575,1,0,0:0:0:0:
192,192,19575,1,0,0:0:0:0:
320,192,19829,1,0,0:0:0:0:
64,192,20084,1,0,0:0:0:0:
192,192,20084,1,0,0:0:0:0:
320,192,20338,1,0,0:0:0:0:
192,192,20592,128,0,21355:0:0:0:0:
448,192,20592,1,0,0:0:0:0:
320,192,20846,1,0,0:0:0:0:
320,192,21100,1,0,0:0:0:0:
64,192,21100,1,0,0:0:0:0:
448,192,21355,1,0,0:0:0:0:
320,192,21609,128,0,22117:0:0:0:0:
192,192,21609,1,0,0:0:0:0:
448,192,21863,1,0,0:0:0:0:
64,192,22117,128,0,24914:0:0:0:0:
192,192,22117,1,0,0:0:0:0:
320,192,22372,1,0,0:0:0:0:
448,192,22626,1,0,0:0:0:0:
192,192,22880,1,0,0:0:0:0:
448,192,23134,128,0,23643:0:0:0:0:
192,192,23389,1,0,0:0:0:0:
320,192,23643,128,0,24914:0:0:0:0:
192,192,23897,128,0,24914:0:0:0:0:
448,192,25041,1,0,0:0:0:0:
320,192,25136,1,0,0:0:0:0:
192,192,25168,1,0,0:0:0:0:
64,192,25168,1,0,0:0:0:0:
448,192,25677,1,0,0:0:0:0:
448,192,25931,1,0,0:0:0:0:
192,192,26185,1,0,0:0:0:0:
64,192,26609,1,0,0:0:0:0:
192,192,26662,1,0,0:0:0:0:
320,192,26694,1,0,0:0:0:0:
192,192,26948,1,0,0:0:0:0:
64,192,27202,1,0,0:0:0:0:
448,192,27202,1,0,0:0:0:0:
320,192,27456,1,0,0:0:0:0:
192,192,27711,1,0,0:0:0:0:
64,192,27711,1,0,0:0:0:0:
448,192,27965,1,0,0:0:0:0:
320,192,28219,1,0,0:0:0:0:
64,192,28219,1,0,0:0:0:0:
192,192,28473,1,0,0:0:0:0:
64,192,28728,1,0,0:0:0:0:
448,192,28728,1,0,0:0:0:0:
320,192,28982,1,0,0:0:0:0:
192,192,29236,1,0,0:0:0:0:
64,192,29236,1,0,0:0:0:0:
320,192,29490,1,0,0:0:0:0:
448,192,29745,1,0,0:0:0:0:
64,192,29745,1,0,0:0:0:0:
192,192,29999,1,0,0:0:0:0:
320,192,30253,1,0,0:0:0:0:
64,192,30507,128,0,31143:0:0:0:0:
192,192,30761,128,0,31143:0:0:0:0:
448,192,30761,1,0,0:0:0:0:
320,192,31016,128,0,31270:0:0:0:0:
448,192,31270,128,0,32033:0:0:0:0:
64,192,31270,1,0,0:0:0:0:
320,192,31524,128,0,31778:0:0:0:0:
192,192,31778,128,0,32033:0:0:0:0:
64,192,32033,1,0,0:0:0:0:
320,192,32287,1,0,0:0:0:0:
448,192,32287,128,0,32795:0:0:0:0:
192,192,32541,128,0,32795:0:0:0:0:
64,192,32795,1,0,0:0:0:0:
320,192,32795,128,0,33304:0:0:0:0:
448,192,33050,1,0,0:0:0:0:
64,192,33304,1,0,0:0:0:0:
192,192,33304,1,0,0:0:0:0:
320,192,33558,1,0,0:0:0:0:
64,192,33812,1,0,0:0:0:0:
448,192,33812,1,0,0:0:0:0:
192,192,34067,1,0,0:0:0:0:
320,192,34321,1,0,0:0:0:0:
64,192,34321,128,0,35338:0:0:0:0:
192,192,34575,1,0,0:0:0:0:
320,192,34829,128,0,35338:0:0:0:0:
448,192,35084,1,0,0:0:0:0:
192,192,35338,1,0,0:0:0:0:
448,192,35338,1,0,0:0:0:0:
320,192,35592,1,0,0:0:0:0:
64,192,35846,128,0,37372:0:0:0:0:
192,192,35846,1,0,0:0:0:0:
448,192,36100,1,0,0:0:0:0:
320,192,36355,1,0,0:0:0:0:
192,192,36355,1,0,0:0:0:0:
448,192,36609,1,0,0:0:0:0:
448,192,36863,1,0,0:0:0:0:
192,192,36863,1,0,0:0:0:0:
320,192,37117,1,0,0:0:0:0:
192,192,37372,1,0,0:0:0:0:
448,192,37372,128,0,38389:0:0:0:0:
64,192,37626,1,0,0:0:0:0:
192,192,37880,1,0,0:0:0:0:
320,192,37880,1,0,0:0:0:0:
64,192,38134,128,0,38389:0:0:0:0:
192,192,38389,1,0,0:0:0:0:
320,192,38389,1,0,0:0:0:0:
448,192,38643,128,0,38897:0:0:0:0:
64,192,38897,1,0,0:0:0:0:
320,192,38897,128,0,39914:0:0:0:0:
192,192,39151,1,0,0:0:0:0:
64,192,39406,1,0,0:0:0:0:
448,192,39660,1,0,0:0:0:0:
192,192,39914,1,0,0:0:0:0:
64,192,39914,128,0,40423:0:0:0:0:
192,192,40168,128,0,40423:0:0:0:0:
320,192,40423,1,0,0:0:0:0:
448,192,40423,128,0,41185:0:0:0:0:
64,192,40677,1,0,0:0:0:0:
192,192,40931,1,0,0:0:0:0:
320,192,40931,1,0,0:0:0:0:
64,192,41185,1,0,0:0:0:0:
64,192,41439,128,0,41948:0:0:0:0:
192,192,41439,1,0,0:0:0:0:
448,192,41694,128,0,41948:0:0:0:0:
320,192,41948,128,0,43346:0:0:0:0:
192,192,41948,128,0,42202:0:0:0:0:
448,192,42202,128,0,42711:0:0:0:0:
64,192,42456,128,0,42965:0:0:0:0:
192,192,42456,1,0,0:0:0:0:
192,192,42711,128,0,43219:0:0:0:0:
448,192,42965,128,0,43346:0:0:0:0:
64,192,43219,128,0,43473:0:0:0:0:
320,192,43473,1,0,0:0:0:0:
448,192,43473,128,0,43728:0:0:0:0:
192,192,43728,1,0,0:0:0:0:
64,192,43982,1,0,0:0:0:0:
320,192,43982,1,0,0:0:0:0:
448,192,43982,128,0,44999:0:0:0:0:
192,192,44236,1,0,0:0:0:0:
64,192,44490,1,0,0:0:0:0:
192,192,44490,1,0,0:0:0:0:
320,192,44745,1,0,0:0:0:0:
192,192,44999,1,0,0:0:0:0:
64,192,45253,1,0,0:0:0:0:
192,192,45507,128,0,46524:0:0:0:0:
448,192,45507,1,0,0:0:0:0:
64,192,45761,1,0,0:0:0:0:
320,192,46016,128,0,46524:0:0:0:0:
448,192,46016,1,0,0:0:0:0:
448,192,46524,1,0,0:0:0:0:
64,192,46524,1,0,0:0:0:0:
64,192,46778,128,0,49448:0:0:0:0:
192,192,47033,1,0,0:0:0:0:
320,192,47287,1,0,0:0:0:0:
448,192,47541,1,0,0:0:0:0:
192,192,47795,1,0,0:0:0:0:
320,192,48050,128,0,48812:0:0:0:0:
448,192,48812,128,0,49575:0:0:0:0:
192,192,49067,1,0,0:0:0:0:
320,192,49321,1,0,0:0:0:0:
192,192,49575,1,0,0:0:0:0:
64,192,49575,1,0,0:0:0:0:
320,192,49575,1,0,0:0:0:0:
448,192,50084,1,0,0:0:0:0:
192,192,50084,1,0,0:0:0:0:
64,192,50592,1,0,0:0:0:0:
320,192,50592,1,0,0:0:0:0:
448,192,50592,1,0,0:0:0:0:
320,192,51100,1,0,0:0:0:0:
448,192,51100,1,0,0:0:0:0:
64,192,51100,1,0,0:0:0:0:
192,192,51609,128,0,51673:0:0:0:0:
448,192,51863,128,0,51927:0:0:0:0:
320,192,51863,1,0,0:0:0:0:
64,192,52117,128,0,52181:0:0:0:0:
192,192,52117,1,0,0:0:0:0:
320,192,52372,128,0,52435:0:0:0:0:
448,192,52372,1,0,0:0:0:0:
64,192,52626,1,0,0:0:0:0:
192,192,52626,1,0,0:0:0:0:
448,192,52626,1,0,0:0:0:0:
320,192,52880,1,0,0:0:0:0:
192,192,53134,1,0,0:0:0:0:
64,192,53134,1,0,0:0:0:0:
448,192,53389,1,0,0:0:0:0:
320,192,53389,1,0,0:0:0:0:
64,192,53389,1,0,0:0:0:0:
320,192,53643,1,0,0:0:0:0:
64,192,53643,1,0,0:0:0:0:
448,192,53643,1,0,0:0:0:0:
192,192,53643,1,0,0:0:0:0:
192,192,53897,1,0,0:0:0:0:
448,192,54151,1,0,0:0:0:0:
64,192,54151,1,0,0:0:0:0:
320,192,54151,1,0,0:0:0:0:
192,192,54406,1,0,0:0:0:0:
448,192,54660,1,0,0:0:0:0:
320,192,54660,128,0,54723:0:0:0:0:
320,192,54914,128,0,54978:0:0:0:0:
64,192,55168,1,0,0:0:0:0:
320,192,55168,128,0,55232:0:0:0:0:
448,192,55423,1,0,0:0:0:0:
64,192,55677,1,0,0:0:0:0:
192,192,55677,1,0,0:0:0:0:
448,192,55677,1,0,0:0:0:0:
320,192,55931,1,0,0:0:0:0:
448,192,56185,1,0,0:0:0:0:
192,192,56185,1,0,0:0:0:0:
64,192,56439,1,0,0:0:0:0:
320,192,56439,1,0,0:0:0:0:
64,192,56694,1,0,0:0:0:0:
192,192,56694,1,0,0:0:0:0:
448,192,56694,1,0,0:0:0:0:
192,192,56948,1,0,0:0:0:0:
64,192,57202,1,0,0:0:0:0:
192,192,57202,1,0,0:0:0:0:
448,192,57202,1,0,0:0:0:0:
320,192,57456,1,0,0:0:0:0:
448,192,57711,1,0,0:0:0:0:
192,192,57965,1,0,0:0:0:0:
320,192,57965,1,0,0:0:0:0:
64,192,58219,1,0,0:0:0:0:
448,192,58219,1,0,0:0:0:0:
192,192,58473,1,0,0:0:0:0:
320,192,58473,1,0,0:0:0:0:
64,192,58728,1,0,0:0:0:0:
448,192,58728,1,0,0:0:0:0:
320,192,58728,1,0,0:0:0:0:
192,192,58982,1,0,0:0:0:0:
448,192,59236,1,0,0:0:0:0:
64,192,59236,1,0,0:0:0:0:
64,192,59490,1,0,0:0:0:0:
448,192,59490,1,0,0:0:0:0:
320,192,59490,1,0,0:0:0:0:
64,192,59745,1,0,0:0:0:0:
192,192,59745,1,0,0:0:0:0:
320,192,59745,1,0,0:0:0:0:
448,192,59745,1,0,0:0:0:0:
192,192,59999,1,0,0:0:0:0:
64,192,60253,1,0,0:0:0:0:
320,192,60253,1,0,0:0:0:0:
448,192,60507,1,0,0:0:0:0:
320,192,60761,1,0,0:0:0:0:
192,192,61016,1,0,0:0:0:0:
64,192,61016,1,0,0:0:0:0:
320,192,61270,1,0,0:0:0:0:
448,192,61270,1,0,0:0:0:0:
64,192,61524,1,0,0:0:0:0:
192,192,61524,1,0,0:0:0:0:
64,192,61778,1,0,0:0:0:0:
320,192,61778,1,0,0:0:0:0:
448,192,61778,1,0,0:0:0:0:
192,192,62033,1,0,0:0:0:0:
448,192,62287,128,0,62319:0:0:0:0:
320,192,62287,128,0,62319:0:0:0:0:
64,192,62541,1,0,0:0:0:0:
192,192,62541,1,0,0:0:0:0:
64,192,62795,1,0,0:0:0:0:
320,192,62795,128,0,62827:0:0:0:0:
448,192,62795,128,0,62827:0:0:0:0:
320,192,63050,1,0,0:0:0:0:
64,192,63304,1,0,0:0:0:0:
320,192,63304,1,0,0:0:0:0:
192,192,63304,1,0,0:0:0:0:
448,192,63304,1,0,0:0:0:0:
64,192,63558,128,0,63590:0:0:0:0:
64,192,63812,128,0,63844:0:0:0:0:
320,192,64067,1,0,0:0:0:0:
448,192,64067,1,0,0:0:0:0:
192,192,64321,1,0,0:0:0:0:
64,192,64321,1,0,0:0:0:0:
320,192,64575,1,0,0:0:0:0:
448,192,64575,1,0,0:0:0:0:
64,192,64829,1,0,0:0:0:0:
192,192,64829,1,0,0:0:0:0:
448,192,64829,1,0,0:0:0:0:
320,192,65084,128,0,65115:0:0:0:0:
320,192,65338,128,0,65370:0:0:0:0:
64,192,65338,128,0,65370:0:0:0:0:
64,192,65592,1,0,0:0:0:0:
192,192,65592,1,0,0:0:0:0:
448,192,65592,1,0,0:0:0:0:
64,192,65846,1,0,0:0:0:0:
192,192,65846,1,0,0:0:0:0:
448,192,65846,1,0,0:0:0:0:
64,192,66355,1,0,0:0:0:0:
192,192,66355,1,0,0:0:0:0:
448,192,66355,1,0,0:0:0:0:
320,192,66355,1,0,0:0:0:0:
448,192,66609,128,0,66641:0:0:0:0:
448,192,66863,128,0,66895:0:0:0:0:
64,192,67117,1,0,0:0:0:0:
320,192,67117,1,0,0:0:0:0:
192,192,67372,1,0,0:0:0:0:
448,192,67372,1,0,0:0:0:0:
64,192,67626,1,0,0:0:0:0:
320,192,67880,1,0,0:0:0:0:
192,192,67880,1,0,0:0:0:0:
448,192,67880,1,0,0:0:0:0:
64,192,68134,1,0,0:0:0:0:
192,192,68389,128,0,68420:0:0:0:0:
448,192,68643,1,0,0:0:0:0:
192,192,68897,128,0,68929:0:0:0:0:
448,192,68897,1,0,0:0:0:0:
320,192,68897,128,0,68929:0:0:0:0:
64,192,69151,1,0,0:0:0:0:
64,192,69406,1,0,0:0:0:0:
192,192,69406,1,0,0:0:0:0:
448,192,69406,1,0,0:0:0:0:
320,192,69406,1,0,0:0:0:0:
64,192,69660,128,0,69692:0:0:0:0:
64,192,69914,128,0,69946:0:0:0:0:
448,192,70168,1,0,0:0:0:0:
192,192,70168,1,0,0:0:0:0:
448,192,70423,1,0,0:0:0:0:
320,192,70423,1,0,0:0:0:0:
320,192,70931,1,0,0:0:0:0:
64,192,70931,128,0,70995:0:0:0:0:
192,192,70931,128,0,70963:0:0:0:0:
320,192,71185,128,0,71249:0:0:0:0:
448,192,71185,128,0,71217:0:0:0:0:
448,192,71439,128,0,71503:0:0:0:0:
192,192,71439,128,0,71471:0:0:0:0:
64,192,71694,1,0,0:0:0:0:
320,192,71694,128,0,71757:0:0:0:0:
192,192,71694,128,0,71725:0:0:0:0:
192,192,71948,1,0,0:0:0:0:
64,192,71948,128,0,72011:0:0:0:0:
320,192,71948,128,0,71980:0:0:0:0:
448,192,72202,128,0,72266:0:0:0:0:
448,192,72456,128,0,72520:0:0:0:0:
64,192,72456,1,0,0:0:0:0:
192,192,72456,1,0,0:0:0:0:
320,192,72456,1,0,0:0:0:0:
192,192,72711,128,0,72742:0:0:0:0:
320,192,72711,128,0,72774:0:0:0:0:
192,192,72965,128,0,72997:0:0:0:0:
64,192,72965,128,0,73028:0:0:0:0:
448,192,73219,128,0,73283:0:0:0:0:
192,192,73473,1,0,0:0:0:0:
64,192,73473,1,0,0:0:0:0:
64,192,73728,1,0,0:0:0:0:
320,192,73728,1,0,0:0:0:0:
192,192,73982,1,0,0:0:0:0:
320,192,73982,1,0,0:0:0:0:
448,192,73982,1,0,0:0:0:0:
64,192,74236,1,0,0:0:0:0:
320,192,74490,1,0,0:0:0:0:
448,192,74490,1,0,0:0:0:0:
192,192,74745,1,0,0:0:0:0:
448,192,74745,1,0,0:0:0:0:
64,192,74999,1,0,0:0:0:0:
320,192,74999,1,0,0:0:0:0:
192,192,75253,1,0,0:0:0:0:
448,192,75253,1,0,0:0:0:0:
64,192,75507,1,0,0:0:0:0:
320,192,76016,1,0,0:0:0:0:
192,192,76016,1,0,0:0:0:0:
64,192,76270,1,0,0:0:0:0:
448,192,76524,1,0,0:0:0:0:
64,192,77033,1,0,0:0:0:0:
320,192,77287,128,0,77350:0:0:0:0:
192,192,77541,128,0,77605:0:0:0:0:
448,192,77541,1,0,0:0:0:0:
448,192,77795,128,0,77859:0:0:0:0:
64,192,78050,128,0,78113:0:0:0:0:
192,192,78050,1,0,0:0:0:0:
320,192,78304,128,0,78367:0:0:0:0:
192,192,78558,128,0,78622:0:0:0:0:
320,192,78558,1,0,0:0:0:0:
448,192,78812,128,0,78876:0:0:0:0:
64,192,79067,128,0,79130:0:0:0:0:
192,192,79067,1,0,0:0:0:0:
320,192,79321,1,0,0:0:0:0:
64,192,79575,1,0,0:0:0:0:
448,192,79575,1,0,0:0:0:0:
192,192,79829,1,0,0:0:0:0:
320,192,79829,1,0,0:0:0:0:
64,192,80084,1,0,0:0:0:0:
448,192,80084,1,0,0:0:0:0:
320,192,80338,1,0,0:0:0:0:
192,192,80592,1,0,0:0:0:0:
64,192,80592,1,0,0:0:0:0:
64,192,80846,1,0,0:0:0:0:
448,192,80846,1,0,0:0:0:0:
64,192,81100,1,0,0:0:0:0:
320,192,81100,1,0,0:0:0:0:
192,192,81355,1,0,0:0:0:0:
448,192,81609,1,0,0:0:0:0:
320,192,81609,1,0,0:0:0:0:
64,192,81863,1,0,0:0:0:0:
192,192,82117,1,0,0:0:0:0:
448,192,82117,1,0,0:0:0:0:
320,192,82372,1,0,0:0:0:0:
192,192,82626,1,0,0:0:0:0:
64,192,82626,1,0,0:0:0:0:
448,192,82880,1,0,0:0:0:0:
320,192,83134,1,0,0:0:0:0:
192,192,83134,1,0,0:0:0:0:
64,192,83389,128,0,83452:0:0:0:0:
320,192,83643,128,0,83706:0:0:0:0:
192,192,83897,128,0,83961:0:0:0:0:
448,192,83897,1,0,0:0:0:0:
64,192,84151,1,0,0:0:0:0:
192,192,84151,1,0,0:0:0:0:
448,192,84406,1,0,0:0:0:0:
320,192,84406,1,0,0:0:0:0:
64,192,84660,128,0,86185:0:0:0:0:
192,192,84660,1,0,0:0:0:0:
320,192,84914,1,0,0:0:0:0:
448,192,85168,1,0,0:0:0:0:
192,192,85423,1,0,0:0:0:0:
320,192,85677,1,0,0:0:0:0:
448,192,85677,1,0,0:0:0:0:
448,192,85931,1,0,0:0:0:0:
192,192,85931,1,0,0:0:0:0:
192,192,86185,1,0,0:0:0:0:
320,192,86185,1,0,0:0:0:0:
448,192,86185,1,0,0:0:0:0:
64,192,86439,1,0,0:0:0:0:
64,192,86694,1,0,0:0:0:0:
192,192,86694,1,0,0:0:0:0:
320,192,86694,1,0,0:0:0:0:
448,192,86694,1,0,0:0:0:0:
192,192,86948,1,0,0:0:0:0:
448,192,86948,1,0,0:0:0:0:
320,192,86948,1,0,0:0:0:0:
64,192,87202,128,0,87234:0:0:0:0:
448,192,87456,1,0,0:0:0:0:
320,192,87679,1,0,0:0:0:0:
192,192,87711,1,0,0:0:0:0:
64,192,87711,1,0,0:0:0:0:
448,192,87965,128,0,87997:0:0:0:0:
448,192,88219,128,0,88251:0:0:0:0:
64,192,88219,1,0,0:0:0:0:
192,192,88473,1,0,0:0:0:0:
192,192,88728,1,0,0:0:0:0:
320,192,88728,1,0,0:0:0:0:
448,192,88982,1,0,0:0:0:0:
64,192,89236,1,0,0:0:0:0:
192,192,89236,1,0,0:0:0:0:
320,192,89236,1,0,0:0:0:0:
448,192,89490,1,0,0:0:0:0:
64,192,89745,1,0,0:0:0:0:
192,192,89745,1,0,0:0:0:0:
448,192,89745,1,0,0:0:0:0:
320,192,89745,1,0,0:0:0:0:
64,192,89999,1,0,0:0:0:0:
192,192,89999,1,0,0:0:0:0:
320,192,89999,1,0,0:0:0:0:
64,192,90253,1,0,0:0:0:0:
192,192,90253,1,0,0:0:0:0:
320,192,90253,1,0,0:0:0:0:
448,192,90761,128,0,90825:0:0:0:0:
192,192,90761,128,0,90793:0:0:0:0:
64,192,91016,128,0,91079:0:0:0:0:
192,192,91016,128,0,91048:0:0:0:0:
320,192,91270,128,0,91334:0:0:0:0:
192,192,91270,128,0,91302:0:0:0:0:
448,192,91524,128,0,91588:0:0:0:0:
64,192,91778,1,0,0:0:0:0:
448,192,91778,1,0,0:0:0:0:
320,192,91778,1,0,0:0:0:0:
192,192,92033,1,0,0:0:0:0:
320,192,92287,1,0,0:0:0:0:
448,192,92287,1,0,0:0:0:0:
64,192,92541,1,0,0:0:0:0:
320,192,92795,1,0,0:0:0:0:
192,192,92795,1,0,0:0:0:0:
448,192,92795,1,0,0:0:0:0:
64,192,92795,1,0,0:0:0:0:
320,192,93050,1,0,0:0:0:0:
64,192,93304,128,0,93336:0:0:0:0:
448,192,93304,1,0,0:0:0:0:
192,192,93812,128,0,93844:0:0:0:0:
64,192,93812,1,0,0:0:0:0:
320,192,93812,128,0,93844:0:0:0:0:
192,192,94067,128,0,94098:0:0:0:0:
192,192,94321,128,0,94353:0:0:0:0:
448,192,94321,128,0,94353:0:0:0:0:
320,192,94575,1,0,0:0:0:0:
64,192,94829,1,0,0:0:0:0:
320,192,94829,1,0,0:0:0:0:
192,192,95084,1,0,0:0:0:0:
320,192,95338,1,0,0:0:0:0:
64,192,95338,128,0,95401:0:0:0:0:
448,192,95338,128,0,95370:0:0:0:0:
192,192,95592,128,0,95656:0:0:0:0:
320,192,95592,128,0,95624:0:0:0:0:
448,192,95846,128,0,95910:0:0:0:0:
64,192,95846,1,0,0:0:0:0:
192,192,95846,1,0,0:0:0:0:
320,192,95846,1,0,0:0:0:0:
448,192,96100,1,0,0:0:0:0:
64,192,96100,128,0,96132:0:0:0:0:
320,192,96100,128,0,96164:0:0:0:0:
448,192,96355,1,0,0:0:0:0:
64,192,96355,128,0,96386:0:0:0:0:
320,192,96355,128,0,96418:0:0:0:0:
192,192,96609,1,0,0:0:0:0:
64,192,96863,1,0,0:0:0:0:
320,192,96863,1,0,0:0:0:0:
448,192,97117,128,0,97149:0:0:0:0:
448,192,97372,128,0,97403:0:0:0:0:
192,192,97626,1,0,0:0:0:0:
192,192,97880,1,0,0:0:0:0:
320,192,97880,1,0,0:0:0:0:
64,192,98134,1,0,0:0:0:0:
320,192,98389,1,0,0:0:0:0:
448,192,98389,1,0,0:0:0:0:
192,192,98643,1,0,0:0:0:0:
64,192,98897,1,0,0:0:0:0:
448,192,98897,1,0,0:0:0:0:
192,192,99151,1,0,0:0:0:0:
320,192,99406,1,0,0:0:0:0:
64,192,99406,1,0,0:0:0:0:
192,192,99914,1,0,0:0:0:0:
448,192,99914,1,0,0:0:0:0:
64,192,100168,1,0,0:0:0:0:
320,192,100423,1,0,0:0:0:0:
448,192,100423,1,0,0:0:0:0:
192,192,100677,1,0,0:0:0:0:
64,192,100931,1,0,0:0:0:0:
448,192,100931,1,0,0:0:0:0:
448,192,101439,1,0,0:0:0:0:
64,192,101439,1,0,0:0:0:0:
320,192,101694,1,0,0:0:0:0:
192,192,101948,1,0,0:0:0:0:
64,192,101948,1,0,0:0:0:0:
320,192,102202,1,0,0:0:0:0:
448,192,102456,1,0,0:0:0:0:
64,192,102456,1,0,0:0:0:0:
192,192,102965,1,0,0:0:0:0:
320,192,102965,1,0,0:0:0:0:
64,192,103219,1,0,0:0:0:0:
448,192,103219,1,0,0:0:0:0:
64,192,103473,1,0,0:0:0:0:
448,192,103473,1,0,0:0:0:0:
320,192,103728,1,0,0:0:0:0:
192,192,103982,1,0,0:0:0:0:
64,192,103982,1,0,0:0:0:0:
448,192,104236,1,0,0:0:0:0:
320,192,104490,1,0,0:0:0:0:
64,192,104490,1,0,0:0:0:0:
192,192,104745,1,0,0:0:0:0:
320,192,104999,1,0,0:0:0:0:
448,192,104999,1,0,0:0:0:0:
64,192,105253,1,0,0:0:0:0:
192,192,105507,1,0,0:0:0:0:
448,192,105507,1,0,0:0:0:0:
64,192,106016,1,0,0:0:0:0:
320,192,106016,1,0,0:0:0:0:
320,192,106270,1,0,0:0:0:0:
64,192,106524,1,0,0:0:0:0:
448,192,106524,1,0,0:0:0:0:
64,192,106778,1,0,0:0:0:0:
320,192,107033,1,0,0:0:0:0:
448,192,107033,1,0,0:0:0:0:
64,192,107795,1,0,0:0:0:0:
192,192,107795,1,0,0:0:0:0:
320,192,108685,1,0,0:0:0:0:
192,192,109067,1,0,0:0:0:0:
448,192,109448,1,0,0:0:0:0:
64,192,110084,1,0,0:0:0:0:
320,192,110973,1,0,0:0:0:0:
192,192,110973,1,0,0:0:0:0:
