osu file format v14

[General]
AudioFilename: audio.mp3
AudioLeadIn: 0
PreviewTime: 60762
Countdown: 0
SampleSet: Soft
StackLeniency: 0.7
Mode: 3
LetterboxInBreaks: 0
SpecialStyle: 0
WidescreenStoryboard: 1

[Editor]
DistanceSpacing: 1.2
BeatDivisor: 12
GridSize: 4
TimelineZoom: 1.5

[Metadata]
Title:Carnation
TitleUnicode:Carnation
Artist:himmel
ArtistUnicode:himmel
Creator:Unpredictable
Version:Easy
Source:VOEZ
Tags:lemiao taiwanese rayark project V Protastic101
BeatmapID:1257310
BeatmapSetID:592997

[Difficulty]
HPDrainRate:6.5
CircleSize:4
OverallDifficulty:6.5
ApproachRate:5
SliderMultiplier:1.4
SliderTickRate:1

[Events]
//Background and Video events
0,0,"Carnation.jpg",0,0
//Break Periods
//Storyboard Layer 0 (Background)
//Storyboard Layer 1 (Fail)
//Storyboard Layer 2 (Pass)
//Storyboard Layer 3 (Foreground)
//Storyboard Sound Samples

[TimingPoints]
762,508.474576271186,6,2,1,40,1,0
61778,-100,6,2,1,40,0,1
73982,-100,6,2,1,40,0,0
86185,-100,4,2,1,40,0,1
98389,-100,4,2,1,40,0,0
107795,-101.010101010101,4,2,1,40,0,0
107923,-102.040816326531,6,2,1,40,0,0
108050,-103.092783505155,4,2,1,40,0,0
108177,-104.166666666667,4,2,1,40,0,0
108304,-105.263157894737,6,2,1,40,0,0
108431,-106.382978723404,4,2,1,40,0,0
108558,-107.52688172043,6,2,1,40,0,0
108685,-108.695652173913,6,2,1,40,0,0
108812,-109.89010989011,6,2,1,40,0,0
108939,-111.111111111111,4,2,1,40,0,0
109067,-112.359550561798,6,2,1,40,0,0
109194,-113.636363636364,4,2,1,40,0,0
109321,-114.942528735632,6,2,1,40,0,0
109448,-116.279069767442,4,2,1,40,0,0
109575,-117.647058823529,6,2,1,40,0,0
109702,-119.047619047619,6,2,1,40,0,0
109829,-120.481927710843,6,2,1,40,0,0
109956,-121.951219512195,4,2,1,40,0,0
110084,-123.456790123457,6,2,1,40,0,0
110211,-125,4,2,1,40,0,0
110338,-126.582278481013,6,2,1,40,0,0
110465,-128.205128205128,6,2,1,40,0,0
110592,-129.87012987013,6,2,1,40,0,0
110719,-131.578947368421,6,2,1,40,0,0
110846,-133.333333333333,6,2,1,40,0,0
110973,-135.135135135135,6,2,1,40,0,0
111100,-136.986301369863,6,2,1,40,0,0
111228,-138.888888888889,6,2,1,40,0,0
111355,-140.845070422535,6,2,1,40,0,0
111482,-142.857142857143,6,2,1,40,0,0
111609,-144.927536231884,6,2,1,40,0,0
111736,-147.058823529412,6,2,1,40,0,0
111863,-149.253731343284,6,2,1,40,0,0
111990,-151.515151515152,6,2,1,40,0,0
112117,-153.846153846154,6,2,1,40,0,0
112245,-156.25,6,2,1,40,0,0
112372,-158.730158730159,6,2,1,40,0,0
112499,-161.290322580645,6,2,1,40,0,0
112626,-163.934426229508,6,2,1,40,0,0
112753,-166.666666666667,6,2,1,40,0,0
112880,-169.491525423729,6,2,1,40,0,0
113007,-172.413793103448,6,2,1,40,0,0
113134,-175.438596491228,6,2,1,40,0,0
113261,-178.571428571429,6,2,1,40,0,0
113389,-181.818181818182,6,2,1,40,0,0
113516,-185.185185185185,6,2,1,40,0,0
113643,-188.679245283019,6,2,1,40,0,0

[HitObjects]
192,192,253,5,0,0:0:0:0:
320,192,507,1,0,0:0:0:0:
448,192,762,1,0,0:0:0:0:
64,192,762,128,0,2795:0:0:0:0:
192,192,1778,1,0,0:0:0:0:
448,192,2287,1,0,0:0:0:0:
320,192,2795,1,0,0:0:0:0:
64,192,3304,1,0,0:0:0:0:
448,192,3558,1,0,0:0:0:0:
320,192,3812,1,0,0:0:0:0:
64,192,4321,1,0,0:0:0:0:
192,192,4829,1,0,0:0:0:0:
64,192,5084,1,0,0:0:0:0:
448,192,5338,1,0,0:0:0:0:
320,192,5592,1,0,0:0:0:0:
192,192,5846,128,0,6863:0:0:0:0:
448,192,6863,128,0,9914:0:0:0:0:
64,192,7372,1,0,0:0:0:0:
320,192,7880,1,0,0:0:0:0:
192,192,8389,1,0,0:0:0:0:
64,192,8897,1,0,0:0:0:0:
320,192,9406,1,0,0:0:0:0:
64,192,9914,128,0,12965:0:0:0:0:
192,192,9914,1,0,0:0:0:0:
320,192,10423,1,0,0:0:0:0:
448,192,10931,1,0,0:0:0:0:
192,192,11439,1,0,0:0:0:0:
448,192,11439,128,0,12965:0:0:0:0:
320,192,11694,1,0,0:0:0:0:
192,192,11948,128,0,12965:0:0:0:0:
320,192,12965,1,0,0:0:0:0:
64,192,13473,1,0,0:0:0:0:
448,192,13982,1,0,0:0:0:0:
192,192,14490,128,0,14999:0:0:0:0:
320,192,14999,1,0,0:0:0:0:
448,192,15507,1,0,0:0:0:0:
192,192,16016,1,0,0:0:0:0:
64,192,16524,1,0,0:0:0:0:
320,192,17033,1,0,0:0:0:0:
448,192,17541,1,0,0:0:0:0:
320,192,18050,1,0,0:0:0:0:
192,192,18558,1,0,0:0:0:0:
448,192,19067,128,0,20592:0:0:0:0:
64,192,19067,1,0,0:0:0:0:
320,192,19575,1,0,0:0:0:0:
192,192,20084,1,0,0:0:0:0:
64,192,20592,128,0,22117:0:0:0:0:
320,192,20592,1,0,0:0:0:0:
448,192,21100,1,0,0:0:0:0:
320,192,21609,1,0,0:0:0:0:
192,192,22117,1,0,0:0:0:0:
320,192,22117,128,0,24660:0:0:0:0:
448,192,22626,1,0,0:0:0:0:
64,192,23134,128,0,24660:0:0:0:0:
448,192,25168,128,0,26694:0:0:0:0:
192,192,26694,1,0,0:0:0:0:
64,192,27202,1,0,0:0:0:0:
320,192,27711,1,0,0:0:0:0:
448,192,28219,1,0,0:0:0:0:
192,192,28728,1,0,0:0:0:0:
64,192,29236,1,0,0:0:0:0:
320,192,29745,1,0,0:0:0:0:
448,192,30761,1,0,0:0:0:0:
320,192,31016,1,0,0:0:0:0:
192,192,31270,1,0,0:0:0:0:
64,192,32287,1,0,0:0:0:0:
192,192,32541,1,0,0:0:0:0:
320,192,32795,1,0,0:0:0:0:
64,192,33304,1,0,0:0:0:0:
448,192,33812,1,0,0:0:0:0:
320,192,34321,1,0,0:0:0:0:
64,192,34321,128,0,34829:0:0:0:0:
448,192,34829,1,0,0:0:0:0:
320,192,35338,1,0,0:0:0:0:
192,192,35846,1,0,0:0:0:0:
64,192,36355,1,0,0:0:0:0:
192,192,36863,1,0,0:0:0:0:
320,192,37117,1,0,0:0:0:0:
448,192,37372,128,0,38389:0:0:0:0:
192,192,38389,1,0,0:0:0:0:
320,192,38897,128,0,39914:0:0:0:0:
64,192,39914,1,0,0:0:0:0:
192,192,40168,1,0,0:0:0:0:
320,192,40423,1,0,0:0:0:0:
64,192,40931,1,0,0:0:0:0:
448,192,41439,1,0,0:0:0:0:
320,192,41694,1,0,0:0:0:0:
192,192,41948,128,0,43473:0:0:0:0:
64,192,42456,128,0,43473:0:0:0:0:
448,192,43473,1,0,0:0:0:0:
320,192,43982,1,0,0:0:0:0:
64,192,44490,1,0,0:0:0:0:
192,192,44999,1,0,0:0:0:0:
320,192,45507,1,0,0:0:0:0:
448,192,46016,128,0,46524:0:0:0:0:
320,192,46524,128,0,49575:0:0:0:0:
64,192,46524,128,0,49575:0:0:0:0:
192,192,48050,128,0,49575:0:0:0:0:
448,192,49575,1,0,0:0:0:0:
64,192,50592,1,0,0:0:0:0:
320,192,51100,1,0,0:0:0:0:
192,192,51100,1,0,0:0:0:0:
448,192,51609,1,0,0:0:0:0:
192,192,52117,1,0,0:0:0:0:
320,192,52626,1,0,0:0:0:0:
192,192,53389,1,0,0:0:0:0:
64,192,53643,1,0,0:0:0:0:
448,192,53643,1,0,0:0:0:0:
320,192,54151,1,0,0:0:0:0:
64,192,54660,1,0,0:0:0:0:
192,192,55168,1,0,0:0:0:0:
320,192,55677,1,0,0:0:0:0:
192,192,56694,1,0,0:0:0:0:
448,192,57202,128,0,58728:0:0:0:0:
64,192,57711,1,0,0:0:0:0:
320,192,58219,1,0,0:0:0:0:
192,192,58728,1,0,0:0:0:0:
64,192,59236,1,0,0:0:0:0:
320,192,59745,1,0,0:0:0:0:
192,192,60253,128,0,61778:0:0:0:0:
448,192,60253,1,0,0:0:0:0:
448,192,61270,1,0,0:0:0:0:
320,192,61524,1,0,0:0:0:0:
64,192,61778,1,0,0:0:0:0:
448,192,62287,1,0,0:0:0:0:
448,192,62795,1,0,0:0:0:0:
192,192,63304,1,0,0:0:0:0:
64,192,63304,1,0,0:0:0:0:
448,192,64067,1,0,0:0:0:0:
320,192,64321,1,0,0:0:0:0:
192,192,64575,1,0,0:0:0:0:
448,192,64829,1,0,0:0:0:0:
64,192,65338,1,0,0:0:0:0:
192,192,65846,1,0,0:0:0:0:
320,192,66355,1,0,0:0:0:0:
448,192,66355,1,0,0:0:0:0:
192,192,67117,1,0,0:0:0:0:
64,192,67372,1,0,0:0:0:0:
448,192,67880,128,0,68897:0:0:0:0:
64,192,68389,1,0,0:0:0:0:
64,192,68897,1,0,0:0:0:0:
320,192,68897,128,0,69406:0:0:0:0:
192,192,69406,1,0,0:0:0:0:
448,192,69406,1,0,0:0:0:0:
64,192,69406,128,0,70423:0:0:0:0:
192,192,70423,128,0,70931:0:0:0:0:
320,192,70423,1,0,0:0:0:0:
448,192,70931,128,0,73473:0:0:0:0:
64,192,70931,1,0,0:0:0:0:
64,192,71948,1,0,0:0:0:0:
192,192,72456,1,0,0:0:0:0:
320,192,72456,1,0,0:0:0:0:
64,192,73473,1,0,0:0:0:0:
192,192,73728,1,0,0:0:0:0:
320,192,73982,1,0,0:0:0:0:
448,192,74236,1,0,0:0:0:0:
320,192,74490,1,0,0:0:0:0:
192,192,74745,1,0,0:0:0:0:
64,192,74999,1,0,0:0:0:0:
448,192,75507,1,0,0:0:0:0:
192,192,76016,1,0,0:0:0:0:
320,192,76524,1,0,0:0:0:0:
64,192,77033,1,0,0:0:0:0:
320,192,77541,128,0,78050:0:0:0:0:
64,192,78050,128,0,78558:0:0:0:0:
448,192,78558,128,0,79067:0:0:0:0:
192,192,79067,128,0,79575:0:0:0:0:
448,192,79575,1,0,0:0:0:0:
320,192,79829,1,0,0:0:0:0:
192,192,80084,1,0,0:0:0:0:
64,192,80338,1,0,0:0:0:0:
192,192,80592,1,0,0:0:0:0:
320,192,80846,1,0,0:0:0:0:
448,192,81100,1,0,0:0:0:0:
192,192,81609,1,0,0:0:0:0:
64,192,82117,1,0,0:0:0:0:
320,192,82626,1,0,0:0:0:0:
448,192,83134,1,0,0:0:0:0:
320,192,83897,1,0,0:0:0:0:
192,192,84151,1,0,0:0:0:0:
64,192,84660,128,0,86185:0:0:0:0:
448,192,84660,1,0,0:0:0:0:
192,192,85677,1,0,0:0:0:0:
320,192,85931,1,0,0:0:0:0:
448,192,86185,1,0,0:0:0:0:
64,192,86439,1,0,0:0:0:0:
320,192,86694,1,0,0:0:0:0:
192,192,86694,1,0,0:0:0:0:
448,192,86948,1,0,0:0:0:0:
64,192,87202,1,0,0:0:0:0:
320,192,87711,1,0,0:0:0:0:
192,192,88219,1,0,0:0:0:0:
64,192,88728,1,0,0:0:0:0:
192,192,89236,1,0,0:0:0:0:
320,192,89745,1,0,0:0:0:0:
448,192,89745,1,0,0:0:0:0:
192,192,89999,1,0,0:0:0:0:
64,192,90253,1,0,0:0:0:0:
320,192,90761,1,0,0:0:0:0:
64,192,91778,1,0,0:0:0:0:
192,192,92033,1,0,0:0:0:0:
320,192,92287,1,0,0:0:0:0:
448,192,92541,1,0,0:0:0:0:
64,192,92795,1,0,0:0:0:0:
320,192,92795,1,0,0:0:0:0:
192,192,93050,1,0,0:0:0:0:
320,192,93304,1,0,0:0:0:0:
448,192,93304,128,0,93812:0:0:0:0:
192,192,93812,128,0,94829:0:0:0:0:
64,192,93812,1,0,0:0:0:0:
320,192,94829,128,0,95338:0:0:0:0:
64,192,95338,128,0,98389:0:0:0:0:
448,192,95338,1,0,0:0:0:0:
192,192,95846,1,0,0:0:0:0:
448,192,95846,1,0,0:0:0:0:
320,192,96355,1,0,0:0:0:0:
448,192,96863,128,0,98389:0:0:0:0:
192,192,97880,1,0,0:0:0:0:
320,192,98389,1,0,0:0:0:0:
192,192,98643,1,0,0:0:0:0:
64,192,98897,1,0,0:0:0:0:
320,192,99151,1,0,0:0:0:0:
448,192,99406,1,0,0:0:0:0:
64,192,99914,1,0,0:0:0:0:
192,192,100423,1,0,0:0:0:0:
448,192,100931,1,0,0:0:0:0:
320,192,101439,1,0,0:0:0:0:
64,192,101694,1,0,0:0:0:0:
192,192,101948,1,0,0:0:0:0:
320,192,102202,1,0,0:0:0:0:
448,192,102456,1,0,0:0:0:0:
192,192,102965,1,0,0:0:0:0:
448,192,103219,1,0,0:0:0:0:
320,192,103473,1,0,0:0:0:0:
192,192,103728,1,0,0:0:0:0:
64,192,103982,1,0,0:0:0:0:
192,192,104236,1,0,0:0:0:0:
320,192,104490,1,0,0:0:0:0:
448,192,104745,1,0,0:0:0:0:
192,192,104999,1,0,0:0:0:0:
64,192,105253,1,0,0:0:0:0:
192,192,105507,1,0,0:0:0:0:
320,192,106016,1,0,0:0:0:0:
448,192,106524,1,0,0:0:0:0:
192,192,107033,1,0,0:0:0:0:
64,192,107795,1,0,0:0:0:0:
192,192,108304,128,0,108685:0:0:0:0:
64,192,108685,128,0,109067:0:0:0:0:
448,192,109067,128,0,109448:0:0:0:0:
320,192,109448,128,0,110084:0:0:0:0:
192,192,110084,128,0,110973:0:0:0:0:
64,192,110973,128,0,113643:0:0:0:0:
