osu file format v14

[General]
AudioFilename: Carnation.mp3
AudioLeadIn: 0
PreviewTime: 86565
Countdown: 1
SampleSet: Soft
StackLeniency: 0.7
Mode: 0
LetterboxInBreaks: 1
WidescreenStoryboard: 1

[Editor]
DistanceSpacing: 1
BeatDivisor: 4
GridSize: 4
TimelineZoom: 1.6

[Metadata]
Title:Carnation
TitleUnicode:Carnation
Artist:himmel
ArtistUnicode:himmel
Creator:Crimmi
Version:Normal
Source:VOEZ
Tags:LEMiao Taiwanese Rayark Project V CrimmiSkye
BeatmapID:935801
BeatmapSetID:434255

[Difficulty]
HPDrainRate:4
CircleSize:3
OverallDifficulty:4
ApproachRate:5
SliderMultiplier:1.2
SliderTickRate:2

[Events]
//Background and Video events
0,0,"1366x768_frosty_pink_carnations-1537037.jpg",0,0
//Break Periods
2,50663,61466
//Storyboard Layer 0 (Background)
//Storyboard Layer 1 (Fail)
//Storyboard Layer 2 (Pass)
//Storyboard Layer 3 (Foreground)
//Storyboard Sound Samples

[TimingPoints]
1650,508.474576271186,3,2,1,25,1,0

[Colours]
Combo1 : 128,255,128
Combo2 : 255,128,255
Combo3 : 192,192,192
Combo4 : 255,0,128

[HitObjects]
328,96,1650,6,0,P|374:167|304:304,1,240,4|2,0:0|0:0,0:0:0:0:
256,192,3175,1,0,0:0:0:0:
228,244,3429,1,0,0:0:0:0:
192,292,3683,1,0,0:0:0:0:
80,248,4192,6,0,L|32:312,2,60,2|0|0,0:0|0:0|0:0,0:0:0:0:
116,200,4955,1,0,0:0:0:0:
152,152,5209,1,0,0:0:0:0:
256,208,5717,2,0,L|216:272,2,60,2|0|0,0:0|0:0|0:0,0:0:0:0:
288,156,6480,1,0,0:0:0:0:
320,104,6734,1,0,0:0:0:0:
384,208,7243,1,2,0:0:0:0:
360,264,7497,1,0,0:0:0:0:
336,320,7751,6,0,P|423:324|501:185,1,240,0|2,0:0|0:0,0:0:0:0:
392,160,9277,1,0,0:0:0:0:
336,136,9531,1,0,0:0:0:0:
280,112,9785,1,0,0:0:0:0:
192,200,10294,2,0,L|256:248,1,60,2|0,0:0|0:0,0:0:0:0:
288,272,10802,1,0,0:0:0:0:
336,304,11056,1,0,0:0:0:0:
388,336,11311,1,0,0:0:0:0:
444,216,11819,5,2,0:0:0:0:
444,216,12073,1,0,0:0:0:0:
444,216,12327,2,0,L|308:208,1,120
252,320,13344,1,0,0:0:0:0:
192,296,13599,1,0,0:0:0:0:
144,272,13853,6,0,P|134:203|272:104,1,240,0|2,0:0|0:0,0:0:0:0:
248,224,15378,1,0,0:0:0:0:
296,192,15633,1,0,0:0:0:0:
344,160,15887,2,0,L|416:264,2,120,0|2|0,0:0|0:0|0:0,0:0:0:0:
308,112,17158,1,0,0:0:0:0:
272,64,17412,1,0,0:0:0:0:
168,112,17921,5,2,0:0:0:0:
112,136,18175,1,0,0:0:0:0:
56,160,18429,2,0,P|48:216|112:272,1,120
192,320,19446,1,2,0:0:0:0:
248,344,19700,1,0,0:0:0:0:
304,368,19955,6,0,P|304:272|176:200,1,240,12|2,0:0|0:0,0:0:0:0:
120,296,21480,2,0,P|80:248|79:166,2,120,0|0|2,0:0|0:0|0:0,0:0:0:0:
216,368,23005,6,0,P|236:317|222:237,1,120
180,220,23768,1,0,0:0:0:0:
128,192,24022,1,2,0:0:0:0:
42,276,24531,2,0,P|10:213|92:76,1,240,0|2,0:0|0:0,0:0:0:0:
128,192,26056,6,0,P|168:240|320:196,1,240,8|2,0:0|0:0,0:0:0:0:
256,96,27582,2,0,P|316:76|388:104,2,120,0|0|2,0:0|0:0|0:0,0:0:0:0:
212,144,28853,1,0,0:0:0:0:
176,188,29107,5,0,0:0:0:0:
140,72,29616,1,0,0:0:0:0:
256,96,30124,1,2,0:0:0:0:
320,104,30378,1,0,0:0:0:0:
384,116,30633,2,0,P|404:172|264:208,1,240,0|2,0:0|0:0,0:0:0:0:
240,160,31904,1,0,0:0:0:0:
208,104,32158,6,0,P|134:159|166:303,1,240,0|2,0:0|0:0,0:0:0:0:
208,332,33429,1,0,0:0:0:0:
262,292,33683,2,0,P|291:181|207:103,1,240,0|2,0:0|0:0,0:0:0:0:
92,40,35209,5,0,0:0:0:0:
92,172,35717,1,0,0:0:0:0:
208,104,36226,1,2,0:0:0:0:
316,28,36734,2,0,P|344:96|240:220,1,240,0|2,0:0|0:0,0:0:0:0:
188,228,38005,1,0,0:0:0:0:
124,236,38260,5,8,0:0:0:0:
24,152,38768,1,0,0:0:0:0:
140,92,39277,1,2,0:0:0:0:
204,104,39531,1,0,0:0:0:0:
268,116,39785,2,0,L|372:176,1,120
492,236,40802,6,0,P|508:172|488:104,2,120,2|0|0,0:0|0:0|0:0,0:0:0:0:
424,348,42327,2,0,P|372:280|368:248,1,120,2|0,0:0|0:0,0:0:0:0:
388,116,43344,1,0,0:0:0:0:
268,172,43853,2,0,L|192:200,1,60,2|0,0:0|0:0,0:0:0:0:
148,208,44361,6,0,P|104:144|220:80,1,240,12|2,0:0|0:0,0:0:0:0:
332,140,45887,2,0,P|376:192|260:256,1,240,0|2,0:0|0:0,0:0:0:0:
256,192,47412,12,12,50463,0:0:0:0:
28,356,62666,6,0,L|148:312,1,120,8|0,0:0|0:0,0:0:0:0:
196,292,63429,1,0,0:0:0:0:
252,268,63683,1,2,0:0:0:0:
324,364,64192,2,0,P|360:316|340:192,1,180,4|0,0:0|0:0,0:0:0:0:
308,156,65209,2,0,L|268:104,2,60,2|0|0,0:0|0:0|0:0,0:0:0:0:
208,220,66226,5,0,0:0:0:0:
280,316,66734,1,2,0:0:0:0:
372,236,67243,2,0,P|336:208|208:220,1,180,4|0,0:0|0:0,0:0:0:0:
160,256,68260,1,2,0:0:0:0:
64,328,68768,6,0,P|44:280|88:164,1,180,0|2,0:0|0:0,0:0:0:0:
188,104,70039,1,0,0:0:0:0:
188,104,70294,2,0,P|204:176|192:224,1,120,4|0,0:0|0:0,0:0:0:0:
156,264,71056,1,0,0:0:0:0:
112,304,71311,1,2,0:0:0:0:
232,308,71819,6,0,L|376:312,1,120
412,312,72582,1,0,0:0:0:0:
472,312,72836,1,2,0:0:0:0:
488,192,73344,2,0,P|440:144|328:236,1,240,4|0,0:0|0:0,0:0:0:0:
388,336,74870,6,0,P|284:344|208:228,1,240,8|2,0:0|0:0,0:0:0:0:
228,124,76395,1,0,0:0:0:0:
116,164,76904,1,0,0:0:0:0:
132,44,77412,1,2,0:0:0:0:
228,124,77921,6,0,L|364:148,1,120
452,88,78938,2,0,P|468:144|440:220,1,120,2|0,0:0|0:0,0:0:0:0:
364,284,79955,1,0,0:0:0:0:
240,244,80463,2,0,L|256:184,1,60,2|0,0:0|0:0,0:0:0:0:
276,124,80972,6,0,P|240:84|144:188,1,240,0|2,0:0|0:0,0:0:0:0:
216,296,82497,2,0,L|300:312,1,60
332,320,83005,1,0,0:0:0:0:
452,340,83514,6,0,P|472:308|456:216,2,120,2|0|0,0:0|0:0|0:0,0:0:0:0:
400,312,84785,1,0,0:0:0:0:
348,280,85039,1,2,0:0:0:0:
336,160,85548,2,0,P|240:224|252:352,1,240,0|2,0:0|0:0,0:0:0:0:
296,316,86819,1,0,0:0:0:0:
348,284,87073,6,0,L|388:340,2,60,12|0|4,0:0|0:0|0:0,0:0:0:0:
280,188,88090,1,2,0:0:0:0:
380,120,88599,2,0,P|340:80|252:72,1,120
156,88,89616,1,2,0:0:0:0:
64,168,90124,6,0,P|96:216|272:188,1,240,0|2,0:0|0:0,0:0:0:0:
332,112,91649,2,0,P|364:152|308:312,1,240,0|2,0:0|0:0,0:0:0:0:
200,360,93175,6,0,P|188:316|232:228,1,120,0|4,0:0|0:0,0:0:0:0:
264,220,93938,1,0,0:0:0:0:
320,200,94192,1,2,0:0:0:0:
424,260,94700,2,0,P|440:200|416:128,2,120,0|0|2,0:0|0:0|0:0,0:0:0:0:
476,368,96226,6,0,P|412:376|312:296,1,180,0|2,0:0|0:0,0:0:0:0:
280,260,97243,1,0,0:0:0:0:
324,156,97751,2,0,P|232:160|176:296,1,240,0|2,0:0|0:0,0:0:0:0:
236,296,99022,1,0,0:0:0:0:
300,312,99277,6,0,L|420:344,2,120,8|0|2,0:0|0:0|0:0,0:0:0:0:
172,276,100802,1,0,0:0:0:0:
192,156,101311,1,0,0:0:0:0:
308,180,101819,1,2,0:0:0:0:
424,212,102327,6,0,P|420:144|376:84,2,120,0|0|2,0:0|0:0|0:0,0:0:0:0:
488,312,103853,2,0,P|400:328|356:308,1,120
296,228,104870,2,0,L|224:276,1,60,2|0,0:0|0:0,0:0:0:0:
196,296,105378,5,8,0:0:0:0:
140,328,105633,1,0,0:0:0:0:
80,356,105887,2,0,P|68:284|88:236,1,120,0|2,0:0|0:0,0:0:0:0:
184,164,106904,1,0,0:0:0:0:
280,236,107412,1,0,0:0:0:0:
180,300,107921,1,2,0:0:0:0:
256,192,108683,12,8,111861,0:0:0:0:
