osu file format v14

[General]
AudioFilename: audio.mp3
AudioLeadIn: 0
PreviewTime: 220951
Countdown: 0
SampleSet: Soft
StackLeniency: 0.7
Mode: 0
LetterboxInBreaks: 0
WidescreenStoryboard: 1

[Editor]
Bookmarks: 21951,43284,67284,109951,131284,155284,197951,221951,243284,285951
DistanceSpacing: 2
BeatDivisor: 4
GridSize: 4
TimelineZoom: 2.4

[Metadata]
Title:AIRI
TitleUnicode:AIRI-愛離-
Artist:himawari
ArtistUnicode:向日葵
Creator:Kibbleru
Version:Inflorescence
Source:付喪女・あおゑ
Tags:Tsukumo Onna Aoe taishi el dorado electro.muster electro muster c89
BeatmapID:1518305
BeatmapSetID:718072

[Difficulty]
HPDrainRate:6
CircleSize:4
OverallDifficulty:7
ApproachRate:9
SliderMultiplier:1.69999990463257
SliderTickRate:1

[Events]
//Background and Video events
0,0,"bg.jpg",0,0
//Break Periods
//Storyboard Layer 0 (Background)
//Storyboard Layer 1 (Fail)
//Storyboard Layer 2 (Pass)
//Storyboard Layer 3 (Foreground)
//Storyboard Sound Samples

[TimingPoints]
618,333.333333333333,4,2,2,30,1,0
784,-100,4,2,2,10,0,0
1617,-100,4,2,2,10,0,0
1951,-200,4,2,2,30,0,0
3617,-200,4,2,2,5,0,0
4395,-200,4,2,2,30,0,0
4784,-200,4,2,2,10,0,0
5617,-200,4,2,2,30,0,0
5951,-100,4,2,2,30,0,0
6117,-100,4,2,2,10,0,0
6951,-100,4,2,2,10,0,0
7284,-100,4,2,2,30,0,0
9951,-200,4,2,2,30,0,0
10117,-200,4,2,2,15,0,0
10451,-200,4,2,2,5,0,0
10506,-200,4,2,2,30,0,0
10617,-200,4,2,2,15,0,0
11284,-100,4,2,2,30,0,0
12284,-100,4,2,2,10,0,0
12617,-142.857142857143,4,2,2,30,0,0
12701,-142.857142857143,4,2,2,5,0,0
13951,-142.857142857143,4,2,2,30,0,0
14201,-100,4,2,2,5,0,0
15201,-142.857142857143,4,2,2,30,0,0
15534,-100,4,2,2,5,0,0
16284,-100,4,2,2,30,0,0
16784,-100,4,2,2,15,0,0
17617,-100,4,2,2,10,0,0
17951,-142.857142857143,4,2,2,30,0,0
18034,-142.857142857143,4,2,2,5,0,0
18867,-100,4,2,2,30,0,0
19201,-71.4285714285715,4,2,2,30,0,0
20617,-200,4,2,1,40,0,0
22951,-142.857142857143,4,2,1,40,0,0
24617,-111.111111111111,4,2,1,40,0,0
25284,-142.857142857143,4,2,1,40,0,0
26617,-200,4,2,1,40,0,0
27284,-111.111111111111,4,2,1,40,0,0
27951,-142.857142857143,4,2,1,40,0,0
29617,-200,4,2,1,40,0,0
30284,-111.111111111111,4,2,1,50,0,0
31506,-83.3333333333333,4,2,1,50,0,0
32506,-100,4,2,1,50,0,0
32951,-200,4,2,1,50,0,0
33617,-142.857142857143,4,2,1,50,0,0
34284,-111.111111111111,4,2,1,50,0,0
34617,-142.857142857143,4,2,1,50,0,0
35283,-111.111111111111,4,2,1,50,0,0
37283,-200,4,2,1,50,0,0
37950,-111.111111111111,4,2,1,50,0,0
38617,-142.857142857143,4,2,1,50,0,0
40283,-200,4,2,1,50,0,0
40950,-111.111111111111,4,2,1,50,0,0
41284,-200,4,2,1,50,0,0
42172,-100,4,2,1,50,0,0
43062,-83.3333333333333,4,2,1,50,0,0
43617,-142.857142857143,4,2,1,40,0,0
44617,-166.666666666667,4,2,1,40,0,0
45617,-83.3333333333333,4,2,1,40,0,0
45951,-200,4,2,1,40,0,0
47284,-300,4,2,1,40,0,0
48395,-83.3333333333333,4,2,1,40,0,0
48950,-142.857142857143,4,2,1,40,0,0
49950,-166.666666666667,4,2,1,40,0,0
50950,-83.3333333333333,4,2,1,40,0,0
51284,-125,4,2,1,40,0,0
52617,-200,4,2,1,40,0,0
52951,-100,4,2,1,50,0,0
53395,-100,4,2,5,50,0,0
53506,-100,4,2,1,50,0,0
53617,-200,4,2,1,50,0,0
54951,-142.857142857143,4,2,1,50,0,0
59284,-200,4,2,1,50,0,0
60284,-142.857142857143,4,2,1,50,0,0
61951,-200,4,2,1,50,0,0
62951,-142.857142857143,4,2,1,50,0,0
66617,-83.3333333333334,4,2,1,50,0,0
67284,-200,4,2,5,60,0,1
67617,-50,4,2,5,60,0,1
68173,-200,4,2,5,60,0,1
68617,-76.9230769230769,4,2,5,60,0,1
69506,-200,4,2,5,60,0,1
69951,-58.8235294117647,4,2,5,60,0,1
70617,-142.857142857143,4,2,5,60,0,1
72617,-58.8235294117647,4,2,5,60,0,1
72951,-200,4,2,5,60,0,1
73951,-76.9230769230769,4,2,5,60,0,1
74840,-200,4,2,5,60,0,1
75284,-100,4,2,5,60,0,1
75617,-142.857142857143,4,2,5,60,0,1
75951,-142.857142857143,4,2,5,60,0,0
76840,-100,4,2,5,60,0,0
77951,-200,4,2,5,60,0,1
78284,-50,4,2,5,60,0,1
78840,-200,4,2,5,60,0,1
79284,-76.9230769230769,4,2,5,60,0,1
80173,-200,4,2,5,60,0,1
80617,-58.8235294117647,4,2,5,60,0,1
81284,-142.857142857143,4,2,5,60,0,1
83284,-58.8235294117647,4,2,5,60,0,1
83617,-200,4,2,5,60,0,1
84617,-76.9230769230769,4,2,5,60,0,1
85506,-100,4,2,5,60,0,1
85951,-142.857142857143,4,2,5,60,0,0
87951,-142.857142857143,4,2,5,60,0,1
88284,-100,4,2,5,60,0,1
88617,-200,4,2,5,55,0,0
88951,-100,4,2,5,55,0,0
91284,-200,4,2,5,55,0,0
91617,-100,4,2,5,55,0,0
92617,-83.3333333333333,4,2,5,55,0,0
93284,-142.857142857143,4,2,5,55,0,0
93951,-200,4,2,5,55,0,0
94284,-100,4,2,5,55,0,0
96617,-200,4,2,5,55,0,0
96951,-100,4,2,5,55,0,0
97951,-83.3333333333333,4,2,5,55,0,0
98617,-142.857142857143,4,2,5,55,0,0
99284,-200,4,2,5,55,0,0
99617,-100,4,2,5,55,0,0
101951,-200,4,2,5,55,0,0
102284,-100,4,2,5,55,0,0
103284,-83.3333333333333,4,2,5,55,0,0
103951,-142.857142857143,4,2,5,55,0,0
104617,-200,4,2,5,55,0,0
104951,-100,4,2,5,55,0,0
105506,-142.857142857143,4,2,5,55,0,0
107284,-200,4,2,5,55,0,0
107618,-100,4,2,5,55,0,0
108617,-142.857142857143,4,2,5,55,0,0
109284,-100,4,2,5,55,0,0
109951,-166.666666666667,4,2,1,40,0,0
112284,-83.3333333333333,4,2,1,40,0,0
117284,-166.666666666667,4,2,1,40,0,0
118284,-111.111111111111,4,2,1,40,0,0
119506,-83.3333333333333,4,2,1,40,0,0
120506,-100,4,2,1,40,0,0
120951,-200,4,2,1,40,0,0
121617,-142.857142857143,4,2,1,40,0,0
122284,-111.111111111111,4,2,1,50,0,0
122617,-142.857142857143,4,2,1,50,0,0
123283,-111.111111111111,4,2,1,50,0,0
125283,-200,4,2,1,50,0,0
125951,-111.111111111111,4,2,1,50,0,0
126617,-142.857142857143,4,2,1,50,0,0
128283,-200,4,2,1,50,0,0
128951,-111.111111111111,4,2,1,50,0,0
129284,-200,4,2,1,50,0,0
130172,-100,4,2,1,50,0,0
131062,-83.3333333333333,4,2,1,50,0,0
131951,-300,4,2,1,40,0,0
132617,-200,4,2,1,40,0,0
133729,-83.3333333333333,4,2,1,40,0,0
137284,-300,4,2,1,40,0,0
137950,-200,4,2,1,40,0,0
139062,-83.3333333333333,4,2,1,40,0,0
139951,-142.857142857143,4,2,1,40,0,0
140951,-100,4,2,1,50,0,0
141617,-200,4,2,1,50,0,0
142951,-142.857142857143,4,2,1,50,0,0
147284,-200,4,2,1,50,0,0
148284,-142.857142857143,4,2,1,50,0,0
149951,-200,4,2,1,50,0,0
150951,-142.857142857143,4,2,1,50,0,0
153951,-83.3333333333334,4,2,1,50,0,0
154284,-125,4,2,1,50,0,0
155284,-200,4,2,5,60,0,1
155617,-50,4,2,5,60,0,1
156173,-200,4,2,5,60,0,1
156617,-76.9230769230769,4,2,5,60,0,1
157506,-200,4,2,5,60,0,1
157951,-58.8235294117647,4,2,5,60,0,1
158617,-142.857142857143,4,2,5,60,0,1
160617,-58.8235294117647,4,2,5,60,0,1
160951,-200,4,2,5,60,0,1
161951,-76.9230769230769,4,2,5,60,0,1
162840,-200,4,2,5,60,0,1
163284,-100,4,2,5,60,0,1
163617,-142.857142857143,4,2,5,60,0,1
163951,-142.857142857143,4,2,5,60,0,0
164840,-100,4,2,5,60,0,0
165951,-200,4,2,5,60,0,1
166284,-50,4,2,5,60,0,1
166840,-200,4,2,5,60,0,1
167284,-76.9230769230769,4,2,5,60,0,1
168173,-200,4,2,5,60,0,1
168617,-58.8235294117647,4,2,5,60,0,1
169284,-142.857142857143,4,2,5,60,0,1
171284,-58.8235294117647,4,2,5,60,0,1
171617,-200,4,2,5,60,0,1
172617,-76.9230769230769,4,2,5,60,0,1
173506,-100,4,2,5,60,0,1
173951,-142.857142857143,4,2,5,60,0,0
175951,-142.857142857143,4,2,5,60,0,1
176284,-100,4,2,5,60,0,1
176617,-142.857142857143,4,2,2,40,0,0
176701,-142.857142857143,4,2,2,30,0,0
178284,-200,4,2,1,40,0,0
179284,-111.111111111111,4,2,2,40,0,0
180062,-142.857142857143,4,2,2,40,0,0
180173,-142.857142857143,4,2,1,40,0,0
180506,-142.857142857143,4,2,2,40,0,0
180617,-142.857142857143,4,2,1,40,0,0
180951,-142.857142857143,4,2,2,40,0,0
181062,-142.857142857143,4,2,1,40,0,0
181395,-142.857142857143,4,2,2,40,0,0
181506,-142.857142857143,4,2,1,40,0,0
181617,-142.857142857143,4,2,2,40,0,0
182701,-142.857142857143,4,2,2,20,0,0
183284,-200,4,2,2,40,0,0
183367,-200,4,2,2,20,0,0
184617,-200,4,2,2,40,0,0
185173,-200,4,2,1,20,0,0
185284,-200,4,2,2,40,0,0
185840,-200,4,2,1,20,0,0
185951,-200,4,2,2,40,0,0
186451,-125,4,2,1,40,0,0
187951,-142.857142857143,4,2,1,40,0,0
188451,-166.666666666667,4,2,1,40,0,0
188951,-142.857142857143,4,2,1,40,0,0
189951,-125,4,2,1,40,0,0
190618,-142.857142857143,4,2,1,40,0,0
191118,-166.666666666667,4,2,1,40,0,0
191617,-142.857142857143,4,2,1,40,0,0
192617,-100,4,2,1,40,0,0
195284,-200,4,2,5,55,0,0
197284,-142.857142857143,4,2,5,55,0,0
197951,-71.4285714285714,4,2,5,55,0,0
198284,-142.857142857143,4,2,5,55,0,0
199284,-71.4285714285714,4,2,5,55,0,0
199617,-142.857142857143,4,2,5,55,0,0
200617,-71.4285714285714,4,2,5,55,0,0
200950,-142.857142857143,4,2,5,55,0,0
201951,-62.5,4,2,5,55,0,0
202395,-83.3333333333333,4,2,5,55,0,0
203284,-71.4285714285714,4,2,5,55,0,0
203617,-142.857142857143,4,2,5,55,0,0
204617,-71.4285714285714,4,2,5,55,0,0
204950,-142.857142857143,4,2,5,55,0,0
205950,-71.4285714285714,4,2,5,55,0,0
206283,-142.857142857143,4,2,5,55,0,0
207284,-90.9090909090909,4,2,5,55,0,0
207728,-83.3333333333333,4,2,5,55,0,0
208617,-71.4285714285714,4,2,5,55,0,0
208950,-142.857142857143,4,2,5,55,0,0
209950,-71.4285714285714,4,2,5,55,0,0
210283,-142.857142857143,4,2,5,55,0,0
211283,-71.4285714285714,4,2,5,55,0,0
211616,-142.857142857143,4,2,5,55,0,0
211951,-100,4,2,5,55,0,0
212617,-62.5,4,2,5,55,0,0
213061,-83.3333333333333,4,2,5,55,0,0
213950,-71.4285714285714,4,2,5,55,0,0
214283,-142.857142857143,4,2,5,55,0,0
215283,-71.4285714285714,4,2,5,55,0,0
215616,-142.857142857143,4,2,5,55,0,0
216616,-100,4,2,5,55,0,0
216949,-142.857142857143,4,2,5,55,0,0
217950,-90.9090909090909,4,2,5,55,0,0
218394,-83.3333333333333,4,2,5,55,0,0
219395,-83.3333333333333,4,2,5,40,0,0
231951,-166.666666666667,4,2,5,40,0,0
235284,-142.857142857143,4,2,5,40,0,0
236617,-166.666666666667,4,2,5,40,0,0
240173,-200,4,2,5,40,0,0
240617,-300,4,2,5,40,0,0
242951,-100,4,2,2,40,0,0
243284,-200,4,2,5,60,0,1
243617,-50,4,2,5,60,0,1
244173,-200,4,2,5,60,0,1
244617,-76.9230769230769,4,2,5,60,0,1
245506,-200,4,2,5,60,0,1
245951,-58.8235294117647,4,2,5,60,0,1
246617,-142.857142857143,4,2,5,60,0,1
248617,-58.8235294117647,4,2,5,60,0,1
248951,-200,4,2,5,60,0,1
249951,-76.9230769230769,4,2,5,60,0,1
250840,-200,4,2,5,60,0,1
251284,-100,4,2,5,60,0,1
251617,-142.857142857143,4,2,5,60,0,1
251951,-142.857142857143,4,2,5,60,0,0
252840,-100,4,2,5,60,0,0
253951,-200,4,2,5,60,0,1
254284,-50,4,2,5,60,0,1
254840,-200,4,2,5,60,0,1
255284,-76.9230769230769,4,2,5,60,0,1
256173,-200,4,2,5,60,0,1
256617,-58.8235294117647,4,2,5,60,0,1
257284,-142.857142857143,4,2,5,60,0,1
259284,-58.8235294117647,4,2,5,60,0,1
259617,-200,4,2,5,60,0,1
260617,-76.9230769230769,4,2,5,60,0,1
261506,-100,4,2,5,60,0,1
261951,-142.857142857143,4,2,5,60,0,0
263951,-142.857142857143,4,2,5,60,0,1
264284,-100,4,2,5,60,0,1
264617,-100,4,2,5,55,0,0
265284,-200,4,2,5,55,0,0
265951,-100,4,2,5,55,0,0
266617,-200,4,2,5,55,0,0
267617,-100,4,2,5,55,0,0
269173,-83.3333333333333,4,2,5,55,0,0
269951,-100,4,2,5,55,0,0
270617,-200,4,2,5,55,0,0
271284,-100,4,2,5,55,0,0
271950,-200,4,2,5,55,0,0
272617,-100,4,2,5,55,0,0
273506,-200,4,2,5,55,0,0
274506,-142.857142857143,4,2,5,55,0,0
275284,-100,4,2,5,55,0,0
275951,-200,4,2,5,55,0,0
276617,-100,4,2,5,55,0,0
277284,-200,4,2,5,55,0,0
277951,-100,4,2,5,55,0,0
278617,-200,4,2,5,55,0,0
279284,-100,4,2,5,55,0,0
279840,-83.3333333333333,4,2,5,55,0,0
280617,-100,4,2,5,55,0,0
281284,-200,4,2,5,55,0,0
281951,-100,4,2,5,55,0,0
282617,-200,4,2,5,55,0,0
283284,-100,4,2,5,55,0,0
284173,-200,4,2,5,55,0,0
285173,-142.857142857143,4,2,5,55,0,0
286705,380.952380952381,4,2,5,55,1,0
286705,-125,4,2,2,40,0,0
289362,340.909090909091,4,2,2,40,1,0
289362,-142.857142857143,4,2,2,40,0,0
289475,-142.857142857143,4,2,1,20,0,0
289816,-142.857142857143,4,2,2,40,0,0
289930,-142.857142857143,4,2,1,20,0,0
290271,-142.857142857143,4,2,2,40,0,0
290384,-142.857142857143,4,2,1,20,0,0
290725,-142.857142857143,4,2,2,40,0,0
290839,-142.857142857143,4,2,1,20,0,0
290952,333.333333333333,4,2,2,40,1,0
290952,-142.857142857143,4,2,2,40,0,0
291118,-142.857142857143,4,2,2,20,0,0
291285,-142.857142857143,4,2,2,40,0,0
291451,-142.857142857143,4,2,2,20,0,0
291983,300,4,2,2,40,1,0
291983,-142.857142857143,4,2,2,20,0,0
292083,-142.857142857143,4,2,2,15,0,0
292283,292.682926829268,4,2,2,20,1,0
292283,-142.857142857143,4,2,2,20,0,0
292356,-142.857142857143,4,2,2,10,0,0
293453,333.333333333333,4,2,2,10,1,0
293953,-142.857142857143,4,2,2,20,0,0
294286,-142.857142857143,4,2,2,10,0,0
295286,-142.857142857143,4,2,2,20,0,0
295451,-100,4,2,2,10,0,0
296286,-100,4,2,2,30,0,0
297501,333.333333333333,4,2,2,20,1,0
298245,333.333333333333,4,2,2,20,1,0
298949,333.333333333333,4,2,2,20,1,0
300408,333.333333333333,4,2,2,20,1,0
301074,315.789473684211,4,2,2,20,1,0
301074,-200,4,2,2,20,0,0
301231,-200,4,2,2,10,0,0
301705,-200,4,2,1,10,0,0
301942,333.333333333333,4,2,2,20,1,0
301997,-100,4,2,2,10,0,0
304820,333.333333333333,4,2,2,15,1,0
306371,333.333333333333,4,2,2,15,1,0
308492,333.333333333333,4,2,2,15,1,0
308742,-100,4,2,1,5,0,0
312204,333.333333333333,4,2,2,15,1,0
312973,333.333333333333,4,2,2,15,1,0
314685,359.281437125748,4,2,2,15,1,0
314774,-100,4,2,1,5,0,0

[Colours]
Combo1 : 167,68,225
Combo2 : 255,136,214

[HitObjects]
90,193,534,5,2,0:0:0:0:
98,206,618,2,0,B|106:166|95:140|95:140|137:170|136:248|84:307|84:307|142:234|304:226|265:367|191:285,1,509.999971389771,4|0,0:0|0:0,0:0:0:0:
85,307,1951,1,8,0:0:0:0:
323,118,3201,1,2,0:0:0:0:
333,104,3284,6,0,P|287:106|245:94,1,84.9999952316285,0|0,0:0|0:0,0:0:0:0:
120,158,4395,2,0,L|122:183,3,14.1666658719381,0|0|0|2,0:0|0:0|0:0|0:0,0:0:0:0:
132,80,4617,6,0,B|163:141|117:223|117:223|167:189|222:199,1,254.999985694886,2|4,0:0|0:3,0:0:0:0:
377,267,5840,1,2,0:0:0:0:
380,285,5951,6,0,B|326:206|224:206|213:273|213:273|206:326|127:394|-18:271|80:182|172:198|118:289,1,509.999971389771,4|0,0:0|0:0,0:0:0:0:
127,268,7284,1,8,0:0:0:0:
187,203,8617,1,2,0:0:0:0:
272,238,9784,2,0,L|321:231,2,28.3333317438762
258,281,9951,6,0,P|318:252|384:268,1,127.499992847443,10|0,0:0|0:0,0:0:0:0:
401,278,10506,2,0,P|375:220|383:160,1,113.333326975505,2|0,0:0|0:0,0:0:0:0:
424,100,11034,2,0,L|461:96,2,21.2499988079071,0|0|2,0:0|0:0|0:0,0:0:0:0:
481,86,11284,6,0,B|428:62|363:88|346:165|346:165|355:45|331:-29|212:-2|197:71|262:138|305:88,1,509.999971389771,6|0,0:0|0:0,0:0:0:0:
302,91,12617,2,0,L|273:89,15,29.7499974231721,8|0|0|0|0|0|0|0|0|0|0|0|0|0|0|0,0:0|0:0|0:0|0:0|0:0|0:0|0:0|0:0|0:0|0:0|0:0|0:0|0:0|0:0|0:0|0:0,0:0:0:0:
167,48,13951,6,0,L|178:153,1,89.2499922695163,2|0,0:0|0:0,0:0:0:0:
175,158,14284,2,0,L|132:164,10,42.4999976158143,0|0|0|0|0|0|0|0|0|0|0,0:0|0:0|0:0|0:0|0:0|0:0|0:0|0:0|0:0|0:0|0:0,0:0:0:0:
287,145,15201,1,2,0:0:0:0:
277,132,15284,6,0,L|266:237,1,89.2499922695163,8|0,0:0|0:0,0:0:0:0:
269,242,15617,2,0,L|311:248,8,42.4999976158143,0|0|0|0|0|0|0|0|4,0:0|0:0|0:0|0:0|0:0|0:0|0:0|0:0|0:3,0:0:0:0:
433,231,16534,1,2,0:0:0:0:
444,246,16617,6,0,B|366:234|366:234|325:286|325:286|266:278|266:278|242:252|242:252|127:235|127:235|163:203|214:231|208:291|175:332,1,509.999971389771,4|2,0:0|0:0,0:0:0:0:
184,318,17951,2,0,L|181:273,10,29.7499974231721,8|0|0|0|0|0|0|0|0|0|0,0:0|0:0|0:0|0:0|0:0|0:0|0:0|0:0|0:0|0:0|0:0,0:0:0:0:
172,280,18867,1,2,0:0:0:0:
167,336,19006,6,0,L|172:279,1,56.6666634877523,0|2,0:0|0:0,0:0:0:0:
181,143,19201,2,0,B|193:169|193:169|175:194,1,59.4999948463442,2|0,0:0|0:0,0:0:0:0:
256,192,19395,12,0,20617,0:0:0:0:
52,117,21617,6,0,L|140:111,1,84.9999952316285,0|4,0:0|3:2,0:0:0:0:
225,159,22284,2,0,L|281:164,1,56.6666634877523,0|0,0:0|0:0,0:0:0:0:
427,97,22617,1,2,0:0:0:0:
427,97,22951,2,0,P|441:133|442:173,1,79.3333264617923,0|0,0:0|0:0,0:0:0:0:
481,245,23284,6,0,P|430:213|372:208,1,118.999989692688,0|0,0:0|0:0,0:0:0:0:
212,41,23951,2,0,L|202:119,1,79.3333264617923,2|0,0:0|0:0,0:0:0:0:
103,112,24284,1,0,0:0:0:0:
103,112,24617,6,0,B|120:172|77:251|77:251|122:201|189:209,1,254.999977912904,4|0,0:3|0:0,0:0:0:0:
265,189,25284,2,0,P|304:192|345:211,1,79.3333264617923,2|0,0:0|0:0,0:0:0:0:
265,189,25617,1,0,0:0:0:0:
469,76,25840,5,2,0:0:0:0:
471,91,25951,1,0,0:0:0:0:
349,247,26173,5,0,0:0:0:0:
351,232,26284,1,0,0:0:0:0:
233,129,26506,5,0,0:0:0:0:
235,144,26617,2,0,L|135:133,1,84.9999952316285,2|0,0:0|0:0,0:0:0:0:
83,270,27284,6,0,B|132:295|191:277|214:231|214:231|276:243|279:317,1,254.999977912904,4|0,0:3|0:0,0:0:0:0:
355,232,27951,2,0,P|367:269|369:309,1,79.3333264617923,2|0,0:0|0:0,0:0:0:0:
355,232,28284,1,0,0:0:0:0:
423,111,28506,5,2,0:0:0:0:
421,126,28617,1,0,0:0:0:0:
275,317,28840,5,0,0:0:0:0:
277,302,28951,1,0,0:0:0:0:
206,158,29173,5,0,0:0:0:0:
204,173,29284,1,2,0:0:0:0:
5,162,29617,2,0,L|113:155,1,84.9999952316285,0|0,0:0|3:2,0:0:0:0:
0,178,30284,6,0,B|72:174|72:174|115:204,1,101.999991165162,2|0,0:0|0:0,0:0:0:0:
214,250,30617,2,0,B|286:254|286:254|329:224,1,101.999991165162,8|0,0:0|0:0,0:0:0:0:
399,156,30951,5,0,3:2:0:0:
399,156,31173,1,0,3:2:0:0:
399,156,31506,5,10,0:0:0:0:
412,170,31617,2,0,P|418:194|416:238,1,67.9999941101077,0|0,3:2|0:0,0:0:0:0:
202,130,31840,5,2,0:0:0:0:
189,116,31951,2,0,P|182:91|184:47,1,67.9999941101077,8|0,0:0|0:0,0:0:0:0:
184,50,32173,6,0,P|154:67|121:75,1,67.9999941101077,8|0,0:0|3:2,0:0:0:0:
38,161,32506,6,0,L|102:167,1,56.6666634877523,8|4,0:0|3:2,0:0:0:0:
183,226,32951,2,0,L|239:220,1,56.6666634877523,2|0,0:0|0:0,0:0:0:0:
373,101,33284,1,8,0:0:0:0:
373,101,33617,2,0,P|333:102|295:91,1,79.3333264617923,0|0,3:2|0:0,0:0:0:0:
283,81,33951,5,2,0:0:0:0:
349,256,34173,1,0,3:2:0:0:
335,263,34284,2,0,L|330:340,1,50.9999955825808,2|0,0:0|0:0,0:0:0:0:
263,187,34506,1,0,3:2:0:0:
249,194,34617,2,0,L|153:186,1,79.3333264617923,8|0,0:0|0:0,0:0:0:0:
80,180,34951,1,2,0:0:0:0:
80,180,35284,6,0,L|181:171,1,101.999991165162,2|0,3:2|0:0,0:0:0:0:
247,130,35617,2,0,B|225:169|225:169|236:225,1,101.999991165162,2|0,0:0|0:0,0:0:0:0:
402,351,35951,2,0,B|424:312|424:312|412:255,1,101.999991165162,8|0,0:0|0:0,0:0:0:0:
412,256,36284,1,0,3:2:0:0:
455,133,36506,5,2,0:0:0:0:
453,148,36617,1,0,0:0:0:0:
318,294,36840,5,0,3:2:0:0:
316,279,36951,1,2,0:0:0:0:
205,177,37173,5,0,3:2:0:0:
203,192,37284,2,0,L|146:198,1,56.6666634877523,8|0,0:0|0:0,0:0:0:0:
275,116,37617,1,2,0:0:0:0:
275,116,37951,6,0,P|350:117|406:172,1,152.999986747742,0|0,3:2|0:0,0:0:0:0:
319,348,38617,2,0,P|313:308|312:269,1,79.3333264617923,8|0,0:0|0:0,0:0:0:0:
320,251,38951,2,0,L|280:256,1,39.6666632308961,0|0,3:2|0:0,0:0:0:0:
193,269,39173,5,2,0:0:0:0:
177,271,39284,1,0,0:0:0:0:
256,162,39506,5,0,3:2:0:0:
240,164,39617,1,2,0:0:0:0:
319,55,39840,5,0,3:2:0:0:
303,57,39951,1,10,0:0:0:0:
287,59,40284,6,0,L|391:69,1,84.9999952316285,2|0,0:0|3:2,0:0:0:0:
458,234,40951,2,0,P|409:223|364:246,1,101.999991165162,2|0,0:0|0:0,0:0:0:0:
387,259,41284,6,0,L|302:250,1,84.9999952316285,8|4,0:0|3:2,0:0:0:0:
127,187,41951,1,0,0:0:0:0:
127,187,42173,6,0,B|134:293|134:293|195:276,1,169.999990463257,2|0,3:2|3:2,0:0:0:0:
261,214,42617,1,8,0:0:0:0:
301,208,42729,1,2,0:0:0:0:
339,218,42840,1,2,0:0:0:0:
370,243,42951,1,2,0:0:0:0:
389,277,43062,2,0,L|444:284,4,33.9999970550538,0|0|0|0|4,0:0|0:0|0:0|0:0|3:2,0:0:0:0:
440,128,43951,6,0,L|361:138,1,79.3333264617923,2|0,0:0|0:0,0:0:0:0:
366,122,44284,1,0,0:0:0:0:
226,51,44506,1,0,0:0:0:0:
232,65,44617,2,0,L|120:52,2,101.999991165162,2|0|2,0:0|0:0|0:0,0:0:0:0:
52,163,45617,1,0,0:3:0:0:
43,151,45784,2,0,P|48:170|52:198,2,33.9999970550538,0|0|0,0:3|0:3|0:3,0:0:0:0:
35,140,45951,6,0,B|56:194|34:264|34:264|88:206|160:221,1,254.999985694886,2|0,0:0|0:3,0:0:0:0:
234,189,47284,2,0,B|321:175|304:236|395:225,1,169.999990463257,2|0,0:0|0:0,0:0:0:0:
416,215,48395,2,0,L|462:210,4,33.9999970550538,0|0|0|0|2,0:0|0:0|0:0|0:0|0:0,0:0:0:0:
312,279,49284,6,0,P|302:240|299:201,1,79.3333264617923,2|0,0:0|0:0,0:0:0:0:
290,214,49617,1,0,0:0:0:0:
173,66,49840,1,0,0:0:0:0:
162,53,49951,2,0,P|161:111|148:166,2,101.999991165162,2|0|2,0:0|0:0|0:0,0:0:0:0:
115,251,50951,1,0,0:0:0:0:
110,263,51062,2,0,L|159:250,3,33.9999970550538,0|0|0|0,0:0|0:0|0:0|0:0,0:0:0:0:
106,275,51284,6,2,B|200:235|224:293|224:293|246:353|343:318,1,271.999984741211,2|10,3:2|3:2,0:0:0:0:
342,318,52173,5,0,0:0:0:0:
420,349,52284,1,0,3:2:0:0:
326,110,52506,1,0,3:2:0:0:
403,140,52617,2,0,L|346:142,1,56.6666634877523,8|0,0:3|0:0,0:0:0:0:
326,110,52951,6,0,L|338:245,1,113.333326975505,4|0,3:2|0:0,0:0:0:0:
220,131,53284,2,0,L|228:211,1,56.6666634877523,0|8,0:0|0:0,0:0:0:0:
234,274,53506,1,8,0:0:0:0:
220,131,53617,6,0,L|163:133,1,56.6666634877523,0|8,3:2|0:0,0:0:0:0:
87,114,53951,6,0,L|171:111,1,84.9999952316285,4|0,3:2|0:0,0:0:0:0:
382,41,54617,2,0,P|399:80|399:109,1,56.6666634877523,8|0,0:0|0:0,0:0:0:0:
379,90,54951,2,0,L|398:218,1,118.999989692688,0|2,3:2|0:0,0:0:0:0:
479,283,55506,5,0,3:2:0:0:
262,162,55840,1,0,3:2:0:0:
245,178,55951,2,0,P|191:186|151:170,1,79.3333264617923,8|0,0:0|0:0,0:0:0:0:
99,120,56284,2,0,P|90:81|96:42,1,79.3333264617923,2|0,0:0|0:0,0:0:0:0:
135,23,56617,6,0,L|118:260,1,237.999979385377,2|8,3:2|0:0,0:0:0:0:
118,260,57617,1,0,3:2:0:0:
219,238,57840,2,0,B|288:228|288:228|327:302,1,118.999989692688,2|0,0:0|3:2,0:0:0:0:
305,290,58284,2,0,L|384:294,1,79.3333264617923,2|0,0:0|3:2,0:0:0:0:
454,230,58617,2,0,L|445:140,1,79.3333264617923,8|0,0:0|0:0,0:0:0:0:
446,151,58951,1,0,0:0:0:0:
305,99,59173,1,2,0:0:0:0:
325,109,59284,6,0,P|290:132|248:136,1,84.9999952316285,4|0,3:2|0:0,0:0:0:0:
446,151,59951,1,8,0:0:0:0:
446,151,60284,2,0,L|232:135,1,198.333316154481,2|0,3:2|3:2,0:0:0:0:
81,94,61173,1,0,3:2:0:0:
89,71,61284,5,10,0:0:0:0:
142,194,61506,1,2,0:0:0:0:
150,171,61617,5,0,0:0:0:0:
203,294,61840,1,2,0:0:0:0:
210,271,61951,6,0,P|253:272|290:292,1,84.9999952316285,0|0,3:2|0:0,0:0:0:0:
108,346,62617,1,8,0:0:0:0:
108,346,62951,2,0,B|181:337|181:337|216:300|216:300|288:291,1,198.333316154481,2|0,3:2|3:2,0:0:0:0:
375,182,63840,5,0,3:2:0:0:
394,196,63951,2,0,P|335:200|283:174,1,118.999989692688,8|0,0:0|0:0,0:0:0:0:
243,85,64617,5,4,3:2:0:0:
256,192,64729,12,0,65951,0:0:0:0:
511,92,66617,5,2,0:0:0:0:
447,47,66729,1,2,0:0:0:0:
369,54,66840,1,2,0:0:0:0:
313,108,66951,5,2,0:0:0:0:
256,162,67062,1,2,0:0:0:0:
179,168,67173,1,2,0:0:0:0:
114,125,67284,6,2,P|124:160|125:200,1,56.6666634877523,4|0,3:2|0:1,0:1:0:0:
142,85,67617,6,0,B|115:230|115:230|193:219,1,226.666653951009,2|0,0:0|0:0,0:0:0:0:
380,282,67951,1,8,0:0:0:0:
380,282,68173,6,0,P|337:283|298:267,1,84.9999952316285,2|0,0:0|0:0,0:0:0:0:
166,347,68617,6,2,B|207:310|207:310|192:212,1,147.333318323772,2|0,3:2|0:1,0:1:0:0:
37,53,68951,2,2,B|-4:90|-4:90|11:188,1,147.333318323772,0|0,0:1|0:1,0:0:0:0:
14,283,69284,1,8,0:0:0:0:
14,283,69506,6,0,L|113:272,1,84.9999952316285,2|0,0:0|0:0,0:0:0:0:
333,380,69951,6,2,B|266:345|267:266|289:241|289:241|294:321|207:307,1,288.999989299774,2|0,3:2|0:1,0:1:0:0:
102,152,70506,1,2,0:0:0:0:
102,152,70617,2,0,P|140:164|179:162,1,79.3333264617923,10|0,0:0|0:0,0:0:0:0:
270,123,70951,2,0,P|280:85|278:45,1,79.3333264617923,2|0,0:0|0:0,0:0:0:0:
261,20,71284,5,2,3:2:0:0:
171,187,71506,5,2,3:2:0:0:
298,329,71729,5,2,3:2:0:0:
391,314,71840,1,2,3:2:0:0:
327,243,71951,6,0,L|247:249,1,79.3333264617923,10|0,0:0|3:2,0:0:0:0:
407,210,72284,6,0,L|327:216,1,79.3333264617923,10|0,0:0|3:2,0:0:0:0:
493,225,72617,6,2,B|437:251|437:251|454:121,1,192.666659533183,4|0,3:2|0:1,0:1:0:0:
457,90,72951,6,0,P|421:113|379:116,1,84.9999952316285,2|8,0:0|0:0,0:0:0:0:
265,151,73506,2,0,P|231:132|209:82,1,84.9999952316285,2|0,0:0|0:0,0:0:0:0:
306,50,73951,6,2,B|220:33|220:33|207:107,1,147.333318323772,2|0,3:2|0:1,0:1:0:0:
6,163,74284,2,2,B|91:146|91:146|105:220,1,147.333318323772,0|0,0:1|0:1,0:1:0:0:
113,303,74617,1,8,0:0:0:0:
113,303,74840,6,0,L|212:294,1,84.9999952316285,2|2,0:0|0:0,0:0:0:0:
299,323,75284,6,0,B|339:288|339:288|330:218,1,113.333326975505,2|0,3:2|0:0,0:0:0:0:
328,202,75617,2,0,P|368:242|429:249,1,118.999989692688,2|8,0:0|0:0,0:0:0:0:
433,108,76173,5,2,0:0:0:0:
405,113,76284,1,0,0:0:0:0:
289,84,76506,1,2,0:0:0:0:
261,89,76617,5,0,3:2:0:0:
11,284,76840,1,0,3:2:0:0:
0,197,76951,5,2,0:0:0:0:
154,299,77173,1,0,3:2:0:0:
143,212,77284,6,0,L|138:268,1,56.6666634877523,10|0,0:0|0:0,0:0:0:0:
297,314,77506,1,8,0:0:0:0:
286,227,77617,6,0,L|281:283,1,56.6666634877523,10|2,0:0|0:0,0:0:0:0:
440,329,77840,1,10,0:0:0:0:
429,242,77951,6,2,L|424:298,1,56.6666634877523,4|0,3:2|0:1,0:1:0:0:
427,196,78284,6,0,B|440:330|440:330|393:339|351:315,1,226.666653951009,2|0,0:0|0:0,0:0:0:0:
214,250,78617,1,8,0:0:0:0:
214,250,78840,6,0,L|204:334,1,84.9999952316285,2|0,0:0|0:0,0:0:0:0:
17,142,79284,6,2,B|49:182|49:182|142:158,1,147.333318323772,2|0,3:2|0:1,0:1:0:0:
257,65,79617,2,2,B|289:25|289:25|382:48,1,147.333318323772,0|0,0:1|0:1,0:1:0:0:
448,133,79951,1,8,0:0:0:0:
448,133,80173,6,0,P|432:172|428:214,1,84.9999952316285,2|0,0:0|0:0,0:0:0:0:
489,344,80617,6,2,B|401:373|378:308|378:308|348:235|241:283,1,288.999989299774,2|0,3:2|0:1,0:1:0:0:
23,98,81173,1,2,0:0:0:0:
23,98,81284,2,0,L|107:89,1,79.3333264617923,10|0,0:0|0:0,0:0:0:0:
196,53,81617,2,0,L|186:131,1,79.3333264617923,2|0,0:0|0:0,0:0:0:0:
167,154,81951,5,2,3:2:0:0:
344,221,82173,5,2,3:2:0:0:
503,117,82395,5,2,3:2:0:0:
442,43,82506,1,2,3:2:0:0:
409,132,82617,6,0,L|421:210,1,79.3333264617923,10|0,0:0|3:2,0:0:0:0:
454,286,82951,6,0,L|441:207,1,79.3333264617923,10|0,0:0|3:2,0:0:0:0:
494,76,83284,6,2,B|437:79|409:132|409:132|375:90|335:89,1,192.666659533183,4|0,3:2|0:1,0:1:0:0:
246,81,83617,6,0,L|189:76,1,56.6666634877523,2|0,0:0|0:0,0:0:0:0:
337,89,83951,1,8,0:0:0:0:
207,105,84173,2,0,L|111:115,1,84.9999952316285,2|0,0:0|0:0,0:0:0:0:
55,39,84617,6,2,B|18:80|18:80|33:171,1,147.333318323772,2|0,3:2|0:1,0:1:0:0:
152,338,84951,2,2,B|189:297|189:297|173:205,1,147.333318323772,0|0,0:1|0:1,0:1:0:0:
207,105,85284,1,8,0:0:0:0:
207,105,85506,2,0,P|290:102|349:160,1,169.999990463257,2|0,0:0|0:0,0:0:0:0:
353,240,85951,6,0,B|368:94|368:94|400:128|448:134,1,237.999979385377,2|8,3:2|0:0,0:0:0:0:
448,134,86840,1,2,0:0:0:0:
448,134,87284,6,0,L|369:129,1,79.3333264617923,0|0,3:2|3:2,0:0:0:0:
394,211,87617,1,0,3:2:0:0:
235,83,87840,5,0,3:2:0:0:
259,164,87951,2,2,L|179:158,1,79.3333264617923,8|8,0:2|0:2,0:1:0:0:
77,74,88284,6,2,L|87:186,1,113.333326975505,10|8,0:2|0:2,0:1:0:0:
70,320,88617,6,0,L|128:311,1,56.6666634877523,4|0,3:2|0:0,0:0:0:0:
57,300,88951,6,0,P|112:289|165:313,1,113.333326975505,2|0,0:0|0:0,0:0:0:0:
248,356,89284,2,0,P|276:354|303:347,1,56.6666634877523,10|0,0:0|0:0,0:0:0:0:
377,287,89506,1,2,0:0:0:0:
207,94,89840,5,2,0:0:0:0:
246,24,89951,2,0,L|235:136,1,113.333326975505,2|0,3:2|0:1,0:0:0:0:
225,224,90284,1,0,0:0:0:0:
225,224,90506,6,0,L|299:220,1,56.6666634877523,2|8,0:0|0:0,0:0:0:0:
450,149,90840,2,0,L|376:145,1,56.6666634877523,2|0,0:0|0:0,0:0:0:0:
141,68,91173,5,2,0:0:0:0:
225,65,91284,2,0,L|299:61,1,56.6666634877523,2|0,3:2|0:1,0:0:0:0:
219,42,91617,6,0,L|331:51,1,113.333326975505,2|0,0:0|0:0,0:0:0:0:
430,41,91951,2,0,P|452:92|447:157,1,113.333326975505,10|2,0:0|0:0,0:0:0:0:
433,126,92506,1,2,0:0:0:0:
433,267,92617,6,2,B|386:209|386:209|346:263,1,135.999988220215,2|0,3:2|3:2,0:0:0:0:
285,206,92951,1,2,0:0:0:0:
212,243,93062,1,0,3:2:0:0:
138,208,93173,1,0,3:2:0:0:
65,245,93284,6,0,P|59:205|48:167,1,79.3333264617923,10|0,0:0|3:2,0:0:0:0:
146,313,93617,2,0,P|151:273|168:236,1,79.3333264617923,10|0,0:0|0:0,0:0:0:0:
237,296,93951,6,0,P|260:280|288:274,1,56.6666634877523,2|0,3:2|0:1,0:0:0:0:
278,307,94284,6,0,L|400:320,1,113.333326975505,2|0,0:0|0:0,0:0:0:0:
454,254,94617,2,0,L|449:182,1,56.6666634877523,10|0,0:0|0:0,0:0:0:0:
442,109,94840,1,2,0:0:0:0:
204,98,95173,5,2,0:0:0:0:
223,20,95284,2,0,L|230:133,1,113.333326975505,2|0,3:2|0:1,0:0:0:0:
308,217,95617,1,0,0:0:0:0:
308,217,95840,6,0,P|316:190|320:162,1,56.6666634877523,2|8,0:0|0:0,0:0:0:0:
110,53,96173,2,0,P|118:80|122:108,1,56.6666634877523,2|0,0:0|0:0,0:0:0:0:
132,332,96506,1,2,0:0:0:0:
181,264,96617,6,0,P|186:236|188:207,1,56.6666634877523,2|0,3:2|0:1,0:0:0:0:
152,227,96951,6,0,L|291:222,1,113.333326975505,2|0,0:0|0:0,0:0:0:0:
358,270,97284,2,0,L|497:265,1,113.333326975505,10|2,0:0|0:0,0:0:0:0:
443,289,97840,1,0,3:2:0:0:
423,180,97951,6,0,B|433:94|433:94|377:108,1,135.999988220215,2|0,3:2|3:2,0:0:0:0:
304,161,98284,2,0,L|205:152,1,67.9999941101077,0|0,0:0|0:0,0:0:0:0:
163,86,98506,1,0,3:2:0:0:
84,94,98617,6,2,L|162:86,1,79.3333264617923,10|10,0:2|0:2,0:1:0:0:
71,217,98951,2,2,L|149:209,1,79.3333264617923,10|10,0:2|0:2,0:1:0:0:
58,341,99284,6,0,L|134:334,1,56.6666634877523,4|0,3:2|0:0,0:0:0:0:
40,322,99617,6,0,P|95:311|147:330,1,113.333326975505,0|0,0:0|0:0,0:0:0:0:
241,371,99951,2,0,P|269:370|298:363,1,56.6666634877523,10|0,0:0|0:0,0:0:0:0:
373,303,100173,2,0,L|376:246,1,56.6666634877523,2|0,0:0|0:0,0:0:0:0:
167,133,100506,1,0,0:0:0:0:
109,70,100617,6,0,P|151:105|207:109,1,113.333326975505,2|0,3:2|0:0,0:0:0:0:
298,162,100951,2,0,P|371:126|386:46,1,169.999990463257,2|8,0:0|0:0,0:0:0:0:
364,29,101506,6,0,L|369:101,1,56.6666634877523,2|0,0:0|0:0,0:0:0:0:
450,340,101840,1,2,0:0:0:0:
445,257,101951,6,0,L|441:200,1,56.6666634877523,2|0,3:2|0:0,0:0:0:0:
476,241,102284,6,0,L|363:230,1,113.333326975505,2|0,0:0|0:0,0:0:0:0:
290,288,102617,2,0,L|178:300,1,113.333326975505,10|2,0:0|0:0,0:0:0:0:
204,277,103173,1,2,0:0:0:0:
87,146,103284,6,2,P|122:200|186:185,1,135.999988220215,2|0,3:2|3:2,0:0:0:0:
251,129,103617,1,2,0:0:0:0:
325,172,103729,1,0,3:2:0:0:
393,115,103840,1,0,3:2:0:0:
467,158,103951,6,0,L|481:59,1,79.3333264617923,10|0,0:0|3:2,0:0:0:0:
388,215,104284,2,0,L|363:139,1,79.3333264617923,10|0,0:0|3:2,0:0:0:0:
290,224,104617,6,0,L|236:204,1,56.6666634877523,2|0,3:2|0:1,0:0:0:0:
293,200,104951,6,0,P|211:187|149:257,1,169.999990463257,2|8,0:0|0:0,0:0:0:0:
64,156,105506,2,0,P|43:100|51:42,1,118.999989692688,2|0,0:0|0:0,0:0:0:0:
51,42,105951,5,2,3:2:0:0:
202,78,106173,2,0,L|320:85,1,118.999989692688,2|0,0:0|0:0,0:0:0:0:
289,60,106617,6,0,L|396:50,1,79.3333264617923,10|0,0:0|0:0,0:0:0:0:
287,174,106951,2,0,L|394:164,1,79.3333264617923,2|0,0:0|0:0,0:0:0:0:
464,131,107284,6,0,L|454:236,1,84.9999952316285,4|0,3:2|0:0,0:0:0:0:
238,362,107840,2,0,L|234:304,1,56.6666634877523,2|8,0:0|0:0,0:0:0:0:
89,47,108173,1,2,0:0:0:0:
89,47,108284,2,0,P|59:94|63:150,1,113.333326975505,2|0,0:0|0:0,0:0:0:0:
142,198,108617,6,0,L|241:185,1,79.3333264617923,0|0,3:2|3:2,0:0:0:0:
300,244,108951,2,0,L|399:257,1,79.3333264617923,2|0,0:0|0:0,0:0:0:0:
485,214,109284,6,2,L|490:341,1,113.333326975505,10|10,0:2|0:2,0:1:0:0:
374,141,109617,2,2,L|379:268,1,113.333326975505,10|8,0:2|0:2,0:1:0:0:
450,81,109951,6,0,B|347:57|376:147|259:120,1,203.999982330323,4|8,3:2|0:0,0:0:0:0:
22,163,111284,2,0,P|65:75|162:61,1,203.999982330323,2|8,0:0|0:0,0:0:0:0:
167,164,112173,1,0,0:0:0:0:
178,181,112284,2,0,L|173:214,6,33.9999970550538,2|0|0|0|0|0|8,0:0|0:0|0:0|0:0|0:0|0:0|0:3,0:0:0:0:
274,30,112951,5,0,0:0:0:0:
282,114,113284,1,8,0:0:0:0:
354,293,113617,1,0,0:0:0:0:
362,209,113951,1,2,0:0:0:0:
461,75,114284,1,0,0:0:0:0:
469,159,114617,1,8,0:0:0:0:
254,185,114951,5,0,0:0:0:0:
233,171,115062,2,0,L|186:167,4,33.9999970550538,2|0|0|0|8,0:0|0:0|0:0|0:0|0:3,0:0:0:0:
97,306,115617,5,0,0:0:0:0:
86,224,115951,1,8,0:0:0:0:
8,136,116284,1,0,0:0:0:0:
18,54,116951,1,0,0:0:0:0:
199,181,117284,6,0,L|300:171,1,101.999991165162,8|2,0:0|0:0,0:0:0:0:
395,164,117951,1,0,3:2:0:0:
395,164,118284,6,0,B|415:130|415:130|403:68,1,101.999991165162,2|0,0:0|0:0,0:0:0:0:
221,111,118617,2,0,B|200:144|200:144|212:206,1,101.999991165162,8|0,0:0|0:0,0:0:0:0:
226,304,118951,5,0,3:2:0:0:
226,304,119173,1,0,3:2:0:0:
226,304,119506,5,10,0:0:0:0:
245,299,119617,2,0,P|278:302|313:314,1,67.9999941101077,0|0,3:2|0:0,0:0:0:0:
387,71,119840,5,2,0:0:0:0:
368,76,119951,2,0,P|334:72|299:60,1,67.9999941101077,8|0,0:0|0:0,0:0:0:0:
303,62,120173,6,0,P|315:93|317:127,1,67.9999941101077,8|0,0:0|3:2,0:0:0:0:
401,221,120506,6,0,L|409:163,1,56.6666634877523,8|4,0:0|3:2,0:0:0:0:
307,172,120951,2,0,L|225:180,1,56.6666634877523,2|0,0:0|0:0,0:0:0:0:
82,151,121284,1,8,0:0:0:0:
82,151,121617,2,0,P|96:193|97:237,1,79.3333264617923,0|0,3:2|0:0,0:0:0:0:
94,239,121951,5,2,0:0:0:0:
199,81,122173,1,0,3:2:0:0:
189,90,122284,2,0,L|195:33,1,50.9999955825808,2|0,0:0|0:0,0:0:0:0:
248,192,122506,1,0,3:2:0:0:
258,183,122617,2,0,L|337:178,1,79.3333264617923,8|0,0:0|0:0,0:0:0:0:
444,166,122951,1,2,0:0:0:0:
444,166,123284,6,0,P|458:218|449:277,1,101.999991165162,2|0,3:2|0:0,0:0:0:0:
405,356,123617,2,0,B|365:325|365:325|314:331,1,101.999991165162,2|0,0:0|0:0,0:0:0:0:
258,183,123951,2,0,B|218:214|218:214|167:207,1,101.999991165162,8|0,0:0|0:0,0:0:0:0:
167,207,124284,1,0,3:2:0:0:
85,291,124506,5,2,0:0:0:0:
83,275,124617,1,0,0:0:0:0:
198,95,124840,5,0,3:2:0:0:
196,111,124951,1,2,0:0:0:0:
319,277,125173,5,0,3:2:0:0:
317,261,125284,2,0,L|395:270,1,56.6666634877523,8|0,0:0|0:0,0:0:0:0:
218,226,125617,1,2,0:0:0:0:
218,226,125951,6,0,L|66:239,1,152.999986747742,0|0,3:2|0:0,0:0:0:0:
97,39,126617,2,0,P|106:77|110:116,1,79.3333264617923,8|0,0:0|0:0,0:0:0:0:
103,136,126951,2,0,L|142:131,1,39.6666632308961,0|0,3:2|0:0,0:0:0:0:
235,123,127173,5,2,0:0:0:0:
250,121,127284,1,0,0:0:0:0:
203,228,127506,5,0,3:2:0:0:
218,226,127617,1,2,0:0:0:0:
171,333,127840,5,0,3:2:0:0:
186,331,127951,1,10,0:0:0:0:
201,329,128284,6,0,L|304:341,1,84.9999952316285,2|0,0:0|3:2,0:0:0:0:
380,98,128951,2,0,P|403:143|399:194,1,101.999991165162,2|0,0:0|0:0,0:0:0:0:
381,173,129284,6,0,L|388:257,1,84.9999952316285,8|4,0:0|3:2,0:0:0:0:
161,327,129951,1,0,0:0:0:0:
305,326,130173,6,0,B|256:320|226:285|226:285|204:316|160:328,1,169.999990463257,2|0,3:2|3:2,0:0:0:0:
66,271,130617,1,8,0:0:0:0:
60,231,130729,1,2,0:0:0:0:
70,193,130840,1,2,0:0:0:0:
95,162,130951,1,2,0:0:0:0:
129,143,131062,2,0,L|136:88,4,33.9999970550538,0|0|0|0|4,0:0|0:0|0:0|0:0|3:2,0:0:0:0:
291,165,131951,6,0,P|259:195|197:191,1,94.4444391462539,0|0,0:0|0:0,0:0:0:0:
294,85,132617,2,0,B|346:154|311:232|311:232|351:201|403:209,1,254.999985694886,2|0,0:0|0:0,0:0:0:0:
404,126,133729,6,0,L|463:120,4,33.9999970550538,0|0|0|0|2,0:0|0:0|0:0|0:0|0:0,0:0:0:0:
353,194,135284,1,2,0:0:0:0:
274,159,136395,2,0,L|215:153,4,33.9999970550538,0|0|0|0|2,0:0|0:0|0:0|0:0|0:0,0:0:0:0:
159,236,137284,6,0,P|186:273|184:319,1,94.4444391462539,0|0,0:0|0:0,0:0:0:0:
79,223,137951,2,0,B|163:189|192:243|192:243|222:297|305:273,1,254.999985694886,2|0,0:0|0:0,0:0:0:0:
376,219,139062,6,0,L|379:166,4,33.9999970550538,0|0|0|0|2,0:0|0:0|0:0|0:0|0:0,0:0:0:0:
258,104,139951,2,0,L|264:183,1,79.3333264617923,0|2,0:0|0:0,0:0:0:0:
266,203,140284,1,0,0:0:0:0:
276,309,140506,1,2,0:0:0:0:
276,309,140951,6,0,L|163:300,1,113.333326975505,4|0,3:2|0:0,0:0:0:0:
266,203,141284,2,0,L|209:198,1,56.6666634877523,0|8,0:0|0:0,0:0:0:0:
120,192,141506,1,8,0:0:0:0:
266,202,141617,6,0,P|275:176|275:143,1,56.6666634877523,0|8,3:2|0:0,0:0:0:0:
347,94,141951,6,0,P|392:101|422:123,1,84.9999952316285,4|0,3:2|0:0,0:0:0:0:
404,329,142617,2,0,P|377:338|349:339,1,56.6666634877523,8|0,0:0|0:0,0:0:0:0:
365,316,142951,2,0,L|226:307,1,118.999989692688,0|2,3:2|0:0,0:0:0:0:
148,364,143506,5,0,3:2:0:0:
63,138,143840,1,0,3:2:0:0:
76,157,143951,2,0,P|113:173|152:172,1,79.3333264617923,8|0,0:0|0:0,0:0:0:0:
232,125,144284,2,0,P|244:87|240:43,1,79.3333264617923,2|0,0:0|0:0,0:0:0:0:
201,22,144617,6,0,B|187:181|187:181|264:169,1,237.999979385377,2|8,3:2|0:0,0:0:0:0:
264,169,145617,1,0,3:2:0:0:
327,307,145840,2,0,P|278:273|217:276,1,118.999989692688,2|0,0:0|3:2,0:0:0:0:
205,291,146284,2,0,L|105:283,1,79.3333264617923,2|0,0:0|3:2,0:0:0:0:
34,286,146617,2,0,P|27:247|31:207,1,79.3333264617923,8|0,0:0|0:0,0:0:0:0:
31,208,146951,1,0,0:0:0:0:
188,60,147173,1,2,0:0:0:0:
200,39,147284,6,0,P|209:80|203:122,1,84.9999952316285,4|0,3:2|0:0,0:0:0:0:
124,177,147951,1,8,0:0:0:0:
288,201,148284,2,0,B|227:181|201:137|201:137|169:168|123:176,1,198.333316154481,2|0,3:2|3:2,0:0:0:0:
307,97,149173,1,0,3:2:0:0:
330,94,149284,5,10,0:0:0:0:
288,201,149506,1,2,0:0:0:0:
311,198,149617,5,0,0:0:0:0:
269,305,149840,1,2,0:0:0:0:
292,302,149951,6,0,L|208:288,1,84.9999952316285,0|0,3:2|0:0,0:0:0:0:
125,333,150617,1,8,0:0:0:0:
172,195,150951,2,0,B|195:319|195:319|124:332,1,198.333316154481,2|0,3:2|3:2,0:0:0:0:
143,88,151840,5,0,3:2:0:0:
129,107,151951,2,0,P|187:99|242:125,1,118.999989692688,8|0,0:0|0:0,0:0:0:0:
281,229,152617,5,4,3:2:0:0:
457,237,153951,5,4,3:2:0:0:
407,175,154062,1,2,0:0:0:0:
329,176,154173,1,2,0:0:0:0:
282,240,154284,5,2,1:2:0:0:
310,326,154395,1,0,1:0:0:0:
369,258,154506,1,0,1:0:0:0:
296,196,154617,5,4,0:3:0:0:
256,230,154729,1,0,0:0:0:0:
203,234,154840,1,0,0:0:0:0:
159,204,154951,1,2,3:2:0:0:
141,157,155062,1,2,3:2:0:0:
157,106,155173,1,2,3:2:0:0:
198,75,155284,6,2,P|227:74|254:69,1,56.6666634877523,4|0,3:2|0:1,0:1:0:0:
124,31,155617,6,0,B|256:8|198:104|337:79,1,226.666653951009,2|0,0:0|0:0,0:0:0:0:
445,117,155951,1,8,0:0:0:0:
445,117,156173,6,0,P|468:82|474:40,1,84.9999952316285,2|0,0:0|0:0,0:0:0:0:
283,6,156617,6,2,B|287:101|287:101|334:79,1,147.333318323772,2|0,3:2|0:1,0:1:0:0:
475,217,156951,2,2,B|471:312|471:312|423:290,1,147.333318323772,0|0,0:1|0:1,0:1:0:0:
323,256,157284,1,8,0:0:0:0:
323,256,157506,6,0,L|238:261,1,84.9999952316285,2|0,0:0|0:0,0:0:0:0:
17,269,157951,6,2,B|47:244|59:205|59:205|83:264|88:346|88:346|100:313|129:285,1,288.999989299774,2|0,3:2|0:1,0:1:0:0:
324,136,158506,1,2,0:0:0:0:
324,136,158617,2,0,P|284:135|242:125,1,79.3333264617923,10|0,0:0|0:0,0:0:0:0:
144,100,158951,2,0,P|156:137|159:177,1,79.3333264617923,2|0,0:0|0:0,0:0:0:0:
157,201,159284,5,2,3:2:0:0:
328,117,159506,5,2,3:2:0:0:
480,231,159729,5,2,3:2:0:0:
460,324,159840,1,2,3:2:0:0:
387,262,159951,6,0,L|383:180,1,79.3333264617923,10|0,0:0|3:2,0:0:0:0:
364,341,160284,6,0,L|360:259,1,79.3333264617923,10|0,0:0|3:2,0:0:0:0:
199,205,160617,6,2,B|254:164|254:164|258:298,1,192.666659533183,4|0,3:2|0:1,0:1:0:0:
270,313,160951,6,0,P|227:309|188:324,1,84.9999952316285,2|8,0:0|0:0,0:0:0:0:
102,257,161506,2,0,P|86:217|89:171,1,84.9999952316285,2|0,0:0|0:0,0:0:0:0:
125,46,161951,6,2,B|158:97|158:97|242:78,1,147.333318323772,2|0,3:2|0:1,0:1:0:0:
347,73,162284,2,2,B|380:22|380:22|464:40,1,147.333318323772,0|0,0:1|0:1,0:1:0:0:
484,146,162617,1,8,0:0:0:0:
484,146,162840,6,0,P|466:183|466:231,1,84.9999952316285,2|2,0:0|0:0,0:0:0:0:
354,319,163284,6,0,P|330:267|337:211,1,113.333326975505,2|0,3:2|0:0,0:0:0:0:
349,179,163617,2,0,P|301:214|240:217,1,118.999989692688,2|8,0:0|0:0,0:0:0:0:
240,29,164173,1,2,0:0:0:0:
237,56,164284,1,0,0:0:0:0:
138,122,164506,1,2,0:0:0:0:
135,149,164617,5,0,3:2:0:0:
428,98,164840,1,0,3:0:0:0:
512,117,164951,5,2,0:0:0:0:
308,181,165173,1,0,3:2:0:0:
393,177,165284,6,8,L|326:164,1,56.6666634877523,10|0,0:0|0:0,0:0:0:0:
188,264,165506,1,8,0:0:0:0:
273,260,165617,6,8,L|206:247,1,56.6666634877523,10|2,0:0|0:0,0:0:0:0:
68,347,165840,1,10,0:0:0:0:
153,343,165951,6,10,L|86:330,1,56.6666634877523,12|0,3:2|0:1,0:1:0:0:
68,347,166284,6,0,B|149:341|175:274|175:274|190:324|242:346,1,226.666653951009,2|0,0:0|0:0,0:0:0:0:
500,220,166617,1,8,0:0:0:0:
500,220,166840,6,0,P|457:221|416:210,1,84.9999952316285,2|0,0:0|0:0,0:0:0:0:
277,248,167284,6,2,B|317:213|317:213|305:119,1,147.333318323772,2|0,3:2|0:1,0:1:0:0:
149,7,167617,2,2,B|109:42|109:42|120:135,1,147.333318323772,0|0,0:1|0:1,0:1:0:0:
91,250,167951,1,8,0:0:0:0:
91,250,168173,6,0,P|129:233|171:231,1,84.9999952316285,2|0,0:0|0:0,0:0:0:0:
400,362,168617,6,2,B|333:341|322:268|345:233|345:233|343:309|242:297,1,288.999989299774,2|0,3:2|0:1,0:1:0:0:
434,179,169173,1,2,0:0:0:0:
434,179,169284,2,0,P|442:217|441:257,1,79.3333264617923,10|0,0:0|0:0,0:0:0:0:
258,170,169617,2,0,P|249:131|250:91,1,79.3333264617923,2|0,0:0|0:0,0:0:0:0:
269,69,169951,5,2,3:2:0:0:
337,246,170173,5,2,3:2:0:0:
172,341,170395,5,2,3:2:0:0:
88,296,170506,1,2,3:2:0:0:
168,245,170617,6,0,L|246:258,1,79.3333264617923,10|0,0:0|3:2,0:0:0:0:
88,208,170951,6,0,L|166:221,1,79.3333264617923,10|0,0:0|3:2,0:0:0:0:
5,253,171284,6,2,B|71:201|71:201|44:95,1,192.666659533183,4|0,3:2|0:1,0:1:0:0:
151,46,171617,6,0,L|143:108,1,56.6666634877523,2|0,0:0|0:0,0:0:0:0:
151,46,171951,1,8,0:0:0:0:
202,177,172173,2,0,L|215:282,1,84.9999952316285,2|0,0:0|0:0,0:0:0:0:
139,358,172617,6,2,P|93:301|96:229,1,147.333318323772,2|0,3:2|0:1,0:1:0:0:
285,95,172951,2,2,P|330:151|327:223,1,147.333318323772,0|0,0:1|0:1,0:1:0:0:
290,299,173284,1,8,0:0:0:0:
239,180,173506,2,0,B|327:165|312:228|401:217,1,169.999990463257,2|0,0:0|0:0,0:0:0:0:
486,188,173951,6,0,B|413:144|413:144|433:295,1,237.999979385377,2|8,3:2|0:0,0:0:0:0:
486,188,174840,1,2,0:0:0:0:
486,188,175284,6,0,L|404:193,1,79.3333264617923,0|0,3:2|3:2,0:0:0:0:
379,275,175617,1,0,3:2:0:0:
284,75,175840,5,0,3:2:0:0:
257,158,175951,2,2,L|175:153,1,79.3333264617923,10|10,0:2|0:2,0:1:0:0:
68,217,176284,6,2,L|57:104,1,113.333326975505,10|10,0:2|0:2,0:1:0:0:
70,85,176617,2,0,L|73:124,16,29.7499974231721,4|0|0|0|0|0|0|0|0|0|0|0|0|0|0|0|0,0:0|0:0|0:0|0:0|0:0|0:0|0:0|0:0|0:0|0:0|0:0|0:0|0:0|0:0|0:0|0:0|0:0,0:0:0:0:
170,100,178284,6,0,L|259:110,1,84.9999952316285
344,117,178951,1,2,0:0:0:0:
344,117,179284,2,0,P|286:83|282:201,1,229.499980121613,4|0,0:0|0:0,0:0:0:0:
448,233,180062,6,0,L|452:287,1,39.6666632308961,2|0,0:0|0:0,0:0:0:0:
349,214,180506,6,0,L|353:268,1,39.6666632308961,2|8,0:0|0:0,0:0:0:0:
258,250,180951,6,0,L|262:304,1,39.6666632308961,2|0,0:0|0:0,0:0:0:0:
159,231,181395,6,0,L|163:285,1,39.6666632308961,2|0,0:0|0:0,0:0:0:0:
109,349,181617,1,4,0:3:0:0:
109,349,181951,6,0,P|169:300|246:307,1,158.666652923585,6|2,0:0|0:0,0:0:0:0:
282,332,182506,1,0,0:0:0:0:
282,332,182617,2,0,L|328:326,7,29.7499974231721,0|0|0|0|0|0|0|0,0:0|0:0|0:0|0:0|0:0|0:0|0:0|0:0,0:0:0:0:
382,280,183284,2,0,L|421:283,12,21.2499988079071,8|0|0|0|0|0|0|0|0|0|0|0|0,0:0|0:0|0:0|0:0|0:0|0:0|0:0|0:0|0:0|0:0|0:0|0:0|0:0,0:0:0:0:
477,319,184617,6,0,P|435:272|450:182,1,141.666658719381,8|0,0:0|0:0,0:0:0:0:
453,177,185284,2,0,B|393:206|377:168|313:197,1,141.666658719381,2|0,0:0|0:0,0:0:0:0:
235,241,185951,5,4,0:0:0:0:
235,241,186451,2,0,B|184:211|167:150|182:94|182:94|158:164|90:171,1,294.666650136312,2|0,0:0|0:3,0:0:0:0:
92,171,187284,6,0,L|278:145,1,181.333323160807,2|2,0:0|0:0,0:0:0:0:
361,128,187840,1,0,0:0:0:0:
361,128,187951,2,0,P|380:185|376:244,1,118.999989692688,2|0,0:0|0:0,0:0:0:0:
217,353,188451,6,0,P|203:305|206:253,1,101.999991165162,2|0,0:0|0:0,0:0:0:0:
222,95,188951,2,0,P|221:124|219:154,1,59.4999948463442,2|0,0:0|0:0,0:0:0:0:
74,221,189284,2,0,P|99:206|126:193,1,59.4999948463442,2|0,0:0|0:0,0:0:0:0:
256,285,189617,2,0,P|230:270|205:253,1,59.4999948463442,2|0,0:0|0:0,0:0:0:0:
160,330,189951,6,0,P|237:268|335:282,1,203.999988555908,2|0,0:0|0:0,0:0:0:0:
421,339,190617,2,0,P|447:276|441:196,1,135.999992370606,2|0,0:0|0:0,0:0:0:0:
242,223,191117,6,0,L|232:104,1,118.999989692688,2|0,0:0|0:0,0:0:0:0:
296,43,191617,2,0,L|372:54,1,59.4999948463442,2|0,0:0|0:0,0:0:0:0:
148,170,191951,2,0,L|79:187,1,59.4999948463442,2|0,0:0|0:0,0:0:0:0:
329,254,192284,2,0,L|401:269,1,59.4999948463442,2|0,0:0|0:0,0:0:0:0:
353,341,192617,6,0,L|338:171,1,169.999990463257,2|0,0:0|0:0,0:0:0:0:
360,80,193117,1,2,0:0:0:0:
276,35,193284,2,0,P|194:31|136:90,1,169.999990463257,2|0,0:0|0:0,0:0:0:0:
94,174,193784,6,0,P|102:213|105:260,1,84.9999952316285,0|2,0:0|0:0,0:0:0:0:
200,297,194117,1,0,0:0:0:0:
271,232,194284,2,0,L|361:212,1,84.9999952316285,2|0,0:0|0:0,0:0:0:0:
430,242,194617,6,0,B|295:273|325:167|186:203,1,254.999985694886,2|0,0:0|0:0,0:0:0:0:
99,262,195284,6,0,L|83:135,1,127.499992847443,4|2,3:2|0:0,0:0:0:0:
343,208,196617,2,0,L|353:123,1,84.9999952316285,4|0,3:2|0:0,0:0:0:0:
213,107,197062,5,2,0:0:0:0:
223,126,197173,1,8,0:0:0:0:
234,145,197284,2,0,L|122:133,1,89.2499922695163,4|0,3:2|0:0,0:0:0:0:
92,217,197617,2,0,L|0:227,1,79.3333264617923,2|0,0:0|0:0,0:0:0:0:
13,225,197951,6,0,P|91:221|145:277,1,158.666652923585,4|0,3:2|0:0,0:0:0:0:
225,223,198284,6,0,P|233:261|235:301,1,79.3333264617923,2|0,0:0|0:0,0:0:0:0:
305,353,198617,2,0,P|344:351|381:337,1,79.3333264617923,10|0,0:0|0:0,0:0:0:0:
428,266,198951,1,2,0:0:0:0:
341,160,199173,1,2,0:0:0:0:
387,88,199284,6,0,P|324:135|244:135,1,158.666652923585,2|0,3:2|0:0,0:0:0:0:
67,225,199617,6,0,P|55:186|51:147,1,79.3333264617923,2|0,0:0|0:0,0:0:0:0:
211,70,199951,2,0,P|222:108|226:147,1,79.3333264617923,10|0,0:0|0:0,0:0:0:0:
200,226,200284,1,2,0:0:0:0:
223,305,200395,1,2,0:0:0:0:
298,339,200506,1,2,0:0:0:0:
374,306,200617,6,0,B|297:292|310:354|223:337,1,158.666652923585,2|0,3:2|0:0,0:0:0:0:
286,218,200951,6,0,P|246:211|208:200,1,79.3333264617923,2|0,0:0|0:0,0:0:0:0:
117,233,201284,2,0,P|96:169|97:134,1,79.3333264617923,10|0,0:0|0:0,0:0:0:0:
111,62,201617,1,2,0:0:0:0:
182,113,201729,1,2,0:0:0:0:
200,29,201840,1,2,0:0:0:0:
272,94,201951,6,0,B|325:91|325:91|359:108|359:108|402:92|402:92|438:115,2,181.333323160807,2|2|0,3:2|3:2|3:2,0:0:0:0:
305,5,202506,5,0,3:2:0:0:
367,68,202617,2,0,P|368:102|363:136,1,67.9999941101077,8|0,0:0|0:0,0:0:0:0:
206,379,202840,5,0,3:2:0:0:
144,316,202951,2,0,P|143:282|148:248,1,67.9999941101077,8|0,0:0|0:0,0:0:0:0:
148,249,203173,1,0,0:0:0:0:
213,171,203284,6,0,P|152:220|69:212,1,158.666652923585,2|0,3:2|0:0,0:0:0:0:
137,33,203617,6,0,P|175:43|214:47,1,79.3333264617923,2|0,0:0|0:0,0:0:0:0:
302,32,203951,2,0,P|312:70|316:109,1,79.3333264617923,10|0,0:0|0:0,0:0:0:0:
303,117,204284,2,0,L|294:211,1,79.3333264617923,2|0,0:0|0:0,0:0:0:0:
350,280,204617,6,0,P|291:228|210:227,1,158.666652923585,2|0,3:2|0:0,0:0:0:0:
147,160,204951,6,0,P|126:193|117:232,1,79.3333264617923,2|0,0:0|0:0,0:0:0:0:
264,307,205284,1,10,0:0:0:0:
264,307,205506,2,0,P|292:255|296:196,1,118.999989692688,2|0,0:0|0:0,0:0:0:0:
259,220,205951,6,0,B|399:190|329:296|480:265,1,237.999979385377,2|0,3:2|0:0,0:0:0:0:
478,62,206617,5,10,0:0:0:0:
478,61,206840,2,0,P|426:90|367:91,1,118.999989692688,2|0,0:0|0:0,0:0:0:0:
311,34,207284,6,0,L|319:158,1,124.66666347758,2|0,3:2|3:2,0:0:0:0:
137,61,207840,6,0,L|132:106,1,33.9999970550538,0|0,3:2|0:0,0:0:0:0:
148,111,207951,2,2,L|65:117,1,67.9999941101077,10|0,0:2|0:1,0:1:0:0:
271,274,208173,5,8,0:0:0:0:
185,280,208284,2,2,L|102:286,1,67.9999941101077,10|0,0:2|0:1,0:1:0:0:
134,197,208506,1,8,0:0:0:0:
27,261,208617,6,0,L|193:281,1,158.666652923585,4|0,3:2|0:0,0:0:0:0:
448,116,208951,6,0,P|408:123|369:124,1,79.3333264617923,2|0,0:0|0:0,0:0:0:0:
286,152,209284,2,0,P|275:190|273:229,1,79.3333264617923,10|0,0:0|0:0,0:0:0:0:
398,355,209784,1,2,0:0:0:0:
348,276,209951,6,0,B|271:235|266:289|193:253,1,158.666652923585,2|0,3:2|0:0,0:0:0:0:
115,309,210284,6,0,P|100:272|96:224,1,79.3333264617923,2|0,0:0|0:0,0:0:0:0:
183,59,210617,2,0,P|197:95|201:143,1,79.3333264617923,10|0,0:0|0:0,0:0:0:0:
181,158,210951,2,0,L|272:147,1,79.3333264617923,2|0,0:0|0:0,0:0:0:0:
394,305,211284,6,0,P|338:251|260:246,1,158.666652923585,2|0,3:2|0:0,0:0:0:0:
179,298,211617,2,0,L|173:337,2,39.6666632308961,2|2|2,0:0|0:0|0:0,0:0:0:0:
99,217,211951,6,0,L|42:235,1,56.6666634877523,10|0,0:0|0:0,0:0:0:0:
61,77,212173,2,0,L|115:96,1,56.6666634877523,2|0,0:0|0:0,0:0:0:0:
267,117,212395,1,2,0:0:0:0:
299,38,212506,1,2,0:0:0:0:
213,47,212617,6,0,B|237:85|237:85|215:115|215:115|229:148|229:148|225:222,2,181.333323160807,2|2|0,3:2|3:2|3:2,0:0:0:0:
127,16,213173,5,0,3:2:0:0:
85,93,213284,2,0,P|82:126|85:160,1,67.9999941101077,8|0,0:0|0:0,0:0:0:0:
324,348,213506,5,0,3:2:0:0:
366,270,213617,2,0,P|368:236|365:202,1,67.9999941101077,8|0,0:0|0:0,0:0:0:0:
365,202,213840,1,0,0:0:0:0:
301,144,213951,6,0,B|378:130|365:192|452:175,1,158.666652923585,2|0,3:2|0:0,0:0:0:0:
433,25,214284,6,0,P|396:41|357:46,1,79.3333264617923,2|0,0:0|0:0,0:0:0:0:
274,22,214617,1,10,0:0:0:0:
266,224,214840,1,2,0:0:0:0:
208,159,214951,2,0,P|171:142|132:137,1,79.3333264617923,2|0,0:0|0:0,0:0:0:0:
63,88,215284,6,0,P|110:150|112:230,1,158.666652923585,2|0,3:2|0:0,0:0:0:0:
194,364,215617,6,0,P|193:324|202:285,1,79.3333264617923,2|0,0:0|0:0,0:0:0:0:
266,224,215951,1,10,0:0:0:0:
494,244,216173,1,2,0:0:0:0:
423,194,216284,2,0,P|414:155|414:115,1,79.3333264617923,2|0,0:0|0:0,0:0:0:0:
341,51,216617,6,0,P|258:53|201:113,1,169.999990463257,2|0,3:2|0:0,0:0:0:0:
100,56,217284,2,0,P|90:116|107:173,1,118.999989692688,10|0,0:0|0:0,0:0:0:0:
191,265,217840,1,2,0:0:0:0:
266,216,217951,6,0,L|390:225,1,124.66666347758,2|0,3:2|3:2,0:0:0:0:
413,229,218284,1,2,0:0:0:0:
359,50,218506,5,0,3:2:0:0:
359,50,218617,2,2,L|352:117,1,67.9999941101077,10|0,0:2|0:1,0:1:0:0:
273,284,218840,5,8,0:0:0:0:
273,284,218951,2,2,L|266:216,1,67.9999941101077,10|0,0:2|0:1,0:1:0:0:
266,217,219173,2,0,L|198:212,1,67.9999941101077,8|2,0:0|0:0,0:0:0:0:
256,192,219395,12,2,220951,0:0:0:0:
464,142,221951,5,4,0:0:0:0:
395,98,223284,1,2,0:0:0:0:
317,124,224617,1,2,0:0:0:0:
270,191,225951,5,2,0:0:0:0:
270,191,226617,1,2,0:0:0:0:
189,205,227284,5,4,0:0:0:0:
135,143,228617,1,2,0:0:0:0:
156,64,229951,1,2,0:0:0:0:
235,44,231284,5,2,0:0:0:0:
235,44,231951,2,0,L|302:49,1,67.9999941101077,2|0,0:0|0:0,0:0:0:0:
509,151,232284,2,0,L|441:145,1,67.9999941101077,2|0,0:0|0:0,0:0:0:0:
372,96,232617,5,4,3:2:0:0:
372,96,233173,2,0,L|359:211,1,101.999991165162,2|0,0:0|0:0,0:0:0:0:
268,315,233840,1,0,0:0:0:0:
270,301,233951,5,2,0:0:0:0:
224,233,234284,1,2,0:0:0:0:
143,223,234617,1,2,0:0:0:0:
143,223,234840,2,0,L|75:233,1,67.9999941101077,2|0,0:0|0:0,0:0:0:0:
130,108,235173,1,2,0:0:0:0:
118,120,235284,6,0,B|197:128|197:128|226:165|226:165|305:174,1,198.333316154481,2|2,0:0|0:0,0:0:0:0:
405,123,236173,1,2,0:0:0:0:
495,200,236506,1,2,0:0:0:0:
480,191,236617,6,0,L|488:296,1,101.999991165162,2|0,0:0|0:0,0:0:0:0:
400,309,237062,1,2,0:0:0:0:
397,325,237173,1,2,0:0:0:0:
394,341,237284,2,0,L|296:351,2,67.9999941101077,2|2|0,0:0|0:0|0:0,0:0:0:0:
480,191,237951,6,0,L|378:200,1,101.999991165162,4|2,3:2|0:0,0:0:0:0:
291,134,238617,2,0,P|257:129|224:120,1,67.9999941101077,2|2,0:0|0:0,0:0:0:0:
85,224,239173,1,2,0:0:0:0:
101,221,239284,5,2,0:0:0:0:
197,254,239617,1,2,0:0:0:0:
214,354,239951,1,2,0:0:0:0:
214,354,240173,2,0,P|171:355|132:372,1,84.9999952316285,2|8,0:0|0:0,0:0:0:0:
197,254,240617,6,0,B|321:234|299:320|411:304,1,226.666653951009,4|0,3:2|3:2,0:0:0:0:
410,305,242284,2,0,L|404:236,1,56.6666634877523,2|0,0:0|0:0,0:0:0:0:
399,125,242840,1,0,0:0:0:0:
391,109,242951,2,0,L|382:221,1,113.333326975505,4|0,0:0|0:0,0:0:0:0:
405,248,243284,6,2,P|380:234|352:231,1,56.6666634877523,4|0,3:2|0:1,0:1:0:0:
456,229,243617,6,0,B|400:229|373:189|373:189|385:265|336:311,1,226.666653951009,2|0,0:0|0:0,0:0:0:0:
214,264,243951,1,8,0:0:0:0:
214,264,244173,6,0,L|107:253,1,84.9999952316285,2|0,0:0|0:0,0:0:0:0:
45,319,244617,6,2,B|12:273|12:273|29:183,1,147.333318323772,2|0,3:2|0:1,0:1:0:0:
178,29,244951,2,2,B|211:75|211:75|193:164,1,147.333318323772,0|0,0:1|0:1,0:1:0:0:
303,303,245284,1,8,0:0:0:0:
303,303,245506,6,0,P|345:304|383:286,1,84.9999952316285,2|0,0:0|0:0,0:0:0:0:
372,109,245951,6,2,B|409:58|363:3|282:15|255:95|325:197,1,288.999989299774,2|0,3:2|0:1,0:1:0:0:
10,127,246506,1,2,0:0:0:0:
10,127,246617,2,0,P|49:126|88:118,1,79.3333264617923,10|0,0:0|0:0,0:0:0:0:
175,151,246951,2,0,P|188:188|192:231,1,79.3333264617923,2|0,0:0|0:0,0:0:0:0:
184,251,247284,5,2,3:2:0:0:
272,82,247506,5,2,3:2:0:0:
461,102,247729,5,2,3:2:0:0:
491,192,247840,1,2,3:2:0:0:
396,174,247951,6,0,L|298:182,1,79.3333264617923,10|0,0:0|3:2,0:0:0:0:
491,192,248284,6,0,L|393:200,1,79.3333264617923,10|0,0:0|3:2,0:0:0:0:
221,234,248617,6,2,B|262:191|266:128|266:128|278:161|317:180,1,192.666659533183,4|0,3:2|0:1,0:1:0:0:
317,180,248951,6,0,L|228:164,1,84.9999952316285,2|8,0:0|0:0,0:0:0:0:
153,79,249506,2,0,P|114:94|64:98,1,84.9999952316285,2|0,0:0|0:0,0:0:0:0:
57,285,249951,6,2,B|157:306|157:306|187:272,1,147.333318323772,2|0,3:2|0:1,0:1:0:0:
233,165,250284,2,2,B|333:144|333:144|363:177,1,147.333318323772,0|0,0:1|0:1,0:1:0:0:
442,249,250617,1,8,0:0:0:0:
442,249,250840,6,0,P|465:214|470:172,1,84.9999952316285,2|2,0:0|0:0,0:0:0:0:
317,44,251284,6,0,P|349:88|355:146,1,113.333326975505,2|0,3:2|0:0,0:0:0:0:
363,177,251617,2,0,P|312:146|254:146,1,118.999989692688,2|8,0:0|0:0,0:0:0:0:
178,285,252173,5,2,0:0:0:0:
206,280,252284,1,0,0:0:0:0:
312,332,252506,1,2,0:0:0:0:
340,327,252617,5,0,3:2:0:0:
495,105,252840,1,0,3:2:0:0:
506,192,252951,5,2,0:0:0:0:
352,90,253173,1,0,3:2:0:0:
363,177,253284,6,0,L|368:121,1,56.6666634877523,10|0,0:0|0:0,0:0:0:0:
209,75,253506,1,8,0:0:0:0:
220,162,253617,6,0,L|225:106,1,56.6666634877523,10|2,0:0|0:0,0:0:0:0:
66,60,253840,1,10,0:0:0:0:
77,147,253951,6,2,L|82:91,1,56.6666634877523,4|0,3:2|0:1,0:1:0:0:
86,202,254284,6,0,B|66:59|66:59|94:88|137:99,1,226.666653951009,2|0,0:0|0:0,0:0:0:0:
220,162,254617,1,8,0:0:0:0:
220,162,254840,6,0,P|261:157|299:130,1,84.9999952316285,2|0,0:0|0:0,0:0:0:0:
398,44,255284,6,2,B|406:142|406:142|439:106,1,147.333318323772,2|0,3:2|0:1,0:1:0:0:
345,236,255617,2,2,B|337:334|337:334|303:298,1,147.333318323772,0|0,0:1|0:1,0:1:0:0:
205,273,255951,1,8,0:0:0:0:
205,273,256173,6,0,L|103:268,1,84.9999952316285,2|0,0:0|0:0,0:0:0:0:
8,71,256617,6,2,B|96:42|119:107|119:107|149:180|256:132,1,288.999989299774,2|0,3:2|0:1,0:1:0:0:
471,53,257173,1,2,0:0:0:0:
471,53,257284,2,0,P|487:90|486:136,1,79.3333264617923,10|0,0:0|0:0,0:0:0:0:
343,283,257617,2,0,P|327:246|328:200,1,79.3333264617923,2|0,0:0|0:0,0:0:0:0:
348,181,257951,5,2,3:2:0:0:
215,44,258173,5,2,3:2:0:0:
35,105,258395,5,2,3:2:0:0:
70,193,258506,1,2,3:2:0:0:
129,118,258617,6,0,L|114:39,1,79.3333264617923,10|0,0:0|3:2,0:0:0:0:
156,124,258951,6,0,L|171:202,1,79.3333264617923,10|0,0:0|3:2,0:0:0:0:
35,105,259284,6,2,B|143:88|99:165|214:149,1,192.666659533183,4|0,3:2|0:1,0:1:0:0:
288,96,259617,6,0,L|353:90,1,56.6666634877523,2|0,0:0|0:0,0:0:0:0:
214,149,259951,1,8,0:0:0:0:
328,122,260173,2,0,L|428:136,1,84.9999952316285,2|0,0:0|0:0,0:0:0:0:
477,66,260617,6,2,B|514:107|514:107|498:197,1,147.333318323772,2|0,3:2|0:1,0:1:0:0:
383,352,260951,2,2,B|346:311|346:311|361:220,1,147.333318323772,0|0,0:1|0:1,0:1:0:0:
328,122,261284,1,8,0:0:0:0:
328,122,261506,2,0,P|245:115|181:168,1,169.999990463257,2|0,0:0|0:0,0:0:0:0:
96,228,261951,6,0,P|88:185|72:148,2,79.3333264617923,2|2|0,3:2|0:0|0:0,0:0:0:0:
4,256,262617,2,0,B|141:239|85:335|223:319,1,237.999979385377,10|0,0:0|3:2,0:0:0:0:
402,25,263506,5,0,3:2:0:0:
420,110,263617,2,0,L|313:95,1,79.3333264617923,0|0,3:2|3:2,0:0:0:0:
172,141,263951,6,2,L|250:152,1,79.3333264617923,10|10,0:2|0:2,0:1:0:0:
190,226,264284,2,2,L|321:245,1,113.333326975505,10|10,0:2|0:2,0:1:0:0:
392,287,264617,6,0,P|438:217|432:134,1,169.999990463257,4|2,3:1|0:0,0:0:0:0:
224,103,265284,1,10,0:0:0:0:
221,19,265506,2,0,L|225:129,1,84.9999952316285,2|0,0:0|0:0,0:0:0:0:
136,119,265951,6,0,L|248:132,1,113.333326975505,2|0,3:2|0:0,0:0:0:0:
279,221,266284,2,0,L|166:207,1,113.333326975505,2|0,0:0|0:0,0:0:0:0:
84,275,266617,1,10,0:0:0:0:
72,192,266840,2,0,P|81:233|84:275,1,84.9999952316285,2|0,0:0|0:0,0:0:0:0:
172,326,267284,5,2,3:2:0:0:
279,221,267451,1,2,0:0:0:0:
374,262,267617,2,0,P|398:211|399:155,1,113.333326975505,2|0,0:0|0:0,0:0:0:0:
352,75,267951,2,0,L|427:66,2,56.6666634877523,10|2|0,0:0|0:0|0:0,0:0:0:0:
213,157,268284,2,0,L|138:148,2,56.6666634877523,2|2|0,0:0|0:0|0:0,0:0:0:0:
279,221,268617,6,0,L|284:346,2,113.333326975505,2|0|0,3:2|3:2|3:2,0:0:0:0:
295,58,269173,1,0,3:2:0:0:
277,43,269284,6,0,L|209:35,1,67.9999941101077,10|0,0:0|0:0,0:0:0:0:
209,35,269506,2,0,P|215:68|217:102,1,67.9999941101077,0|8,3:2|0:0,0:0:0:0:
94,245,269840,1,2,0:0:0:0:
114,253,269951,6,0,L|105:74,1,169.999990463257,0|2,3:2|0:0,0:0:0:0:
345,112,270617,1,10,0:0:0:0:
359,29,270840,2,0,P|349:70|345:112,1,84.9999952316285,2|0,0:0|0:0,0:0:0:0:
402,244,271284,5,2,3:2:0:0:
478,179,271451,1,2,0:0:0:0:
433,85,271617,2,0,B|349:56|358:118|261:86,1,169.999990463257,2|8,0:0|0:0,0:0:0:0:
106,82,272173,2,0,P|129:117|135:158,1,84.9999952316285,2|0,0:0|0:0,0:0:0:0:
23,51,272617,6,0,P|105:47|158:109,1,169.999990463257,2|0,3:2|0:0,0:0:0:0:
281,188,273173,1,2,0:0:0:0:
291,167,273284,2,0,P|295:139|298:110,1,56.6666634877523,8|0,0:0|0:0,0:0:0:0:
288,91,273506,2,0,L|379:85,1,84.9999952316285,2|0,0:0|0:0,0:0:0:0:
463,80,273951,5,0,3:2:0:0:
418,202,274173,1,0,3:2:0:0:
408,187,274284,5,2,0:0:0:0:
363,309,274506,1,0,3:2:0:0:
353,294,274617,6,2,L|431:304,1,79.3333264617923,10|10,0:2|0:2,0:1:0:0:
408,187,274951,2,2,L|486:197,1,79.3333264617923,10|10,0:2|0:2,0:1:0:0:
335,87,275284,6,0,P|252:80|189:134,1,169.999990463257,4|2,3:2|0:0,0:0:0:0:
346,327,275951,1,10,0:0:0:0:
262,338,276173,2,0,L|371:324,1,84.9999952316285,2|0,0:0|0:0,0:0:0:0:
443,346,276617,6,0,P|462:294|461:238,1,113.333326975505,2|0,3:2|0:0,0:0:0:0:
456,220,276951,1,2,0:0:0:0:
361,70,277173,1,2,0:0:0:0:
356,86,277284,1,8,0:0:0:0:
351,102,277506,6,0,L|266:112,1,84.9999952316285,2|0,0:0|0:0,0:0:0:0:
90,197,277951,6,0,B|180:180|166:243|252:227,1,169.999990463257,2|0,3:2|0:0,0:0:0:0:
354,69,278617,1,10,0:0:0:0:
438,78,278840,2,0,P|395:79|354:69,1,84.9999952316285,2|0,0:0|0:0,0:0:0:0:
256,123,279284,6,0,P|224:78|222:20,2,113.333326975505,0|0|0,3:2|3:2|3:2,0:0:0:0:
277,253,279840,1,0,3:2:0:0:
293,241,279951,6,0,P|326:240|363:247,1,67.9999941101077,10|0,0:0|0:0,0:0:0:0:
360,246,280173,2,2,L|353:168,1,67.9999941101077,0|10,3:2|0:0,0:0:0:0:
394,59,280506,1,2,0:0:0:0:
406,73,280617,6,0,B|328:57|330:115|241:96,1,169.999990463257,0|2,3:2|0:0,0:0:0:0:
83,117,281284,1,8,0:0:0:0:
72,45,281506,1,2,0:0:0:0:
75,61,281617,2,0,L|86:138,1,56.6666634877523,2|0,0:0|0:0,0:0:0:0:
37,211,281951,6,0,P|113:212|186:287,2,169.999990463257,2|2|8,3:2|0:0|0:0,0:0:0:0:
187,130,282840,1,2,0:0:0:0:
203,127,282951,2,0,L|280:116,1,56.6666634877523,2|0,0:0|0:0,0:0:0:0:
477,348,283284,6,0,B|320:371|394:245|272:190|189:246,1,339.999980926514,2|8,3:2|0:0,0:0:0:0:
190,246,284173,1,2,0:0:0:0:
146,29,284617,5,0,3:2:0:0:
288,66,284840,1,0,3:2:0:0:
282,49,284951,5,0,0:0:0:0:
424,87,285173,1,0,3:2:0:0:
419,70,285284,6,2,L|412:165,1,79.3333264617923,10|10,0:2|0:2,0:1:0:0:
282,49,285617,2,2,L|275:144,1,79.3333264617923,10|10,0:2|0:2,0:1:0:0:
266,228,285951,1,0,0:0:0:0:
266,228,286705,6,0,P|220:197|125:300,1,203.999982330323,2|8,0:0|0:0,0:0:0:0:
464,244,289362,6,0,L|461:283,1,39.6666632308961,2|0,0:0|0:0,0:0:0:0:
365,263,289816,6,0,L|362:302,1,39.6666632308961,2|8,0:0|0:0,0:0:0:0:
274,227,290271,6,0,L|271:266,1,39.6666632308961,2|0,0:0|0:0,0:0:0:0:
175,246,290725,6,0,L|172:285,1,39.6666632308961,2|0,0:0|0:0,0:0:0:0:
50,182,290952,6,0,L|114:175,1,59.4999948463442,8|0,0:3|0:0,0:0:0:0:
128,49,291285,2,0,L|201:58,1,59.4999948463442,4|0,0:3|0:0,0:0:0:0:
220,188,291618,2,0,L|279:182,1,39.6666632308961,2|0,0:0|0:0,0:0:0:0:
309,88,291983,2,0,L|376:95,2,39.6666632308961,2|0|0,0:0|0:0|0:0,0:0:0:0:
425,146,292284,2,0,L|478:140,16,29.7499974231721,2|0|0|0|0|0|0|0|0|0|0|0|0|0|0|0|0,0:0|0:0|0:0|0:0|0:0|0:0|0:0|0:0|0:0|0:0|0:0|0:0|0:0|0:0|0:0|0:0|0:0,0:0:0:0:
425,146,293953,5,8,0:0:0:0:
352,244,294286,2,0,L|348:294,2,29.7499974231721,0|0|0,0:0|0:0|0:0,0:0:0:0:
204,145,294786,2,0,L|206:198,5,29.7499974231721,0|0|0|0|0|0,0:0|0:0|0:0|0:0|0:0|0:0,0:0:0:0:
204,145,295286,1,8,0:0:0:0:
317,90,295453,2,0,L|311:161,10,42.4999976158143,0|0|0|0|0|0|0|0|0|0|2,0:0|0:0|0:0|0:0|0:0|0:0|0:0|0:0|0:0|0:0|0:0,0:0:0:0:
302,221,296619,5,8,0:3:0:0:
223,157,297501,5,2,0:0:0:0:
127,188,298245,5,2,0:0:0:0:
91,272,298949,5,2,0:0:0:0:
145,355,299615,5,2,0:0:0:0:
247,354,300408,5,2,0:0:0:0:
315,282,301074,6,0,P|397:292|449:356,1,169.999990463257,2|2,0:0|0:0,0:0:0:0:
427,188,301942,6,0,L|430:156,2,28.3333317438762,2|0|0,0:0|0:0|0:0,0:0:0:0:
157,228,304820,5,2,0:0:0:0:
381,301,306371,5,2,0:0:0:0:
260,342,308492,6,0,L|262:291,1,42.4999976158143,4|2,0:0|0:0,0:0:0:0:
256,192,308742,12,0,311825,0:0:0:0:
170,111,312204,5,2,0:0:0:0:
406,208,312973,5,2,0:0:0:0:
81,272,314685,5,6,0:0:0:0:
256,192,314774,12,0,320433,0:0:0:0:
