osu file format v14

[General]
AudioFilename: audio.mp3
AudioLeadIn: 0
PreviewTime: 66461
Countdown: 0
SampleSet: None
StackLeniency: 0.7
Mode: 3
LetterboxInBreaks: 0
SpecialStyle: 0
WidescreenStoryboard: 1

[Editor]
Bookmarks: 49075
DistanceSpacing: 1
BeatDivisor: 3
GridSize: 8
TimelineZoom: 1.400006

[Metadata]
Title:Noel
TitleUnicode:Noël
Artist:hikagyaku ri zu mu
ArtistUnicode:非可逆リズム
Creator:-WMG-
Version:Lv.9 Hard
Source:voez
Tags:
BeatmapID:1558129
BeatmapSetID:661056

[Difficulty]
HPDrainRate:7
CircleSize:4
OverallDifficulty:7
ApproachRate:5
SliderMultiplier:1.4
SliderTickRate:1

[Events]
//Background and Video events
0,0,"background.jpg",0,0
//Break Periods
//Storyboard Layer 0 (Background)
//Storyboard Layer 1 (Fail)
//Storyboard Layer 2 (Pass)
//Storyboard Layer 3 (Foreground)
//Storyboard Sound Samples

[TimingPoints]
258,272.727272727273,3,2,0,100,1,0
14167,-100,3,2,0,100,0,1
25621,-100,3,2,0,100,0,0
26985,272.727272727273,3,2,0,100,1,0
33803,272.727272727273,3,2,0,100,1,0
52075,-10,3,2,0,100,0,0
52280,-500,3,2,0,100,0,0
52416,-83.3333333333333,3,2,0,100,0,0
52621,272.727272727273,3,2,0,100,1,0
73075,-100,3,2,0,100,0,1
78802,-111.111111111111,3,2,0,100,0,0
92711,-100,3,2,0,100,0,1
102530,-10,3,2,0,100,0,0
103075,-100,3,2,0,100,0,1
105802,-105.263157894737,3,2,0,100,0,0
120802,-100,3,2,0,100,0,1
133621,-100,3,2,0,100,0,0

[HitObjects]
64,192,803,5,0,0:0:0:0:
320,192,939,1,0,0:0:0:0:
192,192,1076,1,0,0:0:0:0:
64,192,1076,1,0,0:0:0:0:
320,192,1348,1,0,0:0:0:0:
448,192,1621,1,0,0:0:0:0:
320,192,1894,1,0,0:0:0:0:
192,192,1894,1,0,0:0:0:0:
64,192,1894,1,0,0:0:0:0:
448,192,2167,1,0,0:0:0:0:
192,192,2167,1,0,0:0:0:0:
64,192,2303,1,0,0:0:0:0:
192,192,2371,1,0,0:0:0:0:
448,192,2439,1,0,0:0:0:0:
320,192,2439,1,0,0:0:0:0:
192,192,2576,1,0,0:0:0:0:
320,192,2712,1,0,0:0:0:0:
448,192,2712,1,0,0:0:0:0:
192,192,2985,1,0,0:0:0:0:
320,192,2985,1,0,0:0:0:0:
448,192,2985,1,0,0:0:0:0:
448,192,3121,1,0,0:0:0:0:
320,192,3189,1,0,0:0:0:0:
192,192,3258,1,0,0:0:0:0:
64,192,3258,1,0,0:0:0:0:
192,192,3394,1,0,0:0:0:0:
64,192,3530,1,0,0:0:0:0:
448,192,3530,128,0,3803:0:0:0:0:
320,192,3530,128,0,3803:0:0:0:0:
64,192,4076,1,0,0:0:0:0:
192,192,4076,1,0,0:0:0:0:
64,192,4348,1,0,0:0:0:0:
320,192,4348,1,0,0:0:0:0:
448,192,4348,1,0,0:0:0:0:
64,192,4621,128,0,4758:0:0:0:0:
192,192,4894,128,0,5030:0:0:0:0:
320,192,5167,128,0,5303:0:0:0:0:
448,192,5439,128,0,5576:0:0:0:0:
320,192,5576,128,0,5712:0:0:0:0:
192,192,5712,128,0,5848:0:0:0:0:
320,192,5848,128,0,5985:0:0:0:0:
448,192,5985,128,0,6258:0:0:0:0:
192,192,5985,1,0,0:0:0:0:
320,192,6258,128,0,6530:0:0:0:0:
192,192,6530,128,0,6667:0:0:0:0:
64,192,6667,128,0,6803:0:0:0:0:
192,192,6803,128,0,7076:0:0:0:0:
320,192,7076,1,0,0:0:0:0:
448,192,7076,1,0,0:0:0:0:
192,192,7212,1,0,0:0:0:0:
64,192,7212,1,0,0:0:0:0:
448,192,7348,1,0,0:0:0:0:
320,192,7348,128,0,7621:0:0:0:0:
192,192,7621,128,0,7894:0:0:0:0:
448,192,7621,1,0,0:0:0:0:
64,192,7894,128,0,8167:0:0:0:0:
320,192,7894,1,0,0:0:0:0:
448,192,8167,1,0,0:0:0:0:
192,192,8167,128,0,8303:0:0:0:0:
320,192,8303,128,0,8439:0:0:0:0:
448,192,8439,1,0,0:0:0:0:
192,192,8439,128,0,8712:0:0:0:0:
64,192,8712,1,0,0:0:0:0:
192,192,8985,128,0,9258:0:0:0:0:
320,192,8985,1,0,0:0:0:0:
64,192,9258,128,0,9530:0:0:0:0:
320,192,9258,1,0,0:0:0:0:
192,192,9530,128,0,9803:0:0:0:0:
320,192,9530,1,0,0:0:0:0:
448,192,9803,1,0,0:0:0:0:
320,192,9803,1,0,0:0:0:0:
192,192,9939,1,0,0:0:0:0:
64,192,9939,1,0,0:0:0:0:
320,192,10076,1,0,0:0:0:0:
448,192,10076,1,0,0:0:0:0:
192,192,10212,1,0,0:0:0:0:
64,192,10212,1,0,0:0:0:0:
448,192,10348,1,0,0:0:0:0:
192,192,10348,1,0,0:0:0:0:
320,192,10417,1,0,0:0:0:0:
192,192,10485,1,0,0:0:0:0:
64,192,10621,1,0,0:0:0:0:
448,192,10621,1,0,0:0:0:0:
192,192,10689,1,0,0:0:0:0:
320,192,10758,1,0,0:0:0:0:
448,192,10826,1,0,0:0:0:0:
192,192,10894,1,0,0:0:0:0:
64,192,10894,1,0,0:0:0:0:
320,192,10962,1,0,0:0:0:0:
64,192,11167,1,0,0:0:0:0:
192,192,11167,1,0,0:0:0:0:
448,192,11167,1,0,0:0:0:0:
192,192,11439,1,0,0:0:0:0:
320,192,11439,1,0,0:0:0:0:
448,192,11712,1,0,0:0:0:0:
64,192,11712,1,0,0:0:0:0:
320,192,11712,1,0,0:0:0:0:
192,192,11985,1,0,0:0:0:0:
320,192,11985,1,0,0:0:0:0:
64,192,12258,1,0,0:0:0:0:
448,192,12258,1,0,0:0:0:0:
320,192,12326,1,0,0:0:0:0:
64,192,12394,128,0,12530:0:0:0:0:
192,192,12394,1,0,0:0:0:0:
192,192,12530,1,0,0:0:0:0:
320,192,12530,128,0,12939:0:0:0:0:
192,192,12939,128,0,13076:0:0:0:0:
64,192,13076,128,0,13212:0:0:0:0:
192,192,13212,128,0,13348:0:0:0:0:
320,192,13348,1,0,0:0:0:0:
448,192,13348,128,0,13894:0:0:0:0:
192,192,13621,1,0,0:0:0:0:
320,192,13621,1,0,0:0:0:0:
64,192,13758,1,0,0:0:0:0:
192,192,13758,1,0,0:0:0:0:
64,192,13894,1,0,0:0:0:0:
192,192,13962,1,0,0:0:0:0:
320,192,14030,1,0,0:0:0:0:
448,192,14098,1,0,0:0:0:0:
320,192,14167,1,0,0:0:0:0:
64,192,14167,1,0,0:0:0:0:
192,192,14303,1,0,0:0:0:0:
448,192,14439,5,0,0:0:0:0:
64,192,14439,1,0,0:0:0:0:
320,192,14576,1,0,0:0:0:0:
64,192,14712,1,0,0:0:0:0:
448,192,14712,1,0,0:0:0:0:
320,192,14848,1,0,0:0:0:0:
320,192,14985,1,0,0:0:0:0:
64,192,14985,1,0,0:0:0:0:
448,192,15121,1,0,0:0:0:0:
320,192,15258,1,0,0:0:0:0:
64,192,15258,1,0,0:0:0:0:
192,192,15394,1,0,0:0:0:0:
448,192,15530,1,0,0:0:0:0:
64,192,15530,1,0,0:0:0:0:
192,192,15667,1,0,0:0:0:0:
320,192,15803,1,0,0:0:0:0:
448,192,15803,1,0,0:0:0:0:
64,192,15939,1,0,0:0:0:0:
320,192,16076,1,0,0:0:0:0:
448,192,16076,1,0,0:0:0:0:
192,192,16212,1,0,0:0:0:0:
320,192,16348,1,0,0:0:0:0:
64,192,16348,1,0,0:0:0:0:
192,192,16485,1,0,0:0:0:0:
64,192,16621,1,0,0:0:0:0:
448,192,16621,1,0,0:0:0:0:
320,192,16758,1,0,0:0:0:0:
64,192,16894,1,0,0:0:0:0:
448,192,16894,1,0,0:0:0:0:
192,192,17030,1,0,0:0:0:0:
64,192,17167,5,0,0:0:0:0:
448,192,17167,1,0,0:0:0:0:
320,192,17303,1,0,0:0:0:0:
192,192,17439,1,0,0:0:0:0:
448,192,17439,1,0,0:0:0:0:
64,192,17576,1,0,0:0:0:0:
448,192,17712,1,0,0:0:0:0:
192,192,17712,1,0,0:0:0:0:
320,192,17848,1,0,0:0:0:0:
448,192,17985,1,0,0:0:0:0:
192,192,17985,1,0,0:0:0:0:
64,192,18121,1,0,0:0:0:0:
448,192,18258,1,0,0:0:0:0:
320,192,18258,1,0,0:0:0:0:
192,192,18394,1,0,0:0:0:0:
320,192,18530,1,0,0:0:0:0:
64,192,18530,1,0,0:0:0:0:
192,192,18667,1,0,0:0:0:0:
320,192,18803,1,0,0:0:0:0:
448,192,18803,1,0,0:0:0:0:
64,192,18939,1,0,0:0:0:0:
320,192,19076,1,0,0:0:0:0:
192,192,19076,1,0,0:0:0:0:
64,192,19212,1,0,0:0:0:0:
320,192,19348,1,0,0:0:0:0:
192,192,19348,1,0,0:0:0:0:
448,192,19485,1,0,0:0:0:0:
320,192,19621,1,0,0:0:0:0:
64,192,19621,1,0,0:0:0:0:
192,192,19758,1,0,0:0:0:0:
64,192,19894,1,0,0:0:0:0:
320,192,19894,1,0,0:0:0:0:
448,192,19894,1,0,0:0:0:0:
192,192,20030,1,0,0:0:0:0:
448,192,20167,1,0,0:0:0:0:
320,192,20167,1,0,0:0:0:0:
192,192,20303,1,0,0:0:0:0:
64,192,20439,1,0,0:0:0:0:
320,192,20439,1,0,0:0:0:0:
192,192,20576,1,0,0:0:0:0:
320,192,20644,1,0,0:0:0:0:
448,192,20712,1,0,0:0:0:0:
192,192,20712,1,0,0:0:0:0:
64,192,20712,1,0,0:0:0:0:
320,192,20848,1,0,0:0:0:0:
64,192,20985,1,0,0:0:0:0:
448,192,20985,1,0,0:0:0:0:
192,192,21121,1,0,0:0:0:0:
448,192,21258,1,0,0:0:0:0:
320,192,21258,1,0,0:0:0:0:
64,192,21394,1,0,0:0:0:0:
192,192,21530,1,0,0:0:0:0:
320,192,21530,1,0,0:0:0:0:
64,192,21667,1,0,0:0:0:0:
192,192,21803,1,0,0:0:0:0:
448,192,21803,1,0,0:0:0:0:
320,192,21939,1,0,0:0:0:0:
64,192,22076,1,0,0:0:0:0:
192,192,22076,1,0,0:0:0:0:
448,192,22212,1,0,0:0:0:0:
320,192,22348,1,0,0:0:0:0:
192,192,22348,1,0,0:0:0:0:
64,192,22485,1,0,0:0:0:0:
448,192,22621,1,0,0:0:0:0:
192,192,22621,1,0,0:0:0:0:
320,192,22758,1,0,0:0:0:0:
192,192,22894,1,0,0:0:0:0:
448,192,22894,1,0,0:0:0:0:
448,192,23030,1,0,0:0:0:0:
320,192,23167,1,0,0:0:0:0:
448,192,23167,1,0,0:0:0:0:
64,192,23167,1,0,0:0:0:0:
192,192,23235,1,0,0:0:0:0:
64,192,23303,1,0,0:0:0:0:
448,192,23439,1,0,0:0:0:0:
192,192,23439,1,0,0:0:0:0:
320,192,23508,1,0,0:0:0:0:
192,192,23576,1,0,0:0:0:0:
448,192,23712,1,0,0:0:0:0:
320,192,23712,1,0,0:0:0:0:
64,192,23780,1,0,0:0:0:0:
192,192,23848,1,0,0:0:0:0:
320,192,23917,1,0,0:0:0:0:
448,192,23985,1,0,0:0:0:0:
64,192,23985,1,0,0:0:0:0:
64,192,24258,1,0,0:0:0:0:
320,192,24258,1,0,0:0:0:0:
448,192,24530,1,0,0:0:0:0:
320,192,24530,1,0,0:0:0:0:
320,192,24803,1,0,0:0:0:0:
64,192,24803,1,0,0:0:0:0:
448,192,24939,1,0,0:0:0:0:
320,192,25008,1,0,0:0:0:0:
192,192,25076,1,0,0:0:0:0:
64,192,25076,1,0,0:0:0:0:
448,192,25076,1,0,0:0:0:0:
192,192,25348,1,0,0:0:0:0:
448,192,25348,1,0,0:0:0:0:
192,192,25485,1,0,0:0:0:0:
64,192,25485,1,0,0:0:0:0:
320,192,25553,1,0,0:0:0:0:
448,192,25621,1,0,0:0:0:0:
320,192,25712,1,0,0:0:0:0:
192,192,25803,1,0,0:0:0:0:
64,192,25894,1,0,0:0:0:0:
448,192,25985,1,0,0:0:0:0:
320,192,26076,1,0,0:0:0:0:
192,192,26167,1,0,0:0:0:0:
64,192,26258,1,0,0:0:0:0:
448,192,26348,1,0,0:0:0:0:
320,192,26439,1,0,0:0:0:0:
192,192,26439,128,0,26985:0:0:0:0:
64,192,26439,1,0,0:0:0:0:
64,192,26985,128,0,27121:0:0:0:0:
192,192,27121,128,0,27257:0:0:0:0:
320,192,27257,128,0,27530:0:0:0:0:
192,192,27530,128,0,27803:0:0:0:0:
320,192,27803,1,0,0:0:0:0:
64,192,27939,128,0,28075:0:0:0:0:
448,192,28075,128,0,28348:0:0:0:0:
320,192,28348,128,0,28621:0:0:0:0:
192,192,28621,128,0,28894:0:0:0:0:
448,192,28621,1,2,0:0:0:0:
320,192,28894,128,0,29166:0:0:0:0:
192,192,29166,128,0,29439:0:0:0:0:
448,192,29439,128,0,29712:0:0:0:0:
64,192,29439,1,2,0:0:0:0:
64,192,29712,128,0,29985:0:0:0:0:
320,192,29985,128,0,30257:0:0:0:0:
192,192,30257,128,0,30394:0:0:0:0:
64,192,30257,1,2,0:0:0:0:
64,192,30394,128,0,30530:0:0:0:0:
192,192,30530,128,0,30803:0:0:0:0:
64,192,30803,128,0,31075:0:0:0:0:
320,192,31075,1,2,0:0:0:0:
192,192,31348,128,0,31621:0:0:0:0:
320,192,31621,128,0,31894:0:0:0:0:
64,192,31894,1,2,0:0:0:0:
64,192,32166,128,0,32439:0:0:0:0:
320,192,32439,128,0,32712:0:0:0:0:
192,192,32712,1,2,0:0:0:0:
192,192,32985,128,0,33257:0:0:0:0:
320,192,33257,128,0,33530:0:0:0:0:
192,192,33530,1,2,0:0:0:0:
320,192,33803,128,0,34075:0:0:0:0:
192,192,33803,1,0,0:0:0:0:
64,192,34075,128,0,34621:0:0:0:0:
192,192,34075,1,0,0:0:0:0:
448,192,34212,1,0,0:0:0:0:
192,192,34348,1,0,0:0:0:0:
320,192,34348,128,0,34621:0:0:0:0:
448,192,34484,1,0,0:0:0:0:
192,192,34621,128,0,34893:0:0:0:0:
320,192,34893,128,0,35166:0:0:0:0:
64,192,34893,1,0,0:0:0:0:
192,192,35030,1,0,0:0:0:0:
448,192,35166,128,0,35439:0:0:0:0:
64,192,35166,1,0,0:0:0:0:
192,192,35303,1,0,0:0:0:0:
192,192,35439,128,0,35712:0:0:0:0:
64,192,35439,1,0,0:0:0:0:
320,192,35712,128,0,35984:0:0:0:0:
448,192,35712,1,0,0:0:0:0:
448,192,35848,1,0,0:0:0:0:
64,192,35984,1,0,0:0:0:0:
448,192,36121,1,0,0:0:0:0:
64,192,36257,1,0,0:0:0:0:
192,192,36257,128,0,36530:0:0:0:0:
64,192,36530,128,0,36666:0:0:0:0:
192,192,36666,128,0,36803:0:0:0:0:
320,192,36803,128,0,37075:0:0:0:0:
448,192,37075,1,0,0:0:0:0:
192,192,37075,1,0,0:0:0:0:
320,192,37348,1,0,0:0:0:0:
448,192,37348,1,0,0:0:0:0:
192,192,37621,1,0,0:0:0:0:
64,192,37621,1,0,0:0:0:0:
448,192,37621,1,0,0:0:0:0:
448,192,37825,1,0,0:0:0:0:
320,192,37825,1,0,0:0:0:0:
192,192,37893,1,0,0:0:0:0:
64,192,37893,1,0,0:0:0:0:
192,192,38166,1,0,0:0:0:0:
64,192,38166,1,0,0:0:0:0:
448,192,38303,1,0,0:0:0:0:
192,192,38439,1,0,0:0:0:0:
64,192,38439,1,0,0:0:0:0:
192,192,38575,1,0,0:0:0:0:
320,192,38643,1,0,0:0:0:0:
448,192,38712,1,0,0:0:0:0:
64,192,38712,1,0,0:0:0:0:
320,192,38848,1,0,0:0:0:0:
192,192,38984,1,0,0:0:0:0:
64,192,38984,1,0,0:0:0:0:
320,192,39121,1,0,0:0:0:0:
192,192,39257,1,0,0:0:0:0:
448,192,39257,1,0,0:0:0:0:
64,192,39393,1,0,0:0:0:0:
320,192,39530,1,0,0:0:0:0:
448,192,39530,1,0,0:0:0:0:
192,192,39666,1,0,0:0:0:0:
448,192,39803,1,0,0:0:0:0:
64,192,39803,1,0,0:0:0:0:
192,192,39803,1,0,0:0:0:0:
320,192,39871,1,0,0:0:0:0:
192,192,39939,1,0,0:0:0:0:
448,192,40075,1,0,0:0:0:0:
64,192,40075,1,0,0:0:0:0:
320,192,40143,1,0,0:0:0:0:
192,192,40212,1,0,0:0:0:0:
64,192,40280,1,0,0:0:0:0:
320,192,40348,1,0,0:0:0:0:
448,192,40348,128,0,40621:0:0:0:0:
64,192,40621,128,0,40893:0:0:0:0:
448,192,40757,1,0,0:0:0:0:
192,192,41030,128,0,41166:0:0:0:0:
320,192,41166,128,0,41439:0:0:0:0:
448,192,41303,1,0,0:0:0:0:
64,192,41439,128,0,41712:0:0:0:0:
448,192,41575,1,0,0:0:0:0:
192,192,41712,128,0,41984:0:0:0:0:
320,192,41712,1,0,0:0:0:0:
64,192,41984,1,0,0:0:0:0:
320,192,41984,128,0,42257:0:0:0:0:
448,192,42257,128,0,42393:0:0:0:0:
192,192,42257,1,0,0:0:0:0:
320,192,42393,128,0,42530:0:0:0:0:
192,192,42530,128,0,42803:0:0:0:0:
64,192,42530,1,0,0:0:0:0:
448,192,42803,1,0,0:0:0:0:
320,192,42803,1,0,0:0:0:0:
64,192,42803,128,0,43075:0:0:0:0:
192,192,43075,1,0,0:0:0:0:
320,192,43075,128,0,43348:0:0:0:0:
192,192,43348,128,0,43484:0:0:0:0:
448,192,43484,128,0,43621:0:0:0:0:
64,192,43621,1,0,0:0:0:0:
192,192,43621,128,0,43893:0:0:0:0:
320,192,43893,128,0,44166:0:0:0:0:
448,192,44030,1,0,0:0:0:0:
64,192,44166,1,0,0:0:0:0:
64,192,44439,1,0,0:0:0:0:
192,192,44439,1,0,0:0:0:0:
320,192,44439,128,0,44712:0:0:0:0:
448,192,44712,128,0,44984:0:0:0:0:
192,192,44712,1,0,0:0:0:0:
64,192,44848,1,0,0:0:0:0:
192,192,44916,1,0,0:0:0:0:
320,192,44984,1,0,0:0:0:0:
320,192,45257,128,0,45530:0:0:0:0:
192,192,45257,1,0,0:0:0:0:
64,192,45257,1,0,0:0:0:0:
64,192,45530,128,0,45803:0:0:0:0:
192,192,45666,1,0,0:0:0:0:
320,192,45734,1,0,0:0:0:0:
448,192,45803,1,0,0:0:0:0:
64,192,46075,128,0,46348:0:0:0:0:
192,192,46075,1,0,0:0:0:0:
192,192,46348,128,0,46621:0:0:0:0:
448,192,46348,1,0,0:0:0:0:
320,192,46484,1,0,0:0:0:0:
448,192,46621,1,0,0:0:0:0:
320,192,46689,1,0,0:0:0:0:
192,192,46757,1,0,0:0:0:0:
64,192,46825,1,0,0:0:0:0:
320,192,46893,1,0,0:0:0:0:
448,192,46893,128,0,47166:0:0:0:0:
320,192,47166,128,0,47439:0:0:0:0:
192,192,47166,1,0,0:0:0:0:
192,192,47439,128,0,47712:0:0:0:0:
64,192,47439,1,0,0:0:0:0:
64,192,47712,128,0,47984:0:0:0:0:
448,192,47712,1,0,0:0:0:0:
192,192,47984,128,0,48257:0:0:0:0:
320,192,47984,1,0,0:0:0:0:
320,192,48257,128,0,48530:0:0:0:0:
64,192,48257,1,0,0:0:0:0:
448,192,48530,128,0,48803:0:0:0:0:
192,192,48530,1,0,0:0:0:0:
320,192,48803,1,0,0:0:0:0:
192,192,48803,128,0,49075:0:0:0:0:
320,192,49075,128,0,49212:0:0:0:0:
448,192,49075,1,0,0:0:0:0:
64,192,49212,128,0,49348:0:0:0:0:
192,192,49348,128,0,49621:0:0:0:0:
320,192,49348,1,0,0:0:0:0:
320,192,49621,128,0,49893:0:0:0:0:
448,192,49621,1,0,0:0:0:0:
64,192,49757,1,0,0:0:0:0:
192,192,49893,128,0,50166:0:0:0:0:
64,192,50030,1,0,0:0:0:0:
448,192,50166,128,0,50439:0:0:0:0:
320,192,50166,1,0,0:0:0:0:
320,192,50439,128,0,50712:0:0:0:0:
64,192,50439,1,0,0:0:0:0:
192,192,50712,128,0,50984:0:0:0:0:
448,192,50712,1,0,0:0:0:0:
64,192,50984,128,0,51257:0:0:0:0:
320,192,50984,1,0,0:0:0:0:
448,192,51257,1,0,0:0:0:0:
192,192,51257,1,0,0:0:0:0:
320,192,51325,1,0,0:0:0:0:
192,192,51393,1,0,0:0:0:0:
320,192,51530,1,0,0:0:0:0:
448,192,51530,1,0,0:0:0:0:
64,192,51598,1,0,0:0:0:0:
192,192,51666,1,0,0:0:0:0:
320,192,51734,1,0,0:0:0:0:
64,192,51803,1,0,0:0:0:0:
192,192,51803,1,0,0:0:0:0:
192,192,52621,1,0,0:0:0:0:
320,192,52621,1,0,0:0:0:0:
448,192,52621,1,0,0:0:0:0:
64,192,52621,1,0,0:0:0:0:
448,192,52893,1,0,0:0:0:0:
320,192,52984,1,0,0:0:0:0:
192,192,53075,1,0,0:0:0:0:
64,192,53166,1,0,0:0:0:0:
320,192,53257,1,0,0:0:0:0:
192,192,53348,1,0,0:0:0:0:
64,192,53439,1,0,0:0:0:0:
448,192,53439,128,0,53984:0:0:0:0:
192,192,53711,1,0,0:0:0:0:
320,192,53984,1,0,0:0:0:0:
192,192,54257,128,0,54802:0:0:0:0:
64,192,54257,1,0,0:0:0:0:
320,192,54530,1,0,0:0:0:0:
320,192,54802,128,0,55075:0:0:0:0:
64,192,54802,1,0,0:0:0:0:
192,192,55075,128,0,55348:0:0:0:0:
448,192,55075,1,0,0:0:0:0:
448,192,55348,128,0,55484:0:0:0:0:
64,192,55348,1,0,0:0:0:0:
320,192,55484,128,0,55621:0:0:0:0:
64,192,55621,128,0,55893:0:0:0:0:
192,192,55621,1,0,0:0:0:0:
192,192,55893,128,0,56439:0:0:0:0:
320,192,55893,1,0,0:0:0:0:
448,192,56166,1,0,0:0:0:0:
320,192,56439,1,0,0:0:0:0:
320,192,56711,128,0,57257:0:0:0:0:
64,192,56711,1,0,0:0:0:0:
192,192,56984,1,0,0:0:0:0:
448,192,57257,1,0,0:0:0:0:
320,192,57530,128,0,58075:0:0:0:0:
192,192,57530,1,0,0:0:0:0:
448,192,57802,1,0,0:0:0:0:
192,192,58075,128,0,58348:0:0:0:0:
320,192,58348,1,0,0:0:0:0:
64,192,58348,128,0,58621:0:0:0:0:
448,192,58621,128,0,58757:0:0:0:0:
192,192,58621,1,0,0:0:0:0:
192,192,58757,128,0,58893:0:0:0:0:
320,192,58893,128,0,59166:0:0:0:0:
64,192,58893,1,0,0:0:0:0:
192,192,59166,128,0,59711:0:0:0:0:
448,192,59166,1,0,0:0:0:0:
448,192,59439,1,0,0:0:0:0:
64,192,59711,1,0,0:0:0:0:
448,192,59984,128,0,60530:0:0:0:0:
320,192,59984,1,0,0:0:0:0:
64,192,60257,1,0,0:0:0:0:
192,192,60530,1,0,0:0:0:0:
64,192,60802,128,0,61348:0:0:0:0:
320,192,60802,1,0,0:0:0:0:
192,192,61075,1,0,0:0:0:0:
448,192,61348,1,0,0:0:0:0:
192,192,61348,128,0,61621:0:0:0:0:
320,192,61621,128,0,61893:0:0:0:0:
64,192,61621,1,0,0:0:0:0:
192,192,61893,128,0,62030:0:0:0:0:
448,192,61893,1,0,0:0:0:0:
320,192,62030,128,0,62166:0:0:0:0:
448,192,62166,128,0,62439:0:0:0:0:
64,192,62166,1,0,0:0:0:0:
320,192,62439,128,0,62984:0:0:0:0:
192,192,62439,1,0,0:0:0:0:
64,192,62711,1,0,0:0:0:0:
448,192,62848,1,0,0:0:0:0:
192,192,62984,1,0,0:0:0:0:
64,192,63257,128,0,63802:0:0:0:0:
448,192,63257,1,0,0:0:0:0:
192,192,63530,1,0,0:0:0:0:
320,192,63802,1,0,0:0:0:0:
64,192,64075,128,0,64621:0:0:0:0:
448,192,64075,1,0,0:0:0:0:
320,192,64348,1,0,0:0:0:0:
448,192,64552,1,0,0:0:0:0:
192,192,64621,128,0,64893:0:0:0:0:
64,192,64893,128,0,65166:0:0:0:0:
320,192,64893,1,0,0:0:0:0:
192,192,65166,128,0,65439:0:0:0:0:
320,192,65439,128,0,65711:0:0:0:0:
64,192,65439,1,0,0:0:0:0:
192,192,65711,1,0,0:0:0:0:
64,192,65711,1,0,0:0:0:0:
448,192,65984,1,0,0:0:0:0:
192,192,65984,1,0,0:0:0:0:
320,192,66257,1,0,0:0:0:0:
64,192,66257,1,0,0:0:0:0:
64,192,66530,1,0,0:0:0:0:
192,192,66530,128,0,66802:0:0:0:0:
448,192,66802,1,0,0:0:0:0:
320,192,66939,1,0,0:0:0:0:
192,192,67075,1,0,0:0:0:0:
64,192,67211,1,0,0:0:0:0:
192,192,67348,128,0,67484:0:0:0:0:
320,192,67621,128,0,67757:0:0:0:0:
448,192,67893,128,0,68030:0:0:0:0:
64,192,68166,128,0,68439:0:0:0:0:
192,192,68439,128,0,68575:0:0:0:0:
320,192,68575,128,0,68711:0:0:0:0:
448,192,68711,128,0,68848:0:0:0:0:
192,192,68848,128,0,68984:0:0:0:0:
320,192,68984,128,0,69257:0:0:0:0:
64,192,68984,1,0,0:0:0:0:
448,192,69393,1,0,0:0:0:0:
192,192,69393,1,0,0:0:0:0:
320,192,69461,1,0,0:0:0:0:
192,192,69530,1,0,0:0:0:0:
64,192,69666,1,0,0:0:0:0:
320,192,69802,1,0,0:0:0:0:
192,192,69802,1,0,0:0:0:0:
192,192,70075,128,0,70211:0:0:0:0:
320,192,70075,1,0,0:0:0:0:
448,192,70075,1,0,0:0:0:0:
64,192,70211,128,0,70348:0:0:0:0:
192,192,70348,128,0,70484:0:0:0:0:
320,192,70484,128,0,70621:0:0:0:0:
448,192,70621,128,0,70757:0:0:0:0:
64,192,70621,1,0,0:0:0:0:
192,192,70893,128,0,71030:0:0:0:0:
448,192,71166,128,0,71302:0:0:0:0:
64,192,71439,128,0,71575:0:0:0:0:
192,192,71439,1,0,0:0:0:0:
320,192,71439,1,0,0:0:0:0:
448,192,71711,128,0,71848:0:0:0:0:
320,192,71711,1,0,0:0:0:0:
320,192,71848,128,0,71916:0:0:0:0:
192,192,71916,128,0,71984:0:0:0:0:
64,192,71984,128,0,72121:0:0:0:0:
448,192,72121,128,0,72257:0:0:0:0:
320,192,72257,1,0,0:0:0:0:
192,192,72530,1,0,0:0:0:0:
64,192,72530,1,0,0:0:0:0:
448,192,72666,1,0,0:0:0:0:
192,192,72802,1,0,0:0:0:0:
320,192,72802,1,0,0:0:0:0:
64,192,72939,1,0,0:0:0:0:
320,192,73075,1,0,0:0:0:0:
448,192,73075,1,0,0:0:0:0:
192,192,73211,1,0,0:0:0:0:
64,192,73348,1,0,0:0:0:0:
448,192,73348,1,0,0:0:0:0:
320,192,73484,1,0,0:0:0:0:
192,192,73621,1,0,0:0:0:0:
448,192,73621,1,0,0:0:0:0:
320,192,73757,1,0,0:0:0:0:
448,192,73893,1,0,0:0:0:0:
64,192,73893,1,0,0:0:0:0:
320,192,74030,1,0,0:0:0:0:
64,192,74166,1,0,0:0:0:0:
448,192,74166,1,0,0:0:0:0:
192,192,74302,1,0,0:0:0:0:
64,192,74439,5,0,0:0:0:0:
448,192,74439,1,0,0:0:0:0:
320,192,74575,1,0,0:0:0:0:
192,192,74711,1,0,0:0:0:0:
448,192,74711,1,0,0:0:0:0:
64,192,74848,1,0,0:0:0:0:
448,192,74984,1,0,0:0:0:0:
192,192,74984,1,0,0:0:0:0:
320,192,75121,1,0,0:0:0:0:
64,192,75257,1,0,0:0:0:0:
192,192,75257,1,0,0:0:0:0:
448,192,75393,1,0,0:0:0:0:
64,192,75530,1,0,0:0:0:0:
192,192,75530,1,0,0:0:0:0:
320,192,75666,1,0,0:0:0:0:
448,192,75802,1,0,0:0:0:0:
64,192,75802,1,0,0:0:0:0:
192,192,75939,1,0,0:0:0:0:
320,192,76075,1,0,0:0:0:0:
448,192,76075,1,0,0:0:0:0:
64,192,76211,1,0,0:0:0:0:
448,192,76211,1,0,0:0:0:0:
320,192,76280,1,0,0:0:0:0:
192,192,76348,1,0,0:0:0:0:
64,192,76484,1,0,0:0:0:0:
320,192,76621,1,0,0:0:0:0:
192,192,76621,1,0,0:0:0:0:
448,192,76757,1,0,0:0:0:0:
320,192,76893,1,0,0:0:0:0:
64,192,76893,1,0,0:0:0:0:
192,192,77030,1,0,0:0:0:0:
64,192,77166,1,0,0:0:0:0:
320,192,77166,1,0,0:0:0:0:
448,192,77166,1,0,0:0:0:0:
192,192,77302,1,0,0:0:0:0:
448,192,77439,1,0,0:0:0:0:
320,192,77439,1,0,0:0:0:0:
192,192,77575,1,0,0:0:0:0:
64,192,77711,1,0,0:0:0:0:
192,192,77780,1,0,0:0:0:0:
320,192,77848,1,0,0:0:0:0:
64,192,77984,1,0,0:0:0:0:
448,192,77984,1,0,0:0:0:0:
192,192,78121,1,0,0:0:0:0:
448,192,78257,1,0,0:0:0:0:
320,192,78257,1,0,0:0:0:0:
192,192,78393,1,0,0:0:0:0:
320,192,78530,1,0,0:0:0:0:
64,192,78530,1,0,0:0:0:0:
448,192,78666,1,0,0:0:0:0:
192,192,78802,128,0,79075:0:0:0:0:
320,192,78802,1,0,0:0:0:0:
64,192,79075,128,0,79348:0:0:0:0:
448,192,79075,1,0,0:0:0:0:
320,192,79211,1,0,0:0:0:0:
448,192,79348,1,0,0:0:0:0:
320,192,79416,1,0,0:0:0:0:
192,192,79484,1,0,0:0:0:0:
64,192,79552,1,0,0:0:0:0:
320,192,79621,128,0,80166:0:0:0:0:
448,192,79621,1,0,0:0:0:0:
192,192,80166,128,0,80439:0:0:0:0:
64,192,80439,128,0,80711:0:0:0:0:
320,192,80439,1,0,0:0:0:0:
192,192,80711,128,0,80984:0:0:0:0:
320,192,80984,128,0,81257:0:0:0:0:
192,192,81257,1,0,0:0:0:0:
64,192,81257,128,0,81530:0:0:0:0:
192,192,81802,128,0,82075:0:0:0:0:
448,192,82075,128,0,82348:0:0:0:0:
64,192,82075,1,0,0:0:0:0:
320,192,82621,128,0,82893:0:0:0:0:
192,192,82893,1,0,0:0:0:0:
64,192,82893,128,0,83439:0:0:0:0:
192,192,83439,128,0,83711:0:0:0:0:
448,192,83711,1,0,0:0:0:0:
320,192,83711,128,0,83984:0:0:0:0:
192,192,83984,128,0,84257:0:0:0:0:
320,192,84257,128,0,84530:0:0:0:0:
64,192,84530,1,0,0:0:0:0:
192,192,84530,128,0,85348:0:0:0:0:
320,192,85348,1,0,0:0:0:0:
64,192,85893,128,0,86030:0:0:0:0:
192,192,85893,128,0,86030:0:0:0:0:
320,192,86030,128,0,86166:0:0:0:0:
448,192,86166,128,0,86439:0:0:0:0:
64,192,86439,128,0,86711:0:0:0:0:
192,192,86711,128,0,86984:0:0:0:0:
64,192,86984,128,0,87257:0:0:0:0:
320,192,86984,1,0,0:0:0:0:
448,192,87257,128,0,87530:0:0:0:0:
320,192,87530,128,0,87802:0:0:0:0:
192,192,87802,128,0,88075:0:0:0:0:
64,192,87802,1,0,0:0:0:0:
320,192,88075,128,0,88348:0:0:0:0:
192,192,88348,128,0,88621:0:0:0:0:
64,192,88621,128,0,88893:0:0:0:0:
448,192,88621,1,0,0:0:0:0:
192,192,88893,128,0,89166:0:0:0:0:
320,192,89166,128,0,89439:0:0:0:0:
192,192,89439,1,0,0:0:0:0:
64,192,89439,1,0,0:0:0:0:
320,192,89984,128,0,90121:0:0:0:0:
64,192,90121,128,0,90257:0:0:0:0:
192,192,90257,128,0,90530:0:0:0:0:
320,192,90530,128,0,90802:0:0:0:0:
64,192,90939,128,0,91075:0:0:0:0:
192,192,91075,128,0,91893:0:0:0:0:
320,192,91893,1,0,0:0:0:0:
448,192,91893,1,0,0:0:0:0:
64,192,92166,1,0,0:0:0:0:
448,192,92166,1,0,0:0:0:0:
192,192,92302,1,0,0:0:0:0:
320,192,92302,1,0,0:0:0:0:
64,192,92439,128,0,92711:0:0:0:0:
192,192,92711,128,0,93257:0:0:0:0:
320,192,93257,128,0,93530:0:0:0:0:
64,192,93461,1,0,0:0:0:0:
448,192,93530,128,0,93802:0:0:0:0:
320,192,93802,128,0,94075:0:0:0:0:
64,192,94075,128,0,94348:0:0:0:0:
320,192,94348,1,0,0:0:0:0:
192,192,94484,1,0,0:0:0:0:
64,192,94621,1,0,0:0:0:0:
448,192,94621,1,0,0:0:0:0:
192,192,94757,1,0,0:0:0:0:
64,192,94893,1,0,0:0:0:0:
320,192,94961,1,0,0:0:0:0:
192,192,95030,1,0,0:0:0:0:
448,192,95098,1,0,0:0:0:0:
64,192,95166,1,0,0:0:0:0:
320,192,95166,1,0,0:0:0:0:
192,192,95302,1,0,0:0:0:0:
320,192,95371,1,0,0:0:0:0:
448,192,95439,1,0,0:0:0:0:
64,192,95439,1,0,0:0:0:0:
320,192,95575,1,0,0:0:0:0:
192,192,95711,1,0,0:0:0:0:
320,192,95780,1,0,0:0:0:0:
448,192,95848,1,0,0:0:0:0:
64,192,95916,1,0,0:0:0:0:
192,192,95984,1,0,0:0:0:0:
320,192,95984,128,0,96257:0:0:0:0:
448,192,96257,128,0,96530:0:0:0:0:
192,192,96257,1,0,0:0:0:0:
192,192,96530,128,0,96802:0:0:0:0:
64,192,96530,1,0,0:0:0:0:
64,192,96802,1,0,0:0:0:0:
320,192,96802,128,0,97075:0:0:0:0:
192,192,97075,1,0,0:0:0:0:
448,192,97075,128,0,97348:0:0:0:0:
192,192,97348,128,0,97621:0:0:0:0:
320,192,97348,1,0,0:0:0:0:
64,192,97621,128,0,98439:0:0:0:0:
448,192,97621,1,0,0:0:0:0:
320,192,97757,1,0,0:0:0:0:
448,192,97893,1,0,0:0:0:0:
320,192,98030,1,0,0:0:0:0:
448,192,98166,1,0,0:0:0:0:
320,192,98302,1,0,0:0:0:0:
192,192,98530,1,0,0:0:0:0:
320,192,98621,1,0,0:0:0:0:
448,192,98711,1,0,0:0:0:0:
64,192,98802,1,0,0:0:0:0:
192,192,98893,1,0,0:0:0:0:
320,192,98984,1,0,0:0:0:0:
448,192,99075,1,0,0:0:0:0:
64,192,99166,1,0,0:0:0:0:
192,192,99257,1,0,0:0:0:0:
320,192,99257,1,0,0:0:0:0:
64,192,99393,1,0,0:0:0:0:
448,192,99530,1,0,0:0:0:0:
192,192,99530,1,0,0:0:0:0:
320,192,99666,1,0,0:0:0:0:
448,192,99802,1,0,0:0:0:0:
192,192,99802,1,0,0:0:0:0:
64,192,99939,1,0,0:0:0:0:
448,192,100075,1,0,0:0:0:0:
320,192,100075,1,0,0:0:0:0:
192,192,100211,1,0,0:0:0:0:
448,192,100348,1,0,0:0:0:0:
64,192,100348,1,0,0:0:0:0:
192,192,100484,1,0,0:0:0:0:
64,192,100621,5,0,0:0:0:0:
448,192,100621,1,0,0:0:0:0:
320,192,100757,1,0,0:0:0:0:
448,192,100893,1,0,0:0:0:0:
192,192,100893,1,0,0:0:0:0:
64,192,101030,1,0,0:0:0:0:
192,192,101166,1,0,0:0:0:0:
448,192,101166,1,0,0:0:0:0:
320,192,101302,1,0,0:0:0:0:
192,192,101439,1,0,0:0:0:0:
64,192,101439,1,0,0:0:0:0:
448,192,101575,1,0,0:0:0:0:
192,192,101711,1,0,0:0:0:0:
64,192,101711,1,0,0:0:0:0:
320,192,101848,1,0,0:0:0:0:
448,192,101984,1,0,0:0:0:0:
192,192,101984,1,0,0:0:0:0:
64,192,102121,1,0,0:0:0:0:
448,192,102257,1,0,0:0:0:0:
320,192,102257,1,0,0:0:0:0:
64,192,102393,1,0,0:0:0:0:
192,192,102530,1,0,0:0:0:0:
320,192,102530,1,0,0:0:0:0:
64,192,103075,128,0,103211:0:0:0:0:
192,192,103211,128,0,103348:0:0:0:0:
320,192,103348,128,0,103621:0:0:0:0:
448,192,103348,1,0,0:0:0:0:
448,192,103621,128,0,104166:0:0:0:0:
192,192,103621,1,0,0:0:0:0:
64,192,104166,1,0,0:0:0:0:
192,192,104166,1,0,0:0:0:0:
320,192,104302,1,0,0:0:0:0:
192,192,104439,1,0,0:0:0:0:
448,192,104439,1,0,0:0:0:0:
64,192,104575,1,0,0:0:0:0:
192,192,104711,1,0,0:0:0:0:
448,192,104711,1,0,0:0:0:0:
320,192,104848,1,0,0:0:0:0:
64,192,104984,1,0,0:0:0:0:
448,192,104984,1,0,0:0:0:0:
192,192,105121,1,0,0:0:0:0:
64,192,105257,1,0,0:0:0:0:
448,192,105257,1,0,0:0:0:0:
320,192,105257,1,0,0:0:0:0:
192,192,105325,1,0,0:0:0:0:
320,192,105393,1,0,0:0:0:0:
448,192,105530,1,0,0:0:0:0:
64,192,105530,1,0,0:0:0:0:
320,192,105598,1,0,0:0:0:0:
192,192,105666,1,0,0:0:0:0:
64,192,105734,1,0,0:0:0:0:
320,192,105802,1,0,0:0:0:0:
448,192,105802,128,0,106075:0:0:0:0:
320,192,106075,128,0,106348:0:0:0:0:
192,192,106348,128,0,106621:0:0:0:0:
64,192,106621,128,0,106893:0:0:0:0:
448,192,106621,1,0,0:0:0:0:
192,192,106893,128,0,107030:0:0:0:0:
320,192,107030,128,0,107098:0:0:0:0:
448,192,107098,128,0,107166:0:0:0:0:
192,192,107166,128,0,107439:0:0:0:0:
64,192,107439,1,0,0:0:0:0:
320,192,107439,128,0,107711:0:0:0:0:
448,192,107711,128,0,107848:0:0:0:0:
320,192,107848,128,0,107916:0:0:0:0:
192,192,107916,128,0,107984:0:0:0:0:
64,192,107984,128,0,108257:0:0:0:0:
192,192,108257,1,0,0:0:0:0:
320,192,108257,128,0,108530:0:0:0:0:
320,192,108802,1,0,0:0:0:0:
448,192,109075,1,0,0:0:0:0:
320,192,109075,128,0,109211:0:0:0:0:
64,192,109348,128,0,109484:0:0:0:0:
192,192,109621,128,0,109757:0:0:0:0:
320,192,109893,128,0,110030:0:0:0:0:
448,192,109893,1,0,0:0:0:0:
64,192,109893,1,0,0:0:0:0:
192,192,110166,128,0,110302:0:0:0:0:
64,192,110302,128,0,110439:0:0:0:0:
192,192,110439,128,0,110575:0:0:0:0:
320,192,110575,128,0,110711:0:0:0:0:
64,192,110711,1,0,0:0:0:0:
192,192,110711,128,0,110984:0:0:0:0:
320,192,110984,128,0,111257:0:0:0:0:
192,192,111257,128,0,111393:0:0:0:0:
64,192,111393,128,0,111530:0:0:0:0:
192,192,111530,128,0,111802:0:0:0:0:
320,192,111530,1,0,0:0:0:0:
320,192,112075,128,0,112348:0:0:0:0:
64,192,112348,1,0,0:0:0:0:
192,192,112348,128,0,112621:0:0:0:0:
320,192,112621,128,0,112893:0:0:0:0:
448,192,112893,128,0,113030:0:0:0:0:
320,192,113030,128,0,113166:0:0:0:0:
192,192,113166,128,0,113439:0:0:0:0:
64,192,113166,1,0,0:0:0:0:
320,192,113711,128,0,113984:0:0:0:0:
192,192,113984,128,0,114257:0:0:0:0:
448,192,113984,1,0,0:0:0:0:
64,192,114257,128,0,114530:0:0:0:0:
192,192,114530,128,0,114666:0:0:0:0:
320,192,114666,128,0,114802:0:0:0:0:
448,192,114802,1,0,0:0:0:0:
64,192,114802,128,0,115075:0:0:0:0:
192,192,115348,128,0,115621:0:0:0:0:
64,192,115621,128,0,115893:0:0:0:0:
320,192,115621,1,0,0:0:0:0:
192,192,115893,128,0,116166:0:0:0:0:
320,192,116166,128,0,116439:0:0:0:0:
192,192,116439,1,0,0:0:0:0:
448,192,116439,128,0,116711:0:0:0:0:
320,192,116711,128,0,116984:0:0:0:0:
192,192,116984,128,0,117257:0:0:0:0:
448,192,116984,1,0,0:0:0:0:
64,192,117257,128,0,117530:0:0:0:0:
320,192,117257,1,0,0:0:0:0:
192,192,117530,1,0,0:0:0:0:
320,192,117666,128,0,117802:0:0:0:0:
448,192,117802,128,0,117939:0:0:0:0:
192,192,117939,128,0,118075:0:0:0:0:
320,192,118075,128,0,118348:0:0:0:0:
448,192,118211,1,0,0:0:0:0:
192,192,118348,1,0,0:0:0:0:
64,192,118348,1,0,0:0:0:0:
448,192,118484,1,0,0:0:0:0:
64,192,118621,1,0,0:0:0:0:
192,192,118689,1,0,0:0:0:0:
320,192,118757,1,0,0:0:0:0:
448,192,118825,1,0,0:0:0:0:
64,192,118893,128,0,119302:0:0:0:0:
192,192,118893,1,0,0:0:0:0:
448,192,119166,1,0,0:0:0:0:
192,192,119302,128,0,119439:0:0:0:0:
320,192,119439,128,0,119575:0:0:0:0:
64,192,119439,1,0,0:0:0:0:
448,192,119575,128,0,119711:0:0:0:0:
192,192,119575,1,0,0:0:0:0:
64,192,119711,5,0,0:0:0:0:
320,192,119848,1,0,0:0:0:0:
64,192,119984,1,0,0:0:0:0:
320,192,120121,1,0,0:0:0:0:
64,192,120257,1,0,0:0:0:0:
448,192,120257,1,0,0:0:0:0:
320,192,120257,1,0,0:0:0:0:
192,192,120325,1,0,0:0:0:0:
320,192,120393,1,0,0:0:0:0:
192,192,120530,1,0,0:0:0:0:
64,192,120530,1,0,0:0:0:0:
64,192,120802,5,0,0:0:0:0:
320,192,120802,1,0,0:0:0:0:
192,192,120939,1,0,0:0:0:0:
448,192,121075,1,0,0:0:0:0:
320,192,121075,1,0,0:0:0:0:
192,192,121211,1,0,0:0:0:0:
64,192,121348,1,0,0:0:0:0:
320,192,121348,1,0,0:0:0:0:
192,192,121484,1,0,0:0:0:0:
320,192,121621,1,0,0:0:0:0:
448,192,121621,1,0,0:0:0:0:
192,192,121757,1,0,0:0:0:0:
320,192,121893,1,0,0:0:0:0:
448,192,121893,1,0,0:0:0:0:
192,192,122030,1,0,0:0:0:0:
64,192,122166,1,0,0:0:0:0:
320,192,122166,1,0,0:0:0:0:
192,192,122302,1,0,0:0:0:0:
448,192,122439,1,0,0:0:0:0:
320,192,122439,1,0,0:0:0:0:
64,192,122575,1,0,0:0:0:0:
192,192,122711,1,0,0:0:0:0:
320,192,122711,1,0,0:0:0:0:
64,192,122848,1,0,0:0:0:0:
192,192,122984,1,0,0:0:0:0:
320,192,122984,1,0,0:0:0:0:
448,192,123121,1,0,0:0:0:0:
64,192,123257,1,0,0:0:0:0:
192,192,123257,1,0,0:0:0:0:
320,192,123393,1,0,0:0:0:0:
64,192,123530,1,0,0:0:0:0:
320,192,123530,128,0,123666:0:0:0:0:
192,192,123666,128,0,123802:0:0:0:0:
320,192,123802,1,0,0:0:0:0:
64,192,123802,1,0,0:0:0:0:
448,192,123802,128,0,124348:0:0:0:0:
192,192,123939,1,0,0:0:0:0:
64,192,124075,1,0,0:0:0:0:
320,192,124075,1,0,0:0:0:0:
192,192,124211,1,0,0:0:0:0:
64,192,124348,1,0,0:0:0:0:
192,192,124348,1,0,0:0:0:0:
320,192,124348,128,0,124621:0:0:0:0:
448,192,124484,1,0,0:0:0:0:
192,192,124621,128,0,124893:0:0:0:0:
64,192,124621,1,0,0:0:0:0:
448,192,124621,1,0,0:0:0:0:
448,192,124893,1,0,0:0:0:0:
320,192,124961,1,0,0:0:0:0:
192,192,125030,1,0,0:0:0:0:
64,192,125098,1,0,0:0:0:0:
448,192,125166,1,0,0:0:0:0:
320,192,125234,1,0,0:0:0:0:
192,192,125302,1,0,0:0:0:0:
64,192,125371,1,0,0:0:0:0:
192,192,125439,1,0,0:0:0:0:
448,192,125439,1,0,0:0:0:0:
320,192,125439,1,0,0:0:0:0:
320,192,125575,1,0,0:0:0:0:
64,192,125711,1,0,0:0:0:0:
448,192,125711,1,0,0:0:0:0:
192,192,125711,1,0,0:0:0:0:
64,192,125848,1,0,0:0:0:0:
192,192,125984,1,0,0:0:0:0:
320,192,125984,1,0,0:0:0:0:
448,192,125984,1,0,0:0:0:0:
192,192,126121,1,0,0:0:0:0:
320,192,126257,1,0,0:0:0:0:
192,192,126257,1,0,0:0:0:0:
64,192,126257,1,0,0:0:0:0:
320,192,126393,1,0,0:0:0:0:
448,192,126530,1,0,0:0:0:0:
192,192,126530,1,0,0:0:0:0:
320,192,126530,1,0,0:0:0:0:
64,192,126666,1,0,0:0:0:0:
64,192,126802,1,0,0:0:0:0:
320,192,126802,1,0,0:0:0:0:
448,192,126802,1,0,0:0:0:0:
192,192,126939,1,0,0:0:0:0:
320,192,127075,1,0,0:0:0:0:
448,192,127075,1,0,0:0:0:0:
64,192,127075,1,0,0:0:0:0:
192,192,127143,1,0,0:0:0:0:
448,192,127211,1,0,0:0:0:0:
320,192,127348,1,0,0:0:0:0:
64,192,127348,1,0,0:0:0:0:
192,192,127484,1,0,0:0:0:0:
448,192,127621,1,0,0:0:0:0:
64,192,127621,1,0,0:0:0:0:
320,192,127757,1,0,0:0:0:0:
64,192,127893,1,0,0:0:0:0:
192,192,127893,1,0,0:0:0:0:
448,192,127893,1,0,0:0:0:0:
320,192,128030,1,0,0:0:0:0:
192,192,128166,1,0,0:0:0:0:
64,192,128166,1,0,0:0:0:0:
320,192,128302,1,0,0:0:0:0:
448,192,128302,1,0,0:0:0:0:
64,192,128439,1,0,0:0:0:0:
320,192,128439,1,0,0:0:0:0:
448,192,128439,1,0,0:0:0:0:
192,192,128507,1,0,0:0:0:0:
320,192,128575,1,0,0:0:0:0:
448,192,128643,1,0,0:0:0:0:
192,192,128711,1,0,0:0:0:0:
64,192,128711,1,0,0:0:0:0:
320,192,128848,1,0,0:0:0:0:
64,192,128984,1,0,0:0:0:0:
192,192,128984,1,0,0:0:0:0:
448,192,129121,1,0,0:0:0:0:
320,192,129257,1,0,0:0:0:0:
192,192,129257,1,0,0:0:0:0:
64,192,129393,1,0,0:0:0:0:
448,192,129530,1,0,0:0:0:0:
192,192,129530,1,0,0:0:0:0:
64,192,129530,1,0,0:0:0:0:
320,192,129598,1,0,0:0:0:0:
192,192,129666,1,0,0:0:0:0:
64,192,129734,1,0,0:0:0:0:
320,192,129802,1,0,0:0:0:0:
448,192,129802,1,0,0:0:0:0:
192,192,129939,1,0,0:0:0:0:
320,192,130075,128,0,130211:0:0:0:0:
448,192,130075,128,0,130211:0:0:0:0:
64,192,130211,1,0,0:0:0:0:
64,192,130348,128,0,130621:0:0:0:0:
192,192,130348,128,0,130621:0:0:0:0:
64,192,130893,1,0,0:0:0:0:
192,192,130984,1,0,0:0:0:0:
320,192,131075,1,0,0:0:0:0:
448,192,131166,1,0,0:0:0:0:
192,192,131166,1,0,0:0:0:0:
448,192,131711,1,0,0:0:0:0:
64,192,131711,1,0,0:0:0:0:
320,192,131802,1,0,0:0:0:0:
192,192,131893,1,0,0:0:0:0:
64,192,131984,1,0,0:0:0:0:
448,192,132075,1,0,0:0:0:0:
320,192,132166,1,0,0:0:0:0:
192,192,132257,1,0,0:0:0:0:
64,192,132348,1,0,0:0:0:0:
448,192,132439,1,0,0:0:0:0:
320,192,132530,1,0,0:0:0:0:
192,192,132621,1,0,0:0:0:0:
64,192,132711,1,0,0:0:0:0:
320,192,132802,128,0,133621:0:0:0:0:
192,192,132802,128,0,133621:0:0:0:0:
448,192,133621,128,0,134439:0:0:0:0:
64,192,133621,1,0,0:0:0:0:
320,192,134439,128,0,135257:0:0:0:0:
192,192,134439,1,0,0:0:0:0:
192,192,135257,128,0,136075:0:0:0:0:
64,192,135257,1,0,0:0:0:0:
64,192,136075,128,0,136893:0:0:0:0:
320,192,136075,1,0,0:0:0:0:
192,192,136893,1,0,0:0:0:0:
320,192,136893,1,0,0:0:0:0:
448,192,136893,1,0,0:0:0:0:
