osu file format v14

[General]
AudioFilename: audio.mp3
AudioLeadIn: 0
PreviewTime: 8721
Countdown: 0
SampleSet: Soft
StackLeniency: 0.7
Mode: 0
LetterboxInBreaks: 0
WidescreenStoryboard: 1

[Editor]
Bookmarks: 183721,190993
DistanceSpacing: 1
BeatDivisor: 4
GridSize: 4
TimelineZoom: 1

[Metadata]
Title:RE-OVERDOSE
TitleUnicode:RE-OVERDOSE
Artist:highcolor_sunz
ArtistUnicode:highcolor_sunz
Creator:Mirash
Version:Easy
Source:
Tags:allein Beren vocaloid 1 sleeping 2 repeat 3 OVERDOSE Japanese rock highcolorsunz ハイカラさん Haikara-san highcolor-san highcolorsun ぽわぽわP PowapowaP ぽわぽわ Powapowa 椎名もた siinamota hatsune miku reoverdose cut scissors
BeatmapID:2479145
BeatmapSetID:1020335

[Difficulty]
HPDrainRate:3
CircleSize:3
OverallDifficulty:3
ApproachRate:4
SliderMultiplier:1.1
SliderTickRate:2

[Events]
//Background and Video events
0,0,"overdosehaha.jpg",0,0
//Break Periods
2,74629,76946
2,131192,136946
2,175538,181946
//Storyboard Layer 0 (Background)
//Storyboard Layer 1 (Fail)
//Storyboard Layer 2 (Pass)
//Storyboard Layer 3 (Foreground)
//Storyboard Layer 4 (Overlay)
//Storyboard Sound Samples

[TimingPoints]
1936,454.545454545455,4,2,1,40,1,0
7357,454.545454545455,4,2,1,40,1,0
9062,-100,4,2,1,70,0,0
38266,-100,4,2,0,50,0,0
41902,-100,4,2,1,60,0,0
45538,-100,4,2,0,50,0,0
49174,-100,4,2,1,60,0,0
52811,-100,4,2,1,50,0,0
58265,-100,4,2,1,70,0,0
70992,-100,4,2,1,60,0,0
83720,-100,4,2,1,40,0,0
85424,-100,4,2,0,40,0,0
89174,-100,4,2,1,60,0,0
92811,-100,4,2,0,40,0,0
96447,-100,4,2,1,60,0,0
105538,-100,4,2,1,70,0,0
118265,-100,4,2,1,60,0,0
138265,-100,4,2,1,50,0,0
145538,-100,4,2,1,40,0,0
158266,-100,4,2,1,80,0,1
170993,-100,4,2,1,60,0,0
196590,454.545454545455,4,2,1,50,1,0
197044,-100,4,2,1,40,0,0
197385,-100,4,2,1,35,0,0
197726,-100,4,2,1,30,0,0
198067,-100,4,2,1,25,0,0
198294,-100,4,2,1,15,0,0

[Colours]
Combo1 : 216,193,67
Combo2 : 45,146,179
Combo3 : 63,169,111
Combo4 : 221,55,105

[HitObjects]
446,38,1936,6,0,P|444:94|447:217,1,165,0|0,3:0|0:0,0:0:0:0:
419,251,2845,1,0,0:0:0:0:
310,235,3299,1,0,3:0:0:0:
241,149,3754,2,0,P|174:167|107:253,2,165,0|0|0,3:0|3:0|3:0,0:0:0:0:
290,50,5572,2,0,P|367:99|443:134,2,165,0|0|0,3:0|3:0|3:0,0:0:0:0:
209,112,7357,5,0,3:0:0:0:
240,217,7811,1,0,3:0:0:0:
328,151,8266,2,0,P|303:65|197:36,1,192.5,8|4,1:0|1:3,0:0:0:0:
161,98,9402,2,0,L|172:173,2,55,8|0|8,1:3|1:0|1:3,0:0:0:0:
55,67,10311,1,8,1:3:0:0:
4,164,10766,1,8,1:3:0:0:
105,205,11220,2,0,L|83:321,1,110,8|4,1:3|1:3,0:0:0:0:
95,367,11902,1,0,1:0:0:0:
205,373,12357,2,0,P|211:329|212:283,1,82.5,8|4,1:3|1:0,0:0:0:0:
183,156,13266,6,0,P|249:165|296:169,1,110,8|4,1:3|1:3,0:0:0:0:
382,105,14175,2,0,P|361:39|355:-43,2,110,8|12|8,1:3|1:3|1:3,0:0:0:0:
384,159,15311,2,0,L|466:137,1,55,8|4,1:3|1:3,0:0:0:0:
487,242,15993,2,0,L|391:272,1,82.5,0|4,1:0|1:0,0:0:0:0:
325,265,16675,6,0,L|211:295,1,110,12|8,1:3|1:3,0:0:0:0:
182,334,17357,1,0,1:3:0:0:
93,268,17811,1,0,1:0:0:0:
158,179,18266,1,0,1:0:0:0:
82,99,18720,2,0,P|61:39|58:19,2,55,0|8|0,1:0|1:3|1:0,0:0:0:0:
50,204,19629,2,0,L|37:289,1,82.5,0|4,1:0|1:0,0:0:0:0:
99,339,20311,6,0,P|166:328|227:227,1,165,8|4,1:3|1:3,0:0:0:0:
205,146,21447,1,8,1:3:0:0:
312,169,21902,1,4,1:3:0:0:
297,59,22357,2,0,P|370:73|441:77,1,110,4|4,1:3|1:3,0:0:0:0:
479,157,23266,2,0,P|463:209|453:253,1,82.5,0|4,1:0|1:0,0:0:0:0:
438,316,23947,6,0,P|411:310|312:302,1,110,12|12,1:3|1:3,0:0:0:0:
226,344,24857,1,12,1:3:0:0:
179,244,25311,1,8,1:3:0:0:
283,210,25766,2,0,P|294:142|301:55,1,110,12|8,1:3|1:3,0:0:0:0:
284,47,26447,2,0,P|208:68|186:71,1,55,0|12,1:0|1:3,0:0:0:0:
182,38,26902,2,0,P|126:58|92:73,1,82.5,4|4,1:3|1:0,0:0:0:0:
22,67,27584,6,0,P|28:139|28:186,1,110,12|8,1:3|1:3,0:0:0:0:
115,243,28493,1,12,1:3:0:0:
206,181,28947,1,12,1:3:0:0:
283,259,29402,2,0,P|371:240|439:178,1,165,12|4,1:3|1:3,0:0:0:0:
351,114,30538,2,0,P|360:57|376:25,1,82.5,8|4,1:3|1:0,0:0:0:0:
452,23,31220,6,0,P|484:79|488:193,1,165,12|4,1:3|1:3,0:0:0:0:
411,253,32357,1,8,1:3:0:0:
302,233,32811,2,0,L|168:222,1,110,4|4,1:3|1:3,0:0:0:0:
115,145,33720,1,4,1:3:0:0:
50,234,34175,2,0,P|60:293|63:327,1,82.5,0|4,1:0|1:0,0:0:0:0:
140,343,34857,6,0,P|198:319|237:222,1,165,12|4,1:3|1:3,0:0:0:0:
169,143,35993,1,8,1:3:0:0:
225,48,36447,1,4,1:3:0:0:
312,114,36902,2,0,L|451:128,2,110,4|4|0,1:3|1:3|1:0,0:0:0:0:
323,223,38266,5,4,1:0:0:0:
117,302,39175,2,0,P|109:228|102:109,1,165,0|8,1:0|1:0,0:0:0:0:
82,86,40084,1,4,1:2:0:0:
166,16,40538,2,0,P|179:63|232:96,1,110,0|0,1:0|1:0,0:0:0:0:
337,79,41447,2,0,L|403:90,1,55,2|8,1:3|1:0,0:0:0:0:
437,58,41902,6,0,P|414:196|409:269,1,165,4|0,1:0|1:0,0:0:0:0:
408,275,42811,1,0,3:3:0:0:
306,318,43266,1,8,1:0:0:0:
201,351,43720,2,0,P|216:270|226:188,1,165,0|0,3:3|0:0,0:0:0:0:
197,142,44629,1,0,3:3:0:0:
299,99,45084,1,8,1:0:0:0:
366,187,45538,5,4,1:0:0:0:
189,56,46447,2,0,P|119:80|23:107,1,165,0|8,1:0|1:0,0:0:0:0:
13,157,47357,1,4,1:2:0:0:
49,260,47811,2,0,P|94:241|158:217,1,110,0|0,1:0|1:0,0:0:0:0:
256,252,48720,2,0,L|338:263,1,55,2|12,1:3|1:3,0:0:0:0:
351,223,49175,5,4,1:0:0:0:
430,299,49629,2,0,P|476:229|481:174,2,110,8|0|8,1:0|3:3|1:0,0:0:0:0:
319,301,50993,1,0,3:3:0:0:
210,282,51447,1,8,1:0:0:0:
131,358,51902,1,0,3:3:0:0:
48,284,52357,2,0,B|16:240|16:240|49:175,1,110,8|4,1:0|1:0,0:0:0:0:
140,237,53266,6,0,L|221:220,1,55,2|2,1:3|1:3,0:0:0:0:
231,185,53720,2,0,P|303:200|407:204,1,165,8|2,1:0|1:3,0:0:0:0:
436,169,54629,1,2,1:3:0:0:
354,94,55084,1,2,1:3:0:0:
244,96,55538,1,8,1:0:0:0:
139,61,55993,1,0,0:0:0:0:
94,161,56447,2,0,L|109:294,1,110,0|8,3:0|1:0,0:0:0:0:
216,275,57357,2,0,L|201:337,2,55,4|8|8,1:0|0:0|0:0,0:0:0:0:
287,191,58266,6,0,P|277:140|278:45,2,110,4|8|0,1:0|1:0|1:0,0:0:0:0:
190,138,59629,2,0,P|135:135|81:125,2,110,8|0|8,1:0|1:0|1:0,0:0:0:0:
114,218,60993,2,0,P|102:283|94:339,1,110,0|8,1:0|1:0,0:0:0:0:
197,367,61902,5,0,1:0:0:0:
264,280,62357,1,8,1:0:0:0:
360,331,62811,1,0,1:0:0:0:
422,240,63266,2,0,L|401:164,1,55,8|2,1:0|0:0,0:0:0:0:
362,154,63720,2,0,P|356:83|489:15,1,220,0|0,1:0|1:0,0:0:0:0:
499,115,65084,2,0,L|506:178,1,55,8|2,1:0|0:0,0:0:0:0:
486,221,65538,6,0,P|394:232|335:241,1,110,4|8,1:0|1:0,0:0:0:0:
278,284,66447,2,0,P|186:273|127:264,1,110,0|8,1:0|1:0,0:0:0:0:
80,204,67357,1,0,1:0:0:0:
41,100,67811,1,8,1:0:0:0:
150,85,68266,1,0,1:0:0:0:
187,188,68720,2,0,P|167:254|153:312,2,110,8|0|8,1:0|1:0|1:0,0:0:0:0:
239,170,69857,2,0,P|241:106|239:83,2,55,2|0|2,0:3|1:0|1:3,0:0:0:0:
281,204,70538,1,8,1:0:0:0:
370,140,70993,6,0,P|363:97|235:26,2,165,2|2|10,1:0|1:0|1:0,0:0:0:0:
457,206,72811,2,0,P|416:271|314:319,2,165,2|2|10,1:0|1:0|1:0,0:0:0:0:
405,198,78266,6,0,P|400:125|481:32,2,165,6|2|10,1:0|1:0|1:0,0:0:0:0:
366,301,80084,2,0,P|253:284|161:274,2,165,2|2|10,1:0|1:0|1:0,0:0:0:0:
323,199,81902,5,2,1:0:0:0:
158,193,82584,1,2,1:0:0:0:
117,33,83266,2,0,B|144:3|144:3|197:10,1,82.5,8|8,1:0|1:0,1:0:0:0:
486,193,85538,5,4,1:0:0:0:
344,361,86447,2,0,P|277:345|159:338,1,165
139,301,87357,1,6,1:3:0:0:
43,246,87811,2,0,P|52:211|101:157,1,110,0|2,0:0|0:0,0:0:0:0:
201,206,88720,2,0,L|274:195,1,55,8|8,1:0|1:0,0:0:0:0:
262,143,89175,6,0,L|382:167,1,110,4|8,1:0|1:0,0:0:0:0:
459,100,90084,1,0,1:0:0:0:
509,197,90538,1,8,1:0:0:0:
424,267,90993,2,0,L|304:243,1,110,0|8,1:0|1:0,0:0:0:0:
231,316,91902,1,0,1:0:0:0:
166,227,92356,1,8,1:0:0:0:
57,247,92811,5,4,1:0:0:0:
171,59,93720,2,0,P|242:84|348:104,1,165
382,86,94629,1,6,1:3:0:0:
444,176,95084,2,0,P|424:220|377:263,1,110,0|2,0:0|0:0,0:0:0:0:
288,203,95993,2,0,L|207:216,1,55,8|8,1:0|1:0,0:0:0:0:
187,181,96447,6,0,P|146:194|97:264,1,110,4|8,1:0|1:0,0:0:0:0:
170,330,97357,1,0,1:0:0:0:
254,259,97811,2,0,L|326:249,1,55,8|2,1:0|0:3,0:0:0:0:
345,210,98266,2,0,P|386:223|435:293,1,110,0|8,1:0|1:0,0:0:0:0:
362,359,99176,1,0,1:0:0:0:
278,288,99630,2,0,L|206:278,1,55,8|8,1:0|1:0,0:0:0:0:
169,292,100084,6,0,P|161:219|148:92,1,165,4|0,1:0|1:0,0:0:0:0:
114,87,100993,2,0,P|187:79|314:66,1,165,8|2,1:0|0:3,0:0:0:0:
319,32,101902,2,0,P|327:105|332:155,2,110,4|0|8,1:2|0:0|1:0,0:0:0:0:
418,78,103266,1,0,0:0:0:0:
400,186,103720,5,0,1:0:0:0:
409,295,104175,2,0,P|354:300|300:310,1,110,8|4,1:0|1:0,0:0:0:0:
256,276,104857,2,0,P|230:280|201:291,1,55,8|8,0:0|0:0,0:0:0:0:
95,259,105538,6,0,P|90:313|82:368,2,110,4|8|0,1:0|1:0|1:0,0:0:0:0:
35,166,106902,2,0,P|27:111|22:56,2,110,8|0|8,1:0|1:0|1:0,0:0:0:0:
144,158,108266,1,0,1:0:0:0:
216,240,108720,2,0,L|293:226,1,55,8|2,1:0|1:3,0:0:0:0:
314,197,109175,6,0,P|376:208|452:223,2,110,0|8|0,1:0|1:0|1:0,0:0:0:0:
240,90,110538,1,8,1:0:0:0:
337,39,110993,1,0,1:0:0:0:
393,133,111447,1,8,1:0:0:0:
500,108,111902,1,0,1:0:0:0:
475,0,112357,2,0,L|394:16,1,55,8|2,1:0|0:0,0:0:0:0:
372,37,112811,6,0,P|303:28|245:17,2,110,4|8|0,1:0|1:0|1:0,0:0:0:0:
404,142,114175,2,0,P|458:135|512:125,2,110,8|0|8,1:0|1:0|1:0,0:0:0:0:
295,157,115538,1,0,1:0:0:0:
260,261,115993,2,0,P|257:286|259:336,1,55,8|2,1:0|0:3,0:0:0:0:
301,347,116447,2,0,P|360:318|389:248,1,110,0|8,1:0|1:0,0:0:0:0:
325,187,117357,1,0,1:0:0:0:
215,187,117811,2,0,B|164:208|164:208|109:166,1,110,8|4,1:0|1:0,1:0:0:0:
257,346,119175,5,0,1:0:0:0:
278,127,120084,2,0,P|365:151|457:49,1,220,0|0,1:0|1:0,0:0:0:0:
365,4,121447,1,8,1:0:0:0:
258,30,121902,6,0,P|184:40|126:43,1,110,0|8,1:0|1:0,0:0:0:0:
73,122,122811,1,0,1:0:0:0:
158,191,123266,1,8,1:0:0:0:
252,134,123720,2,0,L|263:210,1,55,0|0,1:0|1:0,0:0:0:0:
310,211,124175,2,0,L|274:346,2,110,8|0|8,1:0|1:0|1:0,0:0:0:0:
419,201,125538,6,0,P|465:185|488:87,1,110,4|8,1:0|1:0,0:0:0:0:
449,33,126447,1,0,1:0:0:0:
354,89,126902,1,8,1:0:0:0:
258,34,127357,2,0,L|139:63,1,110,0|8,1:0|1:0,0:0:0:0:
41,65,128266,1,0,1:0:0:0:
91,162,128720,1,8,1:0:0:0:
187,214,129175,6,0,P|214:261|237:351,2,110,0|8|0,1:0|1:0|1:0,0:0:0:0:
188,104,130538,2,0,B|225:65|225:65|289:91,1,110,8|4,1:0|1:0,0:0:0:0:
424,192,138266,6,0,P|415:105|413:15,2,165,4|0|0,1:0|1:0|1:0,0:0:0:0:
313,192,140084,2,0,P|310:274|301:356,2,165,0|0|0,1:0|1:0|1:0,0:0:0:0:
257,96,141902,5,0,1:0:0:0:
123,193,142584,1,0,1:0:0:0:
257,288,143266,1,0,1:0:0:0:
323,375,143720,5,0,1:0:0:0:
457,278,144402,1,0,1:0:0:0:
343,158,145084,1,0,1:0:0:0:
345,267,145538,6,0,P|348:347|349:395,1,110,4|8,1:0|0:0,0:0:0:0:
242,348,146447,2,0,P|240:293|238:238,1,110,2|8,1:2|0:0,0:0:0:0:
131,209,147357,2,0,P|133:264|135:319,1,110,2|8,1:2|0:0,0:0:0:0:
26,288,148266,2,0,P|24:233|22:178,1,110,2|8,1:2|0:0,0:0:0:0:
41,69,149175,5,2,1:2:0:0:
258,34,150084,1,2,1:2:0:0:
425,177,150993,1,2,1:2:0:0:
226,270,151902,1,2,1:2:0:0:
242,161,152357,1,8,0:0:0:0:
258,52,152811,1,4,1:0:0:0:
85,188,153720,6,0,P|169:197|236:203,2,110,2|8|2,1:2|0:0|1:2,0:0:0:0:
3,262,155084,1,8,0:0:0:0:
89,329,155538,2,0,P|168:313|226:306,1,110,2|8,1:2|0:0,0:0:0:0:
273,229,156447,1,2,1:2:0:0:
365,288,156902,1,8,0:0:0:0:
458,229,157357,2,0,L|450:151,2,55,0|8|8,1:0|0:0|0:0,0:0:0:0:
414,329,158266,6,0,P|347:322|291:320,1,110,4|8,1:0|1:0,0:0:0:0:
226,242,159175,2,0,P|171:244|116:250,1,110,0|8,1:0|1:0,0:0:0:0:
106,360,160084,2,0,P|173:353|229:351,1,110,0|8,1:0|1:0,0:0:0:0:
294,273,160993,2,0,P|348:275|403:281,1,110,0|8,1:0|1:0,0:0:0:0:
431,175,161902,5,0,1:0:0:0:
321,182,162357,2,0,P|311:111|301:44,2,110,8|0|8,1:0|1:0|1:0,0:0:0:0:
224,234,163720,1,0,1:0:0:0:
121,186,164175,1,8,1:0:0:0:
179,93,164629,1,0,1:0:0:0:
104,11,165084,2,0,L|57:42,1,55,8|2,1:0|0:0,0:0:0:0:
9,67,165538,6,0,P|21:124|28:213,1,110,4|8,1:0|1:0,0:0:0:0:
113,243,166447,2,0,P|119:188|130:134,1,110,0|8,1:0|1:0,0:0:0:0:
216,65,167357,1,0,1:0:0:0:
289,146,167811,1,8,1:0:0:0:
394,114,168266,1,0,1:0:0:0:
443,212,168720,1,8,1:0:0:0:
354,277,169175,6,0,P|281:271|239:281,1,110,0|8,1:0|1:0,0:0:0:0:
170,198,170084,2,0,L|106:212,1,55,0|2,1:0|1:3,0:0:0:0:
68,237,170538,2,0,B|34:193|34:193|66:103,1,110,8|6,1:0|1:0,1:0:0:0:
258,64,171902,5,0,3:0:0:0:
255,174,172357,1,8,3:1:0:0:
251,283,172811,2,0,P|321:268|387:134,2,220,2|0|0,3:1|0:0|3:0,0:0:0:0:
285,194,183266,6,0,B|333:168|333:168|385:205,1,110,8|4,1:0|1:0,1:0:0:0:
474,146,184175,2,0,P|457:70|450:17,2,110,10|0|10,1:0|0:0|1:0,0:0:0:0:
440,250,185538,2,0,P|411:324|401:357,1,110,0|10,1:0|1:0,0:0:0:0:
294,376,186447,1,0,1:0:0:0:
237,281,186902,2,0,L|175:293,1,55,10|0,1:0|1:0,0:0:0:0:
142,329,187357,6,0,P|111:277|157:166,2,165,2|2|2,1:0|1:0|1:0,0:0:0:0:
248,302,189175,2,0,L|433:329,2,165,2|2|8,1:0|1:0|1:0,0:0:0:0:
212,197,190993,5,4,1:0:0:0:
296,126,191447,1,10,1:0:0:0:
218,48,191902,1,0,1:0:0:0:
134,119,192357,1,10,1:0:0:0:
212,197,192811,2,0,L|338:170,2,110,0|10|0,1:0|1:0|1:0,0:0:0:0:
137,277,194175,2,0,L|81:266,1,55,10|0,1:0|1:0,0:0:0:0:
35,294,194629,6,0,P|41:227|37:127,1,165,2|0,1:0|1:0,0:0:0:0:
12,80,195538,1,2,1:0:0:0:
120,100,195993,2,0,B|147:70|147:70|202:79,1,82.5,8|8,1:0|1:0,1:0:0:0:
256,192,196590,12,2,198067,1:2:0:0:
