osu file format v14

[General]
AudioFilename: audio.mp3
AudioLeadIn: 0
PreviewTime: 62137
Countdown: 0
SampleSet: Normal
StackLeniency: 0.7
Mode: 1
LetterboxInBreaks: 0
WidescreenStoryboard: 0

[Editor]
Bookmarks: 62164,86054,171882
DistanceSpacing: 1.3
BeatDivisor: 4
GridSize: 16
TimelineZoom: 1.38

[Metadata]
Title:Sousei no Aquarion (Cut Ver.)
TitleUnicode:創聖のアクエリオン (Cut Ver.)
Artist:high_note
ArtistUnicode:high_note
Creator:iloveyou4ever
Version:Oni
Source:創聖のアクエリオン
Tags:ハイノート cover AKINO your ears, our years genesis of aquarion anime opening op japanese pop jpop j-pop lost in time from bless4 short version female vocals
BeatmapID:3954235
BeatmapSetID:1916394

[Difficulty]
HPDrainRate:6
CircleSize:5
OverallDifficulty:5
ApproachRate:5
SliderMultiplier:1.4
SliderTickRate:1

[Events]
//Background and Video events
0,0,"maxresdefault (1).jpg",0,-60
//Break Periods
//Storyboard Layer 0 (Background)
//Storyboard Layer 1 (Fail)
//Storyboard Layer 2 (Pass)
//Storyboard Layer 3 (Foreground)
//Storyboard Layer 4 (Overlay)
//Storyboard Sound Samples

[TimingPoints]
222,397.350993377483,4,1,0,65,1,0
5387,-100,4,1,0,55,0,0
7172,-106.382978723404,4,1,0,50,0,0
7271,-106.382978723404,4,1,0,50,0,0
7371,-106.382978723404,4,1,0,50,0,0
7569,-106.382978723404,4,1,0,50,0,0
7768,-106.382978723404,4,1,0,50,0,0
7967,-106.382978723404,4,1,0,50,0,0
8166,-106.382978723404,4,1,0,50,0,0
20486,-103.092783505155,4,1,0,55,0,0
20884,-100,4,1,0,60,0,0
33003,-106.382978723404,4,1,0,60,0,0
33202,-104.166666666667,4,1,0,60,0,0
33400,-102.040816326531,4,1,0,60,0,0
33599,-100,4,1,0,65,0,0
62208,-95.2380952380952,4,1,0,75,0,1
87639,-95.2380952380952,4,1,0,75,0,0
87837,-100,4,1,0,65,0,0
94791,400,4,1,0,65,1,8
94791,-99.3377549230301,4,1,0,65,0,0
95191,-100.806451612903,4,1,0,65,0,0
95388,-102.669404517454,4,1,0,65,0,0
95598,444.444444444444,4,1,0,65,1,0
95598,-95.5919722267835,4,1,0,65,0,0
96052,468.75,4,1,0,65,1,8
96052,-96.0856535599692,4,1,0,65,0,0
96282,530.973451327434,4,1,0,65,1,8
96282,-87.6019361863387,4,1,0,65,0,0
96541,594.059405940594,4,1,0,60,1,8
96541,-81.3130013338564,4,1,0,60,0,0
96838,638.297872340426,4,1,0,60,1,8
96838,-79.0894138333936,4,1,0,60,0,0
97167,821.917808219178,4,1,0,55,1,8
97167,-64.5461719188719,4,1,0,55,0,0
97564,-69.0633869441817,4,1,0,55,0,0
97978,1153.84615384615,4,1,0,55,1,8
98122,1153.84615384615,4,1,0,50,1,0
98122,-52.9801324503311,4,1,0,50,0,0
98410,-52.9801324503311,4,1,0,48,0,0
98617,-52.9801324503311,4,1,0,47,0,0
98825,-52.9801324503311,4,1,0,46,0,0
99033,-52.9801324503311,4,1,0,45,0,0
99241,-52.9801324503311,4,1,0,44,0,0
99449,-52.9801324503311,4,1,0,43,0,0
99657,-52.9801324503311,4,1,0,42,0,0
99865,-52.9801324503311,4,1,0,41,0,0
100073,-52.9801324503311,4,1,0,40,0,0
100281,-52.9801324503311,4,1,0,39,0,0
100489,-52.9801324503311,4,1,0,38,0,0
100697,-52.9801324503311,4,1,0,37,0,0
100905,-52.9801324503311,4,1,0,36,0,0
101113,-52.9801324503311,4,1,0,35,0,0
101321,-52.9801324503311,4,1,0,34,0,0
101529,-52.9801324503311,4,1,0,33,0,0
101737,-52.9801324503311,4,1,0,32,0,0
101945,-52.9801324503311,4,1,0,31,0,0
102153,-52.9801324503311,4,1,0,30,0,0
102361,-52.9801324503311,4,1,0,29,0,0
102569,-52.9801324503311,4,1,0,28,0,0
102777,-52.9801324503311,4,1,0,27,0,0
102985,-52.9801324503311,4,1,0,26,0,0
103193,-52.9801324503311,4,1,0,25,0,0
103401,-52.9801324503311,4,1,0,24,0,0
103609,-52.9801324503311,4,1,0,23,0,0
103817,-52.9801324503311,4,1,0,22,0,0
104025,-52.9801324503311,4,1,0,21,0,0
104233,-52.9801324503311,4,1,0,20,0,0
104441,-52.9801324503311,4,1,0,19,0,0
104649,-52.9801324503311,4,1,0,18,0,0
104857,-52.9801324503311,4,1,0,17,0,0
105065,-52.9801324503311,4,1,0,16,0,0
105273,-52.9801324503311,4,1,0,15,0,0
105481,-52.9801324503311,4,1,0,14,0,0
105689,-52.9801324503311,4,1,0,13,0,0
105897,-52.9801324503311,4,1,0,12,0,0
106105,-52.9801324503311,4,1,0,11,0,0
106313,-52.9801324503311,4,1,0,10,0,0
106521,-52.9801324503311,4,1,0,9,0,0
106729,-52.9801324503311,4,1,0,8,0,0
106937,-52.9801324503311,4,1,0,7,0,0
107145,-52.9801324503311,4,1,0,6,0,0
107353,-52.9801324503311,4,1,0,5,0,0

[HitObjects]
393,147,222,5,0,0:0:0:0:
393,147,420,1,0,0:0:0:0:
421,182,520,1,0,0:0:0:0:
472,188,619,1,8,0:0:0:0:
386,156,818,1,8,0:0:0:0:
472,182,1016,1,0,0:0:0:0:
472,188,1314,1,8,0:0:0:0:
472,188,1414,1,0,0:0:0:0:
381,194,1612,1,0,0:0:0:0:
472,182,2010,1,8,0:0:0:0:
472,182,2407,1,8,0:0:0:0:
472,182,2606,1,0,0:0:0:0:
472,182,2804,1,8,0:0:0:0:
472,182,2904,1,8,0:0:0:0:
472,182,3003,1,0,0:0:0:0:
448,240,3202,1,0,0:0:0:0:
472,182,3500,1,0,0:0:0:0:
472,182,3599,1,0,0:0:0:0:
383,161,3798,1,8,0:0:0:0:
472,182,3996,1,0,0:0:0:0:
472,182,4195,1,8,0:0:0:0:
472,182,4394,1,8,0:0:0:0:
381,192,4592,1,8,0:0:0:0:
472,182,4791,1,0,0:0:0:0:
416,192,5188,1,4,0:0:0:0:
256,192,5387,12,0,7374,0:0:0:0:
421,178,7572,5,8,0:0:0:0:
467,172,7771,1,0,0:0:0:0:
500,189,7970,1,0,0:0:0:0:
467,172,8169,1,8,0:0:0:0:
500,189,8367,1,8,0:0:0:0:
445,248,8566,1,0,0:0:0:0:
381,212,8765,1,8,0:0:0:0:
467,172,9162,1,0,0:0:0:0:
429,254,9361,1,0,0:0:0:0:
471,77,9758,1,8,0:0:0:0:
417,159,10751,1,0,0:0:0:0:
346,216,10950,1,8,0:0:0:0:
487,192,11149,1,0,0:0:0:0:
496,101,11347,1,8,0:0:0:0:
361,224,11745,1,8,0:0:0:0:
440,181,11943,1,0,0:0:0:0:
497,195,12341,1,0,0:0:0:0:
432,259,12539,1,0,0:0:0:0:
495,345,12937,1,8,0:0:0:0:
489,176,14327,1,0,0:0:0:0:
464,263,14526,1,8,0:0:0:0:
481,194,14725,1,8,0:0:0:0:
450,191,14923,1,8,0:0:0:0:
489,176,15122,1,0,0:0:0:0:
310,214,15520,1,8,0:0:0:0:
450,191,15917,1,8,0:0:0:0:
463,169,16314,1,0,0:0:0:0:
483,257,16513,1,0,0:0:0:0:
496,183,17308,1,0,0:0:0:0:
405,180,17506,1,0,0:0:0:0:
496,183,17705,1,0,0:0:0:0:
405,173,17904,1,8,0:0:0:0:
496,183,18301,1,8,0:0:0:0:
480,194,18897,1,0,0:0:0:0:
496,183,19096,1,8,0:0:0:0:
405,193,19294,1,0,0:0:0:0:
442,169,19592,1,8,0:0:0:0:
480,194,19692,1,0,0:0:0:0:
480,194,19890,1,0,0:0:0:0:
442,169,20089,1,8,0:0:0:0:
480,194,20486,1,8,0:0:0:0:
350,166,20884,1,4,0:0:0:0:
448,176,21281,1,0,0:0:0:0:
448,160,21480,1,8,0:0:0:0:
464,240,21678,1,8,0:0:0:0:
432,224,21877,1,0,0:0:0:0:
480,160,22076,1,8,0:0:0:0:
64,64,22473,1,0,0:0:0:0:
448,64,22672,1,8,0:0:0:0:
448,64,22871,1,8,0:0:0:0:
350,328,23268,1,0,0:0:0:0:
391,246,23467,1,0,0:0:0:0:
480,224,23665,1,8,0:0:0:0:
480,192,23864,1,0,0:0:0:0:
451,178,23963,1,0,0:0:0:0:
451,178,24063,1,8,0:0:0:0:
432,208,24460,1,0,0:0:0:0:
468,190,24659,1,8,0:0:0:0:
464,320,24857,1,0,0:0:0:0:
368,176,25056,1,0,0:0:0:0:
468,190,25255,1,8,0:0:0:0:
352,160,25652,1,0,0:0:0:0:
416,176,25851,1,8,0:0:0:0:
416,192,26049,1,0,0:0:0:0:
405,311,26347,1,0,0:0:0:0:
468,190,26447,1,8,0:0:0:0:
468,190,26645,1,8,0:0:0:0:
435,275,26844,1,0,0:0:0:0:
445,184,27043,1,0,0:0:0:0:
456,258,27142,1,0,0:0:0:0:
468,190,27241,1,8,0:0:0:0:
416,192,27440,1,8,0:0:0:0:
464,256,27639,1,0,0:0:0:0:
392,198,27837,1,8,0:0:0:0:
456,261,28036,1,0,0:0:0:0:
448,192,28433,1,8,0:0:0:0:
431,187,28632,1,0,0:0:0:0:
448,208,28831,1,0,0:0:0:0:
464,198,29029,1,8,0:0:0:0:
464,198,29228,1,8,0:0:0:0:
442,165,29625,1,8,0:0:0:0:
471,171,29824,1,0,0:0:0:0:
471,171,30023,1,0,0:0:0:0:
442,165,30221,1,8,0:0:0:0:
442,165,30321,1,8,0:0:0:0:
458,207,30420,1,0,0:0:0:0:
480,176,30619,1,8,0:0:0:0:
480,176,30818,1,0,0:0:0:0:
480,160,31016,1,0,0:0:0:0:
464,160,31215,1,8,0:0:0:0:
328,160,31513,1,0,0:0:0:0:
297,116,31612,1,0,0:0:0:0:
373,165,31811,1,0,0:0:0:0:
459,194,32010,1,8,0:0:0:0:
459,194,33003,1,0,0:0:0:0:
368,200,33202,1,8,0:0:0:0:
454,227,33400,1,0,0:0:0:0:
432,29,33599,1,4,0:0:0:0:
476,205,33996,1,8,0:0:0:0:
476,205,34195,1,0,0:0:0:0:
442,173,34294,1,0,0:0:0:0:
476,205,34394,1,8,0:0:0:0:
442,173,34592,1,0,0:0:0:0:
442,173,34791,1,8,0:0:0:0:
481,184,34990,1,8,0:0:0:0:
351,175,35188,1,0,0:0:0:0:
480,205,35586,1,0,0:0:0:0:
481,184,35784,1,8,0:0:0:0:
481,184,35983,1,0,0:0:0:0:
395,152,36182,1,0,0:0:0:0:
479,185,36380,1,8,0:0:0:0:
489,166,36579,1,8,0:0:0:0:
481,184,36678,1,8,0:0:0:0:
481,184,36778,1,0,0:0:0:0:
508,160,37175,1,8,0:0:0:0:
479,185,37374,1,0,0:0:0:0:
481,184,37771,1,0,0:0:0:0:
481,92,37970,1,8,0:0:0:0:
473,182,38169,1,8,0:0:0:0:
479,185,38268,1,8,0:0:0:0:
432,180,38367,1,0,0:0:0:0:
481,184,38566,1,0,0:0:0:0:
481,184,38765,1,8,0:0:0:0:
391,168,38963,1,0,0:0:0:0:
478,183,39162,1,8,0:0:0:0:
432,176,39361,1,0,0:0:0:0:
480,224,39460,1,0,0:0:0:0:
400,176,39559,1,8,0:0:0:0:
432,192,39957,1,8,0:0:0:0:
449,235,40155,1,0,0:0:0:0:
459,198,40354,1,8,0:0:0:0:
466,288,40553,1,0,0:0:0:0:
444,220,40652,1,0,0:0:0:0:
420,183,40751,1,8,0:0:0:0:
433,263,40950,1,0,0:0:0:0:
420,183,41149,1,8,0:0:0:0:
420,183,41347,1,8,0:0:0:0:
465,181,41447,1,8,0:0:0:0:
510,194,41546,1,0,0:0:0:0:
330,162,41943,1,8,0:0:0:0:
465,181,42142,1,0,0:0:0:0:
425,203,42241,1,8,0:0:0:0:
465,181,42341,1,8,0:0:0:0:
465,181,42539,1,0,0:0:0:0:
465,181,42738,1,8,0:0:0:0:
465,181,42937,1,8,0:0:0:0:
419,259,43135,1,0,0:0:0:0:
496,176,43533,1,8,0:0:0:0:
496,176,43731,1,0,0:0:0:0:
496,176,43831,1,0,0:0:0:0:
496,176,43930,1,8,0:0:0:0:
496,176,44129,1,0,0:0:0:0:
496,176,44327,1,8,0:0:0:0:
496,176,44526,1,8,0:0:0:0:
496,176,44625,1,8,0:0:0:0:
496,176,44725,1,0,0:0:0:0:
492,266,44923,1,0,0:0:0:0:
496,176,45122,1,8,0:0:0:0:
405,184,45321,1,0,0:0:0:0:
496,176,45520,1,8,0:0:0:0:
456,179,45718,1,0,0:0:0:0:
456,179,45818,1,0,0:0:0:0:
475,204,45917,1,0,0:0:0:0:
468,172,46314,1,4,0:0:0:0:
468,172,46712,1,8,0:0:0:0:
468,172,46910,1,8,0:0:0:0:
501,140,47010,1,0,0:0:0:0:
468,172,47109,1,0,0:0:0:0:
484,157,47308,1,0,0:0:0:0:
468,172,47506,1,8,0:0:0:0:
377,184,47705,1,8,0:0:0:0:
468,172,47904,1,0,0:0:0:0:
468,172,48301,1,8,0:0:0:0:
468,172,48500,1,0,0:0:0:0:
468,172,48599,1,8,0:0:0:0:
468,172,48698,1,8,0:0:0:0:
468,172,48897,1,0,0:0:0:0:
488,169,49096,1,8,0:0:0:0:
468,172,49294,1,8,0:0:0:0:
468,172,49394,1,8,0:0:0:0:
468,172,49493,1,0,0:0:0:0:
290,134,49890,1,8,0:0:0:0:
466,181,50288,1,0,0:0:0:0:
468,172,50486,1,0,0:0:0:0:
381,143,50685,1,8,0:0:0:0:
456,193,50884,1,0,0:0:0:0:
466,181,51082,1,0,0:0:0:0:
288,140,51480,1,8,0:0:0:0:
466,175,51877,1,0,0:0:0:0:
376,158,52076,1,0,0:0:0:0:
420,166,52175,1,0,0:0:0:0:
420,166,52274,1,8,0:0:0:0:
420,166,52473,1,0,0:0:0:0:
466,175,52672,1,12,0:0:0:0:
489,190,53069,1,8,0:0:0:0:
489,190,53268,1,8,0:0:0:0:
487,174,53367,1,0,0:0:0:0:
466,175,53467,1,0,0:0:0:0:
466,175,53665,1,0,0:0:0:0:
466,175,53864,1,8,0:0:0:0:
466,175,54063,1,4,0:0:0:0:
466,175,54460,1,0,0:0:0:0:
466,175,54659,1,8,0:0:0:0:
466,175,55056,1,0,0:0:0:0:
466,175,55255,1,0,0:0:0:0:
466,175,55453,1,8,0:0:0:0:
466,175,55652,1,8,0:0:0:0:
375,187,55851,1,4,0:0:0:0:
432,192,56049,1,8,0:0:0:0:
432,192,56149,1,8,0:0:0:0:
432,192,56248,1,0,0:0:0:0:
444,174,56447,1,8,0:0:0:0:
416,208,56645,1,0,0:0:0:0:
480,208,56745,1,0,0:0:0:0:
427,178,56844,1,8,0:0:0:0:
464,192,57043,1,8,0:0:0:0:
466,175,57241,1,0,0:0:0:0:
474,170,57440,1,8,0:0:0:0:
441,169,57639,1,8,0:0:0:0:
449,176,57837,1,0,0:0:0:0:
493,185,58235,1,8,0:0:0:0:
461,165,58433,1,8,0:0:0:0:
447,187,58533,1,8,0:0:0:0:
447,187,58632,1,0,0:0:0:0:
447,187,58831,1,8,0:0:0:0:
471,173,59029,1,4,0:0:0:0:
505,163,59427,1,8,0:0:0:0:
471,173,59824,1,0,0:0:0:0:
464,176,60023,1,0,0:0:0:0:
384,192,60221,1,8,0:0:0:0:
449,161,60420,1,8,0:0:0:0:
446,179,60520,1,8,0:0:0:0:
426,183,60619,1,0,0:0:0:0:
443,198,60818,1,0,0:0:0:0:
446,179,61016,1,8,0:0:0:0:
440,190,61116,1,0,0:0:0:0:
471,173,61215,1,0,0:0:0:0:
471,173,61314,1,0,0:0:0:0:
471,173,61414,1,8,0:0:0:0:
471,173,61612,1,8,0:0:0:0:
209,95,62208,1,4,0:0:0:0:
388,183,62606,1,8,0:0:0:0:
487,172,62804,1,0,0:0:0:0:
487,172,63003,1,8,0:0:0:0:
386,167,63202,1,0,0:0:0:0:
435,169,63301,1,0,0:0:0:0:
435,169,63400,1,8,0:0:0:0:
435,169,63599,1,0,0:0:0:0:
435,169,63798,1,8,0:0:0:0:
469,181,64195,1,8,0:0:0:0:
469,181,64394,1,0,0:0:0:0:
469,181,64592,1,8,0:0:0:0:
445,278,64791,1,0,0:0:0:0:
401,211,64890,1,0,0:0:0:0:
421,180,64990,1,8,0:0:0:0:
506,161,65188,1,8,0:0:0:0:
450,289,65387,1,0,0:0:0:0:
401,211,65586,1,0,0:0:0:0:
401,211,65685,1,0,0:0:0:0:
506,161,65784,1,8,0:0:0:0:
414,201,65983,1,0,0:0:0:0:
506,161,66182,1,8,0:0:0:0:
459,179,66281,1,0,0:0:0:0:
488,183,66380,1,0,0:0:0:0:
460,231,66480,1,0,0:0:0:0:
459,179,66579,1,8,0:0:0:0:
459,179,66778,1,8,0:0:0:0:
459,179,66976,1,0,0:0:0:0:
487,156,67374,1,8,0:0:0:0:
487,156,67572,1,0,0:0:0:0:
393,193,67771,1,8,0:0:0:0:
439,174,67871,1,8,0:0:0:0:
487,156,67970,1,0,0:0:0:0:
487,156,68169,1,8,0:0:0:0:
426,236,68566,1,4,0:0:0:0:
384,176,68963,1,8,0:0:0:0:
416,176,69162,1,0,0:0:0:0:
384,160,69361,1,8,0:0:0:0:
496,192,69460,1,8,0:0:0:0:
432,160,69559,1,0,0:0:0:0:
432,160,69758,1,8,0:0:0:0:
416,160,69957,1,8,0:0:0:0:
416,160,70155,1,0,0:0:0:0:
448,176,70553,1,8,0:0:0:0:
416,160,70751,1,0,0:0:0:0:
464,192,70851,1,0,0:0:0:0:
432,160,70950,1,8,0:0:0:0:
400,160,71149,1,0,0:0:0:0:
416,176,71347,1,8,0:0:0:0:
448,192,71447,1,8,0:0:0:0:
432,208,71546,1,0,0:0:0:0:
464,208,71645,1,8,0:0:0:0:
448,192,71745,1,8,0:0:0:0:
416,176,71943,1,0,0:0:0:0:
448,160,72142,1,8,0:0:0:0:
416,176,72341,1,8,0:0:0:0:
64,64,72440,1,0,0:0:0:0:
432,176,72539,1,0,0:0:0:0:
464,192,72738,1,0,0:0:0:0:
416,176,72937,1,8,0:0:0:0:
448,176,73135,1,0,0:0:0:0:
432,176,73235,1,8,0:0:0:0:
432,176,73334,1,8,0:0:0:0:
432,176,73533,1,8,0:0:0:0:
432,160,73731,1,0,0:0:0:0:
480,176,73930,1,0,0:0:0:0:
480,176,74029,1,0,0:0:0:0:
432,176,74129,1,8,0:0:0:0:
432,176,74327,1,8,0:0:0:0:
448,176,74427,1,0,0:0:0:0:
480,176,74526,1,8,0:0:0:0:
480,176,74625,1,8,0:0:0:0:
448,176,74725,1,0,0:0:0:0:
368,160,74923,1,4,0:0:0:0:
416,192,75321,1,8,0:0:0:0:
448,176,75520,1,0,0:0:0:0:
432,176,75718,1,8,0:0:0:0:
432,176,75818,1,8,0:0:0:0:
432,176,75917,1,0,0:0:0:0:
448,224,76116,1,0,0:0:0:0:
416,176,76314,1,8,0:0:0:0:
432,192,76513,1,0,0:0:0:0:
464,192,76910,1,8,0:0:0:0:
480,176,77109,1,0,0:0:0:0:
464,192,77308,1,8,0:0:0:0:
464,192,77407,1,8,0:0:0:0:
464,176,77506,1,0,0:0:0:0:
464,208,77705,1,8,0:0:0:0:
448,176,77904,1,8,0:0:0:0:
464,176,78102,1,0,0:0:0:0:
480,192,78301,1,0,0:0:0:0:
416,160,78400,1,0,0:0:0:0:
432,176,78500,1,8,0:0:0:0:
432,160,78698,1,0,0:0:0:0:
448,160,78897,1,8,0:0:0:0:
432,160,78996,1,8,0:0:0:0:
416,176,79096,1,0,0:0:0:0:
416,176,79195,1,0,0:0:0:0:
448,160,79294,1,8,0:0:0:0:
432,176,79493,1,8,0:0:0:0:
448,160,79692,1,0,0:0:0:0:
448,176,79890,1,0,0:0:0:0:
464,192,80089,1,12,0:0:0:0:
416,176,80288,1,8,0:0:0:0:
416,176,80387,1,8,0:0:0:0:
464,176,80486,1,0,0:0:0:0:
448,176,80685,1,0,0:0:0:0:
432,160,80884,1,8,0:0:0:0:
448,176,81281,1,4,0:0:0:0:
498,178,81480,1,0,0:0:0:0:
408,193,81678,1,8,0:0:0:0:
458,209,81778,1,8,0:0:0:0:
456,196,81877,1,0,0:0:0:0:
448,176,82076,1,0,0:0:0:0:
437,185,82175,1,0,0:0:0:0:
469,172,82274,1,8,0:0:0:0:
461,193,82374,1,0,0:0:0:0:
450,189,82473,1,8,0:0:0:0:
469,187,82672,1,0,0:0:0:0:
478,185,82871,1,8,0:0:0:0:
464,176,83069,1,0,0:0:0:0:
464,176,83169,1,0,0:0:0:0:
464,176,83268,1,8,0:0:0:0:
464,176,83467,1,8,0:0:0:0:
464,176,83665,1,0,0:0:0:0:
448,160,83765,1,8,0:0:0:0:
464,176,83864,1,0,0:0:0:0:
448,160,84063,1,8,0:0:0:0:
448,160,84261,1,8,0:0:0:0:
464,160,84460,1,4,0:0:0:0:
464,176,84659,1,0,0:0:0:0:
426,165,84758,1,0,0:0:0:0:
464,176,84857,1,8,0:0:0:0:
464,160,85056,1,8,0:0:0:0:
464,176,85155,1,8,0:0:0:0:
448,176,85255,1,0,0:0:0:0:
448,176,85453,1,0,0:0:0:0:
426,165,85553,1,0,0:0:0:0:
448,176,85652,1,8,0:0:0:0:
370,178,85851,1,8,0:0:0:0:
439,179,85950,1,8,0:0:0:0:
471,166,86049,1,0,0:0:0:0:
478,183,86248,1,0,0:0:0:0:
437,187,86447,1,8,0:0:0:0:
433,183,86546,1,0,0:0:0:0:
448,180,86645,1,8,0:0:0:0:
434,180,86745,1,8,0:0:0:0:
451,172,86844,1,0,0:0:0:0:
445,173,87043,1,0,0:0:0:0:
444,169,87241,1,8,0:0:0:0:
452,183,87639,1,4,0:0:0:0:
456,179,88235,1,0,0:0:0:0:
464,184,88632,1,8,0:0:0:0:
476,179,89029,1,0,0:0:0:0:
476,179,89228,1,0,0:0:0:0:
473,176,89427,1,8,0:0:0:0:
473,176,89625,1,8,0:0:0:0:
468,197,89824,1,0,0:0:0:0:
494,160,90023,1,12,0:0:0:0:
454,186,90420,1,8,0:0:0:0:
461,179,90619,1,0,0:0:0:0:
465,185,90818,1,4,0:0:0:0:
452,173,91414,1,8,0:0:0:0:
487,204,91811,1,0,0:0:0:0:
454,178,92208,1,0,0:0:0:0:
462,190,92407,1,8,0:0:0:0:
450,193,92606,1,0,0:0:0:0:
470,179,92804,1,8,0:0:0:0:
437,236,93003,1,4,0:0:0:0:
454,189,93400,1,8,0:0:0:0:
454,190,93599,1,8,0:0:0:0:
470,179,93798,1,0,0:0:0:0:
503,187,93996,1,8,0:0:0:0:
444,204,94394,1,0,0:0:0:0:
452,197,94592,1,0,0:0:0:0:
412,176,94791,1,8,0:0:0:0:
398,182,95191,1,8,0:0:0:0:
401,197,95391,1,0,0:0:0:0:
417,207,95598,1,4,0:0:0:0:
395,24,96052,1,0,0:0:0:0:
468,179,96282,1,0,0:0:0:0:
468,179,96541,1,8,0:0:0:0:
353,168,96838,1,8,0:0:0:0:
384,176,97167,1,8,0:0:0:0:
409,207,97577,1,0,0:0:0:0:
384,176,98122,1,4,0:0:0:0:
256,192,98410,12,0,107352,0:0:0:0:
