osu file format v14

[General]
AudioFilename: audio.mp3
AudioLeadIn: 0
PreviewTime: 182749
Countdown: 0
SampleSet: None
StackLeniency: 0.2
Mode: 0
LetterboxInBreaks: 0
WidescreenStoryboard: 0

[Editor]
Bookmarks: 122277,248891
DistanceSpacing: 1.1
BeatDivisor: 4
GridSize: 8
TimelineZoom: 1.3

[Metadata]
Title:living with depression
TitleUnicode:living with depression
Artist:hayaka miyuki feat hatsune miku
ArtistUnicode:hayaka miyuki feat hatsune miku
Creator:pain200501
Version:depression
Source:
Tags:galer colaboration
BeatmapID:1249846
BeatmapSetID:590557

[Difficulty]
HPDrainRate:4.2
CircleSize:4.2
OverallDifficulty:6
ApproachRate:8
SliderMultiplier:1.7
SliderTickRate:1

[Events]
//Background and Video events
0,0,"living with depression.png",0,0
Video,0,"【Hatsune Miku】Living with Depression - eng sub【Yanaga Miyuki】.mp4"
//Break Periods
2,120587,121527
//Storyboard Layer 0 (Background)
//Storyboard Layer 1 (Fail)
//Storyboard Layer 2 (Pass)
//Storyboard Layer 3 (Foreground)
//Storyboard Sound Samples

[TimingPoints]
1332.88529228922,472.44094488189,4,3,0,25,1,0
42907,-66.6666666666667,4,3,0,25,0,0
46687,944.88188976378,4,3,0,15,1,0
53301,-66.6666666666667,4,3,0,15,0,0
54246,-100,4,3,0,15,0,0
58498,-66.6666666666667,4,3,0,15,0,0
61805,472.44094488189,4,3,0,25,1,0
75033,-66.6666666666667,4,3,0,25,0,0
76923,-66.6666666666667,4,3,2,35,0,1
107159,-83.3333333333333,4,3,0,35,0,0
136923,-71.4285714285714,4,3,0,35,0,0
152513,944.88188976378,4,3,0,15,1,0
159127,-66.6666666666667,4,3,0,15,0,0
160072,-100,4,3,0,15,0,0
164324,-66.6666666666667,4,3,0,15,0,0
167631,472.44094488189,4,3,0,35,1,0
167631,-83.3333333333333,4,3,0,35,0,0
173064,-83.3333333333333,4,3,0,35,0,0
173300,-62.5,4,3,0,35,0,0
173536,-83.3333333333333,4,3,0,35,0,0
174718,-66.6666666666667,4,3,0,35,0,0
175190,-71.4285714285714,4,3,0,35,0,0
182749,-66.6666666666667,4,3,0,35,0,1
185584,-100,4,3,0,35,0,1
186529,-66.6666666666667,4,3,0,35,0,1
209679,-58.8235294117647,4,3,0,35,0,1
210151,-66.6666666666667,4,3,0,35,0,1
212986,-100,4,3,0,35,0,0

[Colours]
Combo1 : 255,0,0
Combo2 : 0,0,255
Combo3 : 79,79,255
Combo4 : 255,128,128

[HitObjects]
400,256,1096,5,0,0:0:0:0:
424,224,1214,1,0,0:0:0:0:
432,184,1332,2,0,B|432:136|392:112|392:112|336:96|288:104,1,170
232,72,2041,6,0,B|192:96|192:96|192:144,1,85
184,216,2513,2,0,B|216:256|216:256|256:256,1,85
328,296,2986,1,0,0:0:0:0:
392,240,3222,38,0,P|440:200|392:104,1,170
376,32,3931,2,0,P|328:64|320:112,1,85
232,80,4403,2,0,P|240:136|264:160,1,85
328,200,4876,1,0,0:0:0:0:
280,272,5112,6,0,B|192:304|192:304|184:248|144:232,1,170
72,264,5821,2,0,P|80:208|104:184,1,85
48,120,6293,2,0,P|96:104|144:128,1,85
200,152,6765,1,0,0:0:0:0:
264,96,7002,38,0,B|312:112|352:160|352:160|376:120|424:112,1,170
440,192,7710,2,0,P|440:256|416:280,1,85
352,240,8183,2,0,P|312:272|272:272,1,85
200,240,8655,5,0,0:0:0:0:
160,224,8773,1,0,0:0:0:0:
128,200,8891,2,0,P|120:152|144:120,1,85
192,56,9364,38,0,P|224:96|216:136,1,85
304,144,9836,2,0,P|320:200|352:216,1,85
256,240,10309,2,0,P|232:288|192:304,1,85
128,264,10781,6,0,P|104:224|104:176,1,85
144,112,11254,2,0,P|184:96|240:120,1,85
272,176,11726,2,0,P|280:224|264:256,1,85
216,328,12199,2,0,P|160:344|128:328,1,85
96,256,12671,38,0,P|80:216|88:176,1,85
144,112,13143,2,0,P|160:152|152:192,1,85
216,248,13616,2,0,P|240:296|288:296,1,85
320,232,14088,2,0,P|376:240|400:280,1,85
448,200,14561,6,0,P|472:144|464:120,1,85
408,64,15033,2,0,P|368:48|312:72,1,85
320,144,15506,2,0,P|320:192|344:224,1,85
408,288,15978,1,0,0:0:0:0:
320,328,16214,1,0,0:0:0:0:
320,328,16332,1,0,0:0:0:0:
320,328,16450,1,0,0:0:0:0:
224,312,16687,38,0,P|176:280|176:240,1,85
160,168,17159,1,0,0:0:0:0:
208,88,17395,1,0,0:0:0:0:
264,168,17632,2,0,B|312:208|328:240|328:240|352:208|400:176,1,170
456,160,18340,6,0,P|416:120|376:104,1,85
368,24,18813,2,0,P|320:64|312:88,1,85
240,128,19285,2,0,P|288:168|320:160,1,85
344,240,19758,2,0,P|384:208|384:168,1,85
400,96,20230,37,0,0:0:0:0:
320,64,20466,2,0,P|272:56|232:64,3,85
176,128,21411,1,0,0:0:0:0:
224,200,21647,2,0,P|272:224|312:208,1,85
384,192,22120,2,0,P|432:208|440:240,1,85
384,304,22592,6,0,P|336:320|296:304,1,85
232,272,23065,2,0,P|184:264|152:280,1,85
72,304,23537,1,0,0:0:0:0:
64,272,23655,1,0,0:0:0:0:
64,240,23773,1,0,0:0:0:0:
72,208,23891,1,0,0:0:0:0:
88,176,24010,2,0,B|112:144|112:144|168:136,1,85
208,96,24482,38,0,P|224:152|208:184,1,85
176,248,24954,1,0,0:0:0:0:
248,288,25191,1,0,0:0:0:0:
320,248,25427,2,0,P|368:232|408:240,1,85
464,176,25899,5,0,0:0:0:0:
392,128,26136,2,0,P|352:112|304:120,3,85
232,152,27080,1,0,0:0:0:0:
160,200,27317,2,0,P|144:248|168:288,2,85
232,240,28025,37,0,0:0:0:0:
312,272,28262,2,0,P|320:224|296:184,1,85
392,176,28734,2,0,P|368:136|320:112,1,85
264,72,29206,1,0,0:0:0:0:
224,72,29325,1,0,0:0:0:0:
184,88,29443,1,0,0:0:0:0:
160,120,29561,1,0,0:0:0:0:
136,152,29679,2,0,P|120:208|128:232,1,85
192,288,30151,6,0,P|240:272|272:240,1,85
240,168,30624,2,0,P|280:136|320:136,1,85
400,136,31096,1,0,0:0:0:0:
440,152,31214,1,0,0:0:0:0:
456,192,31332,1,0,0:0:0:0:
448,232,31450,37,0,0:0:0:0:
424,264,31569,2,0,P|368:280|320:264,1,85
240,280,32041,5,0,0:0:0:0:
168,208,32277,1,0,0:0:0:0:
264,168,32513,1,0,0:0:0:0:
184,104,32750,2,0,P|128:112|104:136,1,85
80,224,33222,38,0,P|120:288|144:288,1,85
224,288,33695,2,0,P|280:280|304:248,1,85
328,160,34167,2,0,P|312:112|264:96,3,85
104,192,35348,6,0,B|80:232|80:232|80:296,1,85
168,320,35821,2,0,B|208:288|208:288|208:240,1,85
264,168,36293,1,0,0:0:0:0:
352,120,36529,1,0,0:0:0:0:
368,224,36765,1,0,0:0:0:0:
472,208,37002,1,0,0:0:0:0:
432,304,37238,2,0,P|376:328|336:304,1,85
272,264,37710,38,0,P|216:256|184:280,1,85
96,288,38183,2,0,P|72:248|80:208,1,85
128,128,38655,2,0,L|168:88,4,42.5
216,176,39364,6,0,P|248:216|288:224,1,85
352,152,39836,2,0,P|392:184|392:224,1,85
336,296,40309,1,0,0:0:0:0:
336,296,40427,1,0,0:0:0:0:
336,296,40545,2,0,P|280:312|232:304,1,85
152,304,41017,37,0,0:0:0:0:
96,216,41254,1,0,0:0:0:0:
96,216,41372,1,0,0:0:0:0:
96,216,41490,2,0,P|88:168|104:136,1,85
168,56,41962,5,0,0:0:0:0:
272,48,42199,1,0,0:0:0:0:
272,48,42317,1,0,0:0:0:0:
272,48,42435,2,0,P|328:72|352:96,1,85
296,176,42907,6,0,L|256:256,1,63.7500024318696
208,336,43143,2,0,L|184:256,1,63.7500024318696
144,152,43380,2,0,L|88:208,1,63.7500024318696
96,344,43616,2,0,L|64:272,1,63.7500024318696
40,192,43852,2,0,L|24:128,3,63.7500024318696
144,80,44325,6,0,L|216:80,1,63.7500024318696
360,144,44561,2,0,L|288:144,1,63.7500024318696
128,224,44797,2,0,L|224:224,1,63.7500024318696
368,296,45033,2,0,L|296:296,5,63.7500024318696
168,288,45742,38,0,L|120:240,1,63.7500024318696
240,216,45978,2,0,L|200:152,1,63.7500024318696
336,192,46214,2,0,L|328:128,1,63.7500024318696
424,192,46450,2,0,L|424:120,1,63.7500024318696
496,232,46687,22,0,B|432:280|376:360|376:360|328:288|224:256,2,340
256,48,50938,5,0,0:0:0:0:
160,336,51411,1,0,0:0:0:0:
432,200,51883,1,0,0:0:0:0:
80,192,52356,1,0,0:0:0:0:
376,336,52828,1,0,0:0:0:0:
200,80,53301,38,0,L|112:152,1,63.7500024318696
96,168,54246,2,0,B|128:208|152:336|152:336|256:304|320:328,2,340
464,200,58498,2,0,B|432:160|432:8|432:8|304:64|240:40,1,382.500014591218
256,200,60860,1,0,0:0:0:0:
343,269,61805,6,0,P|288:280|256:272,1,85
168,320,62277,2,0,P|144:280|144:232,1,85
56,184,62749,2,0,P|104:136|144:144,1,85
136,32,63222,2,0,P|176:64|192:96,1,85
296,96,63694,2,0,P|280:144|232:176,1,85
272,264,64167,37,0,0:0:0:0:
176,304,64403,1,0,0:0:0:0:
128,216,64639,1,0,0:0:0:0:
216,168,64875,1,0,0:0:0:0:
216,168,65112,1,0,0:0:0:0:
304,120,65348,2,0,B|352:136|352:136|376:168,1,85
384,264,65820,6,0,P|336:272|304:256,1,85
216,296,66293,2,0,P|200:240|208:216,1,85
120,168,66765,2,0,P|168:144|208:144,1,85
192,56,67238,2,0,P|256:64|272:88,1,85
344,144,67710,1,0,0:0:0:0:
344,144,67828,1,0,0:0:0:0:
344,144,67946,2,0,P|368:192|360:224,1,85
328,256,68301,38,0,L|272:280,3,42.5
192,312,68891,1,0,0:0:0:0:
72,144,69364,1,0,0:0:0:0:
104,112,69482,5,0,0:0:0:0:
144,88,69600,1,0,0:0:0:0:
184,88,69718,1,0,0:0:0:0:
224,96,69836,2,0,P|272:120|312:112,1,85
384,96,70308,2,0,P|432:96|464:120,1,85
416,184,70781,38,0,P|376:216|384:264,1,85
296,264,71253,2,0,P|272:224|232:216,1,85
152,192,71726,6,0,P|152:144|184:128,1,85
256,80,72198,1,0,0:0:0:0:
328,40,72434,1,0,0:0:0:0:
384,104,72671,1,0,0:0:0:0:
336,176,72907,2,0,P|320:224|280:248,1,85
248,312,73379,37,0,0:0:0:0:
200,240,73616,1,0,0:0:0:0:
144,304,73852,2,0,P|96:272|88:224,1,85
48,176,74324,5,0,0:0:0:0:
136,184,74560,1,0,0:0:0:0:
112,104,74797,2,0,P|152:72|192:72,1,85
352,64,75151,38,0,L|424:64,1,63.7500024318696
336,144,75387,6,0,L|408:176,1,63.7500024318696
280,208,75623,38,0,L|344:272,1,63.7500024318696
208,248,75860,6,0,L|240:320,1,63.7500024318696
64,72,76923,6,6,L|208:72,1,127.500004863739
240,120,77277,1,0,0:0:0:0:
192,168,77395,2,2,L|64:168,1,127.500004863739
56,240,77749,2,8,L|272:240,1,191.250007295609,10|8,0:0|0:0,0:0:0:0:
304,200,78222,2,0,L|392:200,2,63.7500024318696,0|4|0,0:0|0:0|0:0,0:0:0:0:
416,72,78812,6,6,L|280:72,1,127.500004863739
216,72,79167,1,0,0:0:0:0:
216,144,79285,2,2,L|360:144,1,127.500004863739
416,144,79639,1,0,0:0:0:0:
384,208,79757,2,8,L|256:208,1,127.500004863739,10|8,0:0|0:0,0:0:0:0:
208,248,80111,2,0,L|136:248,1,63.7500024318696,0|4,0:0|0:0,0:0:0:0:
32,336,80466,1,0,0:0:0:0:
168,328,80702,38,6,L|304:328,1,127.500004863739
344,280,81056,1,2,0:0:0:0:
288,232,81175,2,2,L|152:232,1,127.500004863739
112,184,81529,1,0,0:0:0:0:
160,128,81647,2,8,L|296:128,1,127.500004863739
328,72,82001,2,0,L|400:72,2,63.7500024318696,0|4|0,0:0|0:0|0:0,0:0:0:0:
256,72,82356,1,0,0:0:0:0:
144,152,82592,6,6,L|288:152,1,127.500004863739
344,152,82946,1,0,0:0:0:0:
368,256,83064,2,2,L|192:256,1,127.500004863739
168,256,83419,1,0,0:0:0:0:
112,320,83537,38,8,L|400:320,1,255.000009727478,8|12,0:0|0:0,0:0:0:0:
248,64,84482,6,6,L|248:224,1,127.500004863739
296,240,84836,1,0,0:0:0:0:
344,192,84954,2,2,L|344:56,1,127.500004863739
400,24,85308,1,0,0:0:0:0:
448,72,85427,2,8,L|448:208,1,127.500004863739
408,256,85781,2,0,L|408:336,2,63.7500024318696,0|4|0,0:0|0:0|0:0,0:0:0:0:
448,199,86135,1,0,0:0:0:0:
328,272,86371,38,6,L|328:120,1,127.500004863739
272,96,86726,1,0,0:0:0:0:
208,128,86844,2,2,L|208:280,1,127.500004863739
176,320,87198,1,0,0:0:0:0:
104,352,87316,2,8,L|104:64,1,255.000009727478,8|12,0:0|0:0,0:0:0:0:
224,32,88025,1,0,0:0:0:0:
344,96,88261,6,6,L|344:248,1,127.500004863739,4|4,0:0|0:0,0:0:0:0:
272,224,88616,1,0,0:0:0:0:
200,224,88734,2,2,L|200:96,1,127.500004863739
128,96,89088,1,0,0:0:0:0:
120,168,89206,2,8,L|120:304,1,127.500004863739
232,296,89560,2,0,L|232:224,2,63.7500024318696,0|4|0,0:0|0:0|0:0,0:0:0:0:
288,344,89915,1,0,0:0:0:0:
400,264,90151,38,6,L|400:128,1,127.500004863739
336,104,90505,1,0,0:0:0:0:
272,136,90623,2,2,L|272:288,1,127.500004863739
216,304,90978,1,0,0:0:0:0:
152,272,91096,2,8,L|152:128,2,127.500004863739,8|8|12,0:0|0:0|0:0,0:0:0:0:
152,272,91805,1,0,0:0:0:0:
224,152,92041,6,14,L|376:152,1,127.500004863739
328,216,92395,1,0,0:0:0:0:
296,280,92513,2,10,L|456:280,1,127.500004863739
472,232,92867,1,0,0:0:0:0:
488,160,92986,2,0,L|488:16,1,127.500004863739
416,32,93340,38,0,L|336:32,1,63.7500024318696,0|12,0:0|0:0,0:0:0:0:
280,40,93576,2,8,L|192:40,1,63.7500024318696
128,152,93930,6,2,L|352:152,1,191.250007295609
312,224,94403,2,0,L|144:224,1,127.500004863739
112,224,94757,1,0,0:0:0:0:
112,296,94875,2,8,L|376:296,1,255.000009727478,8|12,0:0|0:0,0:0:0:0:
367,296,95584,1,0,0:0:0:0:
448,184,95820,38,6,L|312:184,1,127.500004863739
248,184,96175,1,0,0:0:0:0:
248,112,96293,2,2,L|416:112,1,127.500004863739
448,112,96647,1,0,0:0:0:0:
448,184,96765,2,0,L|448:336,1,127.500004863739
384,328,97119,1,0,0:0:0:0:
312,312,97238,2,0,L|312:176,1,127.500004863739,4|0,0:0|0:0,0:0:0:0:
184,304,97710,6,2,L|184:176,1,127.500004863739
224,120,98065,1,0,0:0:0:0:
296,120,98183,2,2,L|448:120,1,127.500004863739
408,184,98537,1,0,0:0:0:0:
336,200,98655,2,0,L|200:200,2,127.500004863739,0|4|0,0:0|0:0|0:0,0:0:0:0:
336,200,99364,1,0,0:0:0:0:
408,320,99600,38,2,L|248:320,1,127.500004863739
224,272,99954,1,0,0:0:0:0:
280,232,100072,2,2,L|424:232,1,127.500004863739
448,176,100427,1,0,0:0:0:0:
400,128,100545,2,2,L|264:128,1,127.500004863739
264,56,100899,6,8,L|176:56,1,63.7500024318696,8|12,0:0|0:0,0:0:0:0:
128,56,101135,2,8,L|128:136,1,63.7500024318696
128,264,101490,38,6,L|304:264,1,127.500004863739
288,200,101844,1,0,0:0:0:0:
256,136,101962,2,2,L|96:136,1,127.500004863739
104,72,102316,1,0,0:0:0:0:
176,56,102434,2,2,L|312:56,1,127.500004863739
376,64,102789,2,8,L|456:64,2,63.7500024318696,8|12|8,0:0|0:0|0:0,0:0:0:0:
303,56,103143,1,0,0:0:0:0:
200,152,103379,6,6,L|200:304,1,127.500004863739
264,312,103734,1,0,0:0:0:0:
320,272,103852,2,2,L|320:144,1,127.500004863739
360,88,104206,1,0,0:0:0:0:
320,32,104324,2,10,L|176:32,2,127.500004863739,10|10|14,0:0|0:0|0:0,0:0:0:0:
464,40,105033,1,0,0:0:0:0:
408,168,105269,38,2,L|408:320,1,127.500004863739
344,328,105623,2,8,L|344:256,1,63.7500024318696
344,192,105860,2,8,L|344:104,1,63.7500024318696
344,56,106096,2,10,L|144:56,1,191.250007295609
256,192,106686,1,4,0:0:0:0:
256,192,107159,21,0,0:0:0:0:
160,224,107395,1,0,0:0:0:0:
248,272,107631,2,0,B|312:272|312:272|344:240,1,101.999996887207
432,184,108104,2,0,P|448:240|432:280,1,101.999996887207
336,320,108576,2,0,P|272:320|232:296,1,101.999996887207
144,336,109049,2,0,P|112:288|120:248,1,101.999996887207
64,160,109521,6,0,P|120:136|160:160,1,101.999996887207
240,96,109993,2,0,P|240:168|216:200,1,101.999996887207
320,232,110466,2,0,P|288:280|232:280,1,101.999996887207
144,280,110938,1,8,0:0:0:0:
96,216,111175,1,8,0:0:0:0:
168,208,111411,37,8,0:0:0:0:
216,160,111647,1,8,0:0:0:0:
144,144,111883,5,8,0:0:0:0:
88,88,112119,1,8,0:0:0:0:
160,72,112356,37,8,0:0:0:0:
216,32,112592,1,8,0:0:0:0:
320,96,112828,6,8,P|320:152|272:184,1,101.999996887207
336,272,113301,2,8,P|272:296|224:264,1,101.999996887207
152,336,113773,2,8,P|128:280|136:240,1,101.999996887207
88,152,114245,2,8,P|144:128|192:144,1,101.999996887207
264,200,114718,37,0,0:0:0:0:
264,200,114836,1,0,0:0:0:0:
264,200,114954,2,0,P|320:224|360:216,1,101.999996887207
448,176,115427,2,0,P|400:136|352:144,1,101.999996887207
336,40,115899,2,0,P|280:88|272:120,1,101.999996887207
176,128,116371,2,0,P|192:184|240:224,1,101.999996887207
168,304,116844,5,0,0:0:0:0:
168,304,116962,1,0,0:0:0:0:
168,304,117080,2,0,P|224:312|272:288,1,101.999996887207
352,344,117553,2,0,P|368:288|336:240,1,101.999996887207
424,184,118025,2,0,P|360:168|312:184,1,101.999996887207
144,152,118497,37,0,0:0:0:0:
128,184,118616,1,0,0:0:0:0:
128,216,118734,1,0,0:0:0:0:
144,248,118852,1,0,0:0:0:0:
176,272,118970,1,0,0:0:0:0:
208,280,119088,2,0,L|256:296,1,50.9999984436036
256,192,119442,12,0,120387,0:0:0:0:
112,96,122277,6,0,P|144:144|192:160,1,101.999996887207
183,159,122749,2,0,P|120:184|112:232,1,101.999996887207
184,288,123222,1,2,0:0:0:0:
184,160,123458,1,2,0:0:0:0:
312,208,123694,1,2,0:0:0:0:
184,288,123930,1,2,0:0:0:0:
184,160,124167,38,2,P|120:192|160:320,1,203.999993774414
336,280,124875,1,0,0:0:0:0:
152,304,125112,2,2,P|112:200|128:176,1,152.999995330811
128,175,125584,2,2,P|120:272|288:280,1,305.999990661621
304,184,126529,5,0,0:0:0:0:
224,64,126765,2,2,L|176:168,1,101.999996887207
136,256,127238,1,2,0:0:0:0:
280,288,127474,1,2,0:0:0:0:
248,128,127710,1,2,0:0:0:0:
248,128,127946,38,2,P|208:96|128:104,1,101.999996887207
56,104,128419,2,2,P|104:152|152:160,1,101.999996887207
312,120,128891,1,2,0:0:0:0:
344,184,129127,1,2,0:0:0:0:
328,256,129364,1,2,0:0:0:0:
288,304,129600,2,2,P|336:240|224:72,1,305.999990661621
184,256,130545,6,0,P|128:240|104:200,1,101.999996887207
105,205,131017,1,0,0:0:0:0:
105,205,131135,1,0,0:0:0:0:
105,205,131253,2,2,P|80:150|208:102,1,203.999993774414
223,137,131962,37,0,0:0:0:0:
223,137,132080,1,0,0:0:0:0:
223,137,132198,2,2,P|312:192|248:264,1,203.999993774414
154,286,132907,5,0,0:0:0:0:
271,259,133143,2,2,P|307:174|160:288,1,611.999981323243
271,259,134797,37,0,0:0:0:0:
271,259,135033,1,0,0:0:0:0:
208,112,135269,2,0,L|144:152,1,50.9999984436036
240,192,135505,2,0,L|192:216,1,50.9999984436036
248,288,135742,2,0,L|200:312,1,50.9999984436036
80,192,135978,6,8,L|32:152,1,50.9999984436036
80,192,136214,2,4,P|136:88|216:120,1,203.999993774414
344,256,136923,37,2,2:2:0:0:
240,248,137159,1,2,2:2:0:0:
208,208,137277,1,2,2:2:0:0:
208,160,137395,2,2,P|224:120|312:160,1,118.999996368408,2|2,2:2|2:2,2:2:0:0:
344,192,137867,6,0,L|376:264,1,59.4999981842042
312,232,138104,2,2,L|344:296,1,59.4999981842042
312,320,138340,2,2,P|248:296|224:216,1,118.999996368408
192,176,138812,1,2,0:0:0:0:
232,104,139049,1,2,0:0:0:0:
312,96,139285,38,2,P|360:120|368:192,1,118.999996368408
372,180,139639,2,2,P|354:231|242:247,1,178.499994552612
152,144,140230,1,2,0:0:0:0:
152,144,140466,1,2,0:0:0:0:
152,144,140702,2,2,P|160:256|320:264,1,297.499990921021
329,114,141647,6,2,L|297:186,1,59.4999981842042
305,169,141883,2,2,L|200:112,1,118.999996368408
185,273,142238,2,0,L|121:217,1,59.4999981842042
141,234,142474,2,2,L|232:152,1,118.999996368408
288,96,142828,37,2,2:2:0:0:
313,230,143064,2,0,P|257:262|201:246,1,118.999996368408
207,250,143419,2,2,P|159:206|199:102,1,178.499994552612,2|2,2:2|2:2,2:2:0:0:
304,97,144009,5,2,0:0:0:0:
376,184,144245,1,2,0:0:0:0:
312,288,144482,1,2,0:0:0:0:
376,184,144718,2,2,P|352:128|296:96,1,118.999996368408
200,128,145190,2,0,L|160:176,1,59.4999981842042
176,232,145427,2,0,L|288:216,1,59.4999981842042
280,256,145663,2,0,L|248:336,2,59.4999981842042
160,96,146135,37,0,0:0:0:0:
264,104,146371,2,2,P|336:112|368:144,1,118.999996368408
367,142,146844,1,0,0:0:0:0:
264,104,147080,1,0,0:0:0:0:
160,96,147316,5,2,0:0:0:0:
208,176,147553,2,2,L|280:272,1,118.999996368408
160,96,148025,37,2,0:0:0:0:
82,230,148261,2,2,P|90:198|122:166,1,59.4999981842042
106,178,148497,2,2,P|88:232|216:304,1,178.499994552612,2|2,2:2|2:2,2:2:0:0:
264,248,148851,6,0,L|328:200,1,59.4999981842042
256,200,149087,2,0,L|304:152,1,59.4999981842042
248,144,149324,2,0,L|320:80,1,59.4999981842042
232,112,149560,2,0,L|304:48,1,59.4999981842042
88,104,150033,37,0,0:0:0:0:
120,256,150387,2,2,L|184:320,2,59.4999981842042
200,144,150978,2,8,P|192:104|272:40,1,118.999996368408
236,44,151332,2,8,P|278:94|351:87,1,118.999996368408
328,208,151805,5,2,0:0:0:0:
149,208,152041,1,2,0:0:0:0:
256,312,152277,1,2,0:0:0:0:
248,144,152513,38,0,B|312:96|368:16|368:16|416:88|520:120,2,340
256,336,156764,5,0,0:0:0:0:
352,48,157237,1,0,0:0:0:0:
80,184,157709,1,0,0:0:0:0:
432,192,158182,1,0,0:0:0:0:
136,48,158654,1,0,0:0:0:0:
312,304,159127,38,0,L|400:232,1,63.7500024318696
416,216,160072,6,0,B|384:176|360:48|360:48|256:80|192:56,2,340
48,184,164324,38,0,B|80:224|80:376|80:376|208:320|272:344,1,382.500014591218
256,184,166686,5,0,0:0:0:0:
96,184,167631,37,0,0:0:0:0:
176,248,167867,2,0,L|248:272,2,50.9999984436036
240,104,168340,2,0,P|296:104|320:152,1,101.999996887207
208,272,168812,6,0,L|248:232,1,50.9999984436036
256,272,169049,2,0,L|320:224,1,50.9999984436036
336,256,169285,2,0,P|312:312|240:336,1,101.999996887207
112,272,169756,37,0,0:0:0:0:
120,96,169993,1,0,0:0:0:0:
264,192,170230,2,0,L|200:176,1,50.9999984436036
136,168,170466,2,0,L|136:240,1,50.9999984436036
136,320,170702,2,12,L|216:240,1,101.999996887207
320,128,171175,5,0,0:0:0:0:
296,208,171411,1,0,0:0:0:0:
273,299,171646,2,0,P|265:275|225:251,1,50.9999984436036
246,257,171882,2,0,P|232:226|208:218,1,50.9999984436036
218,220,172119,2,0,P|192:192|96:192,1,101.999996887207
56,208,172592,37,0,0:0:0:0:
168,72,172828,1,0,0:0:0:0:
264,184,173064,2,0,L|216:136,1,50.9999984436036
264,184,173301,2,0,L|192:96,1,68
264,184,173537,2,12,L|184:88,1,101.999996887207
136,40,174009,5,0,0:0:0:0:
80,176,174127,2,0,P|96:216|136:224,2,50.9999984436036
232,184,174482,37,0,0:0:0:0:
384,304,174718,2,0,P|368:256|264:264,1,127.500004863739
96,304,175190,5,0,0:0:0:0:
96,304,175308,1,2,0:0:0:0:
96,304,175427,1,2,0:0:0:0:
96,304,175545,2,0,P|120:280|160:248,1,59.4999981842042
160,168,175898,38,0,L|224:248,1,59.4999981842042
336,240,176135,2,0,L|288:176,1,59.4999981842042
384,104,176371,2,0,L|432:184,1,59.4999981842042
336,240,176608,2,0,P|304:184|152:216,1,237.999992736817
96,280,177316,6,2,L|144:232,3,59.4999981842042
352,224,177789,38,2,L|304:160,2,59.4999981842042
200,184,178142,6,2,L|240:248,2,59.4999981842042
288,312,178497,1,2,0:0:0:0:
192,296,178734,1,0,0:0:0:0:
104,232,178970,1,0,0:0:0:0:
96,120,179206,1,0,0:0:0:0:
440,48,179442,38,0,L|352:80,1,59.4999981842042
224,112,179679,2,0,L|296:144,1,59.4999981842042
424,192,179915,2,0,L|368:232,1,59.4999981842042
224,312,180151,2,0,L|304:264,1,59.4999981842042
448,312,180387,2,0,L|352:336,1,59.4999981842042
224,312,180623,5,0,0:0:0:0:
184,288,180742,1,0,0:0:0:0:
168,240,180860,1,0,0:0:0:0:
176,192,180978,1,0,0:0:0:0:
208,152,181096,1,0,0:0:0:0:
240,120,181214,2,0,L|304:88,5,59.4999981842042
320,240,182040,37,2,2:2:0:0:
168,128,182277,1,2,2:2:0:0:
168,304,182513,1,2,2:2:0:0:
320,240,182749,1,6,2:2:0:0:
168,296,182986,22,0,P|128:288|104:192,1,127.500004863739
112,112,183340,2,0,P|144:104|176:128,1,63.7500024318696
304,272,183694,2,0,P|352:240|288:168,1,127.500004863739
232,184,184049,2,0,P|240:128|384:128,1,191.250007295609
400,224,184639,5,0,0:0:0:0:
264,264,184875,1,0,0:0:0:0:
320,176,184993,2,0,P|272:160|184:264,1,191.250007295609
320,248,185466,2,0,P|264:256|272:208,1,63.7500024318696
208,176,185702,2,0,B|264:168|264:168|256:120|256:120|344:104|408:240,1,297.5
352,320,186646,37,0,0:0:0:0:
256,296,186765,2,0,P|200:280|192:192,1,127.500004863739
180,218,187119,2,0,P|256:240|352:176,1,191.250007295609
352,96,187710,1,0,0:0:0:0:
224,72,187946,1,0,0:0:0:0:
144,168,188182,1,0,0:0:0:0:
232,256,188419,6,0,P|256:248|208:240,1,127.500004863739
211,206,188773,2,0,P|200:176|280:184,1,127.500004863739
270,152,189127,2,0,P|248:112|128:168,1,191.250007295609
135,274,189600,2,0,P|167:306|198:297,1,63.7500024318696
183,306,189836,2,0,P|167:266|80:272,1,127.500004863739
208,96,190308,37,0,0:0:0:0:
216,104,190427,1,0,0:0:0:0:
216,104,190545,1,0,0:0:0:0:
216,104,190663,2,0,L|176:192,1,63.7500024318696
189,162,190899,6,0,L|392:208,1,191.250007295609
376,204,191371,2,0,L|208:288,1,127.500004863739
264,256,191726,2,0,P|304:248|256:88,1,255.000009727478
288,104,192316,37,0,0:0:0:0:
288,104,192435,1,0,0:0:0:0:
288,104,192553,1,0,0:0:0:0:
288,104,192671,2,0,L|256:200,1,63.7500024318696
267,164,192907,2,0,P|208:168|152:232,1,127.500004863739
159,211,193261,2,0,P|216:200|304:88,2,191.250007295609
288,272,194088,5,0,0:0:0:0:
288,272,194205,1,0,0:0:0:0:
288,272,194323,1,0,0:0:0:0:
304,144,194560,37,0,0:0:0:0:
288,144,194679,2,0,P|248:144|312:256,1,255.000009727478
294,267,195269,2,0,L|288:128,1,127.500004863739
56,216,195742,6,0,L|152:112,1,127.500004863739
142,122,196214,2,0,L|208:232,1,127.500004863739
207,231,196686,2,0,L|312:112,1,127.500004863739
291,135,197041,2,0,P|312:160|296:240,1,63.7500024318696
318,189,197277,2,0,L|270:245,1,63.7500024318696
336,128,197631,37,8,2:2:0:0:
199,206,197867,1,8,2:2:0:0:
344,256,198104,2,8,L|336:120,1,127.500004863739,8|8,2:2|2:2,2:2:0:0:
336,128,198458,2,8,L|224:176,1,63.7500024318696,8|8,2:2|2:2,2:2:0:0:
248,248,198694,2,8,L|192:200,1,63.7500024318696,8|8,2:2|2:2,2:2:0:0:
112,104,198930,2,8,L|224:80,1,63.7500024318696,8|8,2:2|2:2,2:2:0:0:
336,72,199285,6,2,P|352:136|192:248,1,255.000009727478,2|2,2:2|2:2,2:2:0:0:
120,152,199993,2,0,L|192:120,1,63.7500024318696
304,72,200230,2,0,L|320:176,1,63.7500024318696
344,288,200466,2,0,P|280:304|152:200,1,191.250007295609
360,64,200938,2,0,L|224:64,1,127.500004863739
235,68,201410,2,0,P|224:128|288:176,1,127.500004863739
368,256,201764,37,0,0:0:0:0:
233,210,202001,2,0,P|209:170|265:138,1,63.7500024318696
213,157,202238,2,0,P|232:176|344:168,1,127.500004863739
327,180,202592,2,0,P|272:200|280:272,1,127.500004863739
24,88,203064,6,2,L|32:160,1,63.7500024318696,2|2,2:2|2:2,2:2:0:0:
160,144,203301,2,2,L|176:216,1,63.7500024318696,2|2,2:2|2:2,2:2:0:0:
288,192,203537,2,2,P|336:216|296:280,1,127.500004863739,2|2,2:2|2:2,2:2:0:0:
160,272,203891,2,2,L|200:208,1,63.7500024318696,2|2,2:2|2:2,2:2:0:0:
144,128,204127,2,2,L|232:128,1,63.7500024318696,2|2,2:2|2:2,2:2:0:0:
248,32,204364,2,2,P|288:48|288:168,1,127.500004863739,2|2,2:2|2:2,2:2:0:0:
272,192,204718,2,2,P|224:184|184:104,1,127.500004863739,2|2,2:2|2:2,2:2:0:0:
256,32,205072,2,2,L|176:64,1,63.7500024318696,2|2,2:2|2:2,2:2:0:0:
280,192,205308,2,6,L|208:184,1,63.7500024318696,6|6,2:2|2:2,2:2:0:0:
328,320,205662,37,0,0:0:0:0:
409,221,205899,1,0,0:0:0:0:
328,320,206135,2,0,L|440:184,1,127.500004863739
152,128,206490,2,0,L|144:192,1,63.7500024318696
296,160,206844,5,0,0:0:0:0:
205,249,207080,1,0,0:0:0:0:
304,304,207316,2,0,P|288:272|192:256,1,127.500004863739
136,296,207671,2,0,P|112:264|216:184,1,191.250007295609
336,240,208261,37,0,0:0:0:0:
232,72,208497,2,2,L|304:136,1,63.7500024318696,2|2,2:2|2:2,2:2:0:0:
224,256,208734,2,2,L|152:200,1,63.7500024318696,2|2,2:2|2:2,2:2:0:0:
144,96,208970,2,2,L|256:184,1,127.500004863739,2|2,2:2|2:2,2:2:0:0:
408,272,209442,6,2,P|400:248|328:280,1,127.500004863739,2|2,2:2|2:2,2:2:0:0:
328,273,209797,2,2,P|285:244|344:120,1,216.750004134178,2|2,2:2|2:2,2:2:0:0:
448,176,210387,1,2,2:2:0:0:
339,120,210623,1,2,2:2:0:0:
152,216,210860,2,2,P|176:248|240:232,1,63.7500024318696,2|2,2:2|2:2,2:2:0:0:
197,253,211096,2,2,P|208:224|104:112,1,191.250007295609,2|2,2:2|2:2,2:2:0:0:
80,176,211568,37,0,0:0:0:0:
224,120,211805,1,0,0:0:0:0:
376,256,212041,2,0,P|352:280|312:296,1,63.7500024318696
376,256,212277,2,6,P|336:288|136:112,1,382.500014591218,6|6,2:2|2:2,2:2:0:0:
144,64,214875,21,0,0:0:0:0:
160,168,215820,2,0,P|176:232|368:168,1,340
272,128,217710,2,0,P|176:120|136:184,1,170
176,264,218655,1,0,0:0:0:0:
280,248,219127,5,0,0:0:0:0:
328,224,219364,1,0,0:0:0:0:
360,184,219600,1,0,0:0:0:0:
248,104,219836,2,0,P|192:104|168:160,1,85
128,304,220545,1,0,0:0:0:0:
96,136,222434,37,0,0:0:0:0:
160,232,222907,1,0,0:0:0:0:
160,232,223379,2,0,P|224:240|304:144,2,170
104,72,224797,1,0,0:0:0:0:
216,200,225269,1,0,0:0:0:0:
104,272,225742,5,0,0:0:0:0:
216,200,226214,1,0,0:0:0:0:
352,224,226686,1,0,0:0:0:0:
264,296,227159,2,0,P|216:288|256:112,1,297.5
253,112,228104,2,0,P|280:208|104:168,1,340
72,160,229993,38,0,P|120:120|296:160,1,255
293,157,230938,2,0,P|256:208|168:88,1,255
208,72,231883,1,0,0:0:0:0:
392,152,232592,5,0,0:0:0:0:
304,120,232828,1,0,0:0:0:0:
312,216,233064,2,0,P|304:232|176:192,1,170
160,128,233773,2,0,B|240:96|376:216|376:216|120:280|80:224|80:224|56:80|104:64|104:64|264:32,1,850
336,96,237080,37,0,0:0:0:0:
320,184,237316,1,0,0:0:0:0:
248,248,237553,1,0,0:0:0:0:
152,264,238025,2,0,P|96:248|72:152,1,127.5
200,72,238497,2,0,P|272:112|272:224,1,170
232,272,239206,1,0,0:0:0:0:
152,216,239442,2,0,P|112:224|152:144,1,170
312,136,240387,5,0,0:0:0:0:
312,136,240623,1,0,0:0:0:0:
312,136,240860,2,0,P|304:224|208:240,1,170
136,224,241568,2,0,L|200:168,1,85
256,112,242041,1,0,0:0:0:0:
256,112,242277,2,0,P|288:184|144:248,1,255
72,160,243104,6,0,L|120:120,1,42.5
256,192,243338,12,0,245110,0:0:0:0:
