osu file format v14

[General]
AudioFilename: audio.mp3
AudioLeadIn: 0
PreviewTime: 47399
Countdown: 0
SampleSet: Normal
StackLeniency: 0.7
Mode: 1
LetterboxInBreaks: 0
WidescreenStoryboard: 0

[Editor]
Bookmarks: 511,9082,15939,22796,29653,38225,45082,47999,57599,67199,79199,88799,98399,107699,117599
DistanceSpacing: 1.3
BeatDivisor: 12
GridSize: 32
TimelineZoom: 0.6000001

[Metadata]
Title:U.N. Owen wa Kanojo Nanoka? (haru_naba Remix)
TitleUnicode:U.N.オーエンは彼女なのか? (haru_naba Remix)
Artist:haru_naba
ArtistUnicode:はるなば
Creator:Nepuri
Version:Kantan
Source:SOUND VOLTEX II -infinite infection-
Tags:LC-2211 EOSD TH06 Koumakyou 東方紅魔郷リミックス楽曲コンテスト SDVX ULTIMATE TRACKS - 東方紅魔郷REMIX Touhou Project Song Contest 東方Project ZUN 太田順也 Ota Jun'ya Flandre Scarlet フランドール・スカーレット 495 electronic video rhythm game instrumental 東方紅魔郷 ~ the Embodiment of Scarlet Devil. eiri- ayyri
BeatmapID:1990555
BeatmapSetID:953365

[Difficulty]
HPDrainRate:8
CircleSize:2
OverallDifficulty:3
ApproachRate:10
SliderMultiplier:1.4
SliderTickRate:1

[Events]
//Background and Video events
0,0,"Flandre 482.jpg",0,60
//Break Periods
//Storyboard Layer 0 (Background)
//Storyboard Layer 1 (Fail)
//Storyboard Layer 2 (Pass)
//Storyboard Layer 3 (Foreground)
//Storyboard Layer 4 (Overlay)
//Storyboard Sound Samples

[TimingPoints]
561,428.571428571429,4,1,0,100,1,0
46631,-86.9565217391304,4,1,0,100,0,0
46849,300,4,1,0,100,1,8
48049,-100,4,1,0,100,0,1
67249,-100,4,1,0,100,0,0
98449,-100,4,1,0,100,0,1
108049,-100,4,1,0,100,0,0

[HitObjects]
224,128,2382,5,8,0:0:0:0:
224,192,3025,1,0,0:0:0:0:
256,192,4096,1,8,0:0:0:0:
192,160,5811,1,8,0:0:0:0:
192,160,6453,1,0,0:0:0:0:
192,160,7525,1,8,0:0:0:0:
192,160,9132,1,4,0:0:0:0:
160,128,10846,1,8,0:0:0:0:
160,128,11489,1,8,0:0:0:0:
192,192,12132,1,8,0:0:0:0:
160,128,12561,1,0,0:0:0:0:
256,160,13418,1,0,0:0:0:0:
256,160,14275,1,8,0:0:0:0:
256,160,14918,1,8,0:0:0:0:
256,96,15561,1,8,0:0:0:0:
256,160,15989,1,0,0:0:0:0:
224,128,17275,5,8,0:0:0:0:
256,96,17703,1,0,0:0:0:0:
288,64,18346,1,8,0:0:0:0:
192,192,18989,1,0,0:0:0:0:
288,64,19418,1,8,0:0:0:0:
224,96,20703,1,8,0:0:0:0:
224,96,21132,1,0,0:0:0:0:
224,96,21775,1,8,0:0:0:0:
224,96,22418,1,8,0:0:0:0:
224,96,22846,1,0,0:0:0:0:
160,224,24561,1,0,0:0:0:0:
160,224,26275,1,0,0:0:0:0:
160,224,27989,1,0,0:0:0:0:
256,128,28846,1,8,0:0:0:0:
160,224,29703,1,8,0:0:0:0:
160,224,30561,1,0,0:0:0:0:
160,224,31418,1,8,0:0:0:0:
160,224,31846,1,8,0:0:0:0:
160,224,32275,1,0,0:0:0:0:
160,224,33132,1,8,0:0:0:0:
160,224,33989,1,0,0:0:0:0:
160,224,34846,1,8,0:0:0:0:
160,224,36561,1,8,0:0:0:0:
64,96,36989,1,0,0:0:0:0:
160,224,37418,1,0,0:0:0:0:
160,192,38382,1,8,0:0:0:0:
128,192,39025,1,0,0:0:0:0:
160,256,40096,1,8,0:0:0:0:
160,256,41811,1,8,0:0:0:0:
160,256,42453,1,0,0:0:0:0:
160,256,43525,1,8,0:0:0:0:
160,256,45132,1,4,0:0:0:0:
224,160,47449,1,0,0:0:0:0:
224,160,48049,1,12,0:0:0:0:
224,192,48499,1,0,0:0:0:0:
224,192,49099,1,8,0:0:0:0:
224,192,49849,1,8,0:0:0:0:
224,192,50449,1,8,0:0:0:0:
320,160,50899,1,0,0:0:0:0:
256,224,51499,1,8,0:0:0:0:
256,224,52249,1,0,0:0:0:0:
256,224,52549,1,8,0:0:0:0:
256,224,52849,1,8,0:0:0:0:
224,160,53899,1,8,0:0:0:0:
224,160,54649,1,8,0:0:0:0:
224,160,55249,1,8,0:0:0:0:
224,160,55699,1,0,0:0:0:0:
224,160,56299,1,8,0:0:0:0:
224,160,57049,1,8,0:0:0:0:
224,160,57349,1,8,0:0:0:0:
224,160,57649,1,0,0:0:0:0:
256,224,58249,1,8,0:0:0:0:
352,192,59149,1,8,0:0:0:0:
256,224,59449,1,0,0:0:0:0:
256,256,59749,1,8,0:0:0:0:
100,159,60049,1,0,0:0:0:0:
320,128,60649,1,8,0:0:0:0:
320,128,61249,1,0,0:0:0:0:
320,128,61549,1,8,0:0:0:0:
320,128,61849,1,0,0:0:0:0:
320,128,62449,1,0,0:0:0:0:
320,128,63049,1,8,0:0:0:0:
192,160,63949,1,8,0:0:0:0:
320,128,64249,1,0,0:0:0:0:
160,96,64549,1,8,0:0:0:0:
89,264,64849,1,0,0:0:0:0:
192,160,65449,1,8,0:0:0:0:
192,160,66049,1,0,0:0:0:0:
192,160,67249,1,8,0:0:0:0:
192,192,67849,1,0,0:0:0:0:
192,192,68599,1,8,0:0:0:0:
224,160,69199,1,0,0:0:0:0:
224,160,69949,1,8,0:0:0:0:
352,160,70849,1,8,0:0:0:0:
352,160,71299,1,8,0:0:0:0:
256,128,71749,1,0,0:0:0:0:
256,128,72049,1,8,0:0:0:0:
288,192,72649,1,0,0:0:0:0:
288,192,73249,1,8,0:0:0:0:
288,192,73849,1,0,0:0:0:0:
288,192,74599,1,8,0:0:0:0:
160,160,75199,1,0,0:0:0:0:
224,160,75949,1,8,0:0:0:0:
224,160,76849,1,8,0:0:0:0:
224,160,77299,1,8,0:0:0:0:
224,160,77749,1,0,0:0:0:0:
224,160,78049,1,8,0:0:0:0:
128,192,78349,1,0,0:0:0:0:
128,32,78649,1,8,0:0:0:0:
128,32,79249,1,12,0:0:0:0:
96,128,81949,1,0,0:0:0:0:
256,160,84049,1,0,0:0:0:0:
256,160,85249,1,0,0:0:0:0:
256,160,86449,1,8,0:0:0:0:
224,128,87649,5,8,0:0:0:0:
224,128,88249,1,0,0:0:0:0:
192,128,88549,1,8,0:0:0:0:
128,160,88849,5,0,0:0:0:0:
128,192,89899,1,0,0:0:0:0:
224,160,90649,1,0,0:0:0:0:
224,160,90949,1,8,0:0:0:0:
231,124,91399,1,0,0:0:0:0:
231,124,91699,1,0,0:0:0:0:
231,124,91999,1,0,0:0:0:0:
224,160,92449,1,0,0:0:0:0:
63,73,92749,1,8,0:0:0:0:
224,160,93349,1,8,0:0:0:0:
224,160,93649,1,0,0:0:0:0:
416,96,94249,1,8,0:0:0:0:
416,96,95149,1,0,0:0:0:0:
416,96,95449,1,8,0:0:0:0:
251,113,96049,1,0,0:0:0:0:
256,160,96649,1,0,0:0:0:0:
256,160,97249,1,8,0:0:0:0:
224,160,98449,1,0,0:0:0:0:
256,224,99049,1,8,0:0:0:0:
352,192,99949,1,8,0:0:0:0:
256,224,100249,1,0,0:0:0:0:
256,256,100549,1,8,0:0:0:0:
134,132,100849,1,0,0:0:0:0:
320,128,101449,1,8,0:0:0:0:
320,128,102049,1,0,0:0:0:0:
320,128,102349,1,8,0:0:0:0:
320,128,102649,1,0,0:0:0:0:
320,128,103249,1,0,0:0:0:0:
320,128,103849,1,8,0:0:0:0:
192,160,104749,1,8,0:0:0:0:
320,128,105049,1,0,0:0:0:0:
160,96,105349,1,8,0:0:0:0:
105,243,105649,1,0,0:0:0:0:
192,160,106249,1,8,0:0:0:0:
192,160,106849,1,0,0:0:0:0:
224,160,108049,1,0,0:0:0:0:
224,160,108649,1,8,0:0:0:0:
150,119,109099,1,0,0:0:0:0:
224,160,109699,1,0,0:0:0:0:
224,160,110449,1,0,0:0:0:0:
224,160,111049,1,8,0:0:0:0:
150,119,111499,1,0,0:0:0:0:
224,160,112549,1,8,0:0:0:0:
224,160,112849,1,0,0:0:0:0:
160,192,113449,1,8,0:0:0:0:
149,119,113899,1,0,0:0:0:0:
416,224,114499,1,8,0:0:0:0:
416,224,115249,1,0,0:0:0:0:
416,224,115849,1,8,0:0:0:0:
158,122,116299,1,0,0:0:0:0:
158,122,116899,1,0,0:0:0:0:
384,224,117349,1,8,0:0:0:0:
384,224,117649,1,12,0:0:0:0:
