osu file format v14

[General]
AudioFilename: audio.mp3
AudioLeadIn: 0
PreviewTime: 105598
Countdown: 1
SampleSet: Soft
StackLeniency: 0.7
Mode: 0
LetterboxInBreaks: 0
CountdownOffset: 3
WidescreenStoryboard: 1

[Editor]
Bookmarks: 39998,79998,105598,131198,156798,182398,207998,220798,233598,246398,259198,271998,284798,297598,324798
DistanceSpacing: 2
BeatDivisor: 4
GridSize: 8
TimelineZoom: 1.5

[Metadata]
Title:you feat. Eminem
TitleUnicode:you feat. Eminem
Artist:haru
ArtistUnicode:haru
Creator:Fixxis
Version:Collab Insane
Source:ひぐらしのなく頃に
Tags:Black Man Natteke tieff slim shady gillstar amity higurashi no naku koro ni when the evening cry cicadas you 07th expansion rap eminem haru☆ ha_ru mashup haru* When I'm Gone remix dear you English hip hop hip-hop
BeatmapID:2140762
BeatmapSetID:1023323

[Difficulty]
HPDrainRate:6
CircleSize:4
OverallDifficulty:7
ApproachRate:8
SliderMultiplier:1.62
SliderTickRate:1

[Events]
//Background and Video events
0,0,"BG.png",0,0
//Break Periods
//Storyboard Layer 0 (Background)
//Storyboard Layer 1 (Fail)
//Storyboard Layer 2 (Pass)
//Storyboard Layer 3 (Foreground)
//Storyboard Layer 4 (Overlay)
//Storyboard Sound Samples

[TimingPoints]
39998,400,4,2,1,60,1,0
67198,-133.333333333333,4,2,1,60,0,0
79998,-100,4,2,1,70,0,0
92798,-100,4,2,1,55,0,0
93398,-200,4,2,1,55,0,0
94398,-100,4,2,1,55,0,0
105598,-100,4,2,1,60,0,0
143998,-100,4,2,1,70,0,0
175998,-100,4,2,1,55,0,0
182398,-100,4,2,1,80,0,0
207598,-100,4,2,1,70,0,0
284798,-100,4,2,1,60,0,0
297598,-100,4,2,1,50,0,0
310398,-100,4,2,1,30,0,0
310498,-100,4,2,1,50,0,0
324798,-100,4,2,1,30,0,0

[Colours]
Combo1 : 159,159,255
Combo2 : 255,155,255

[HitObjects]
192,136,39998,5,10,0:0:0:0:
192,136,40198,1,8,0:0:0:0:
280,136,40398,1,10,0:0:0:0:
280,136,40798,1,10,0:0:0:0:
280,136,41198,1,8,0:0:0:0:
280,136,41598,6,0,B|368:136,1,81,12|8,0:0|0:0,0:0:0:0:
376,224,41998,1,0,0:0:0:0:
448,168,42198,1,0,0:0:0:0:
464,256,42398,1,10,0:0:0:0:
376,224,42598,1,2,0:0:0:0:
392,312,42798,6,8,B|304:312,1,81,10|8,0:0|0:0,0:0:0:0:
240,264,43198,2,0,B|224:224|240:176,1,81,2|0,0:0|0:0,0:0:0:0:
320,216,43598,2,0,B|352:136|320:48,1,162,10|10,0:0|0:0,0:0:0:0:
408,80,44198,1,2,0:0:0:0:
264,120,44398,2,0,B|176:120,2,81,2|8|10,0:0|0:0|0:0,0:0:0:0:
344,160,44998,6,0,B|312:240|344:328,1,162,8|0,0:0|0:0,0:0:0:0:
256,296,45598,2,0,B|168:288,1,81,10|2,0:0|0:0,0:0:0:0:
80,224,45998,2,8,B|160:216,1,81,10|8,0:0|0:0,0:0:0:0:
256,136,46398,2,0,B|88:144,2,162,2|10|10,0:0|0:0|0:0,0:0:0:0:
336,184,47398,1,4,0:0:0:0:
336,184,47498,1,0,0:0:0:0:
336,184,47598,2,0,B|360:144|344:96,1,81,2|8,0:0|0:0,0:0:0:0:
416,208,47998,6,0,B|392:248|408:296,1,81,10|8,0:0|0:0,0:0:0:0:
320,312,48398,2,0,B|240:320|152:312,1,162,2|10,0:0|0:0,0:0:0:0:
158,312,48998,1,2,0:0:0:0:
184,224,49198,1,10,0:0:0:0:
272,224,49398,2,0,B|320:216|352:224,1,81,8|2,0:0|0:0,0:0:0:0:
224,144,49798,2,0,B|176:152|144:144,2,81,0|10|0,0:0|0:0|0:0,0:0:0:0:
312,144,50398,2,0,B|360:136|392:144,1,81,10|2,0:0|0:0,0:0:0:0:
480,152,50798,1,2,0:0:0:0:
400,64,50998,5,8,0:0:0:0:
312,64,51198,1,10,0:0:0:0:
192,224,51398,1,8,0:0:0:0:
280,224,51598,1,2,0:0:0:0:
224,64,51798,1,0,0:0:0:0:
152,112,51998,2,0,B|72:120,1,81,10|2,0:0|0:0,0:0:0:0:
32,208,52398,6,0,B|112:200,2,81,10|8|2,0:0|0:0|0:0,0:0:0:0:
192,192,52998,1,8,0:0:0:0:
192,192,53198,2,8,B|272:176|376:192,1,162,10|10,0:0|0:0,0:0:0:0:
440,192,53798,1,4,0:0:0:0:
440,192,53898,1,0,0:0:0:0:
440,192,53998,1,2,0:0:0:0:
424,107,54198,1,8,0:0:0:0:
424,107,54398,6,8,B|408:27,1,81,10|10,0:0|0:0,0:0:0:0:
352,192,54798,2,0,B|344:272,1,81,2|0,0:0|0:0,0:0:0:0:
314,106,55198,2,8,B|298:26,1,81,10|2,0:0|0:0,0:0:0:0:
223,145,55598,2,8,B|215:225,1,81,10|8,0:0|0:0,0:0:0:0:
136,240,55998,2,0,B|152:72,2,162,2|10|10,0:0|0:0|0:0,0:0:0:0:
128,328,56998,1,2,0:0:0:0:
40,320,57198,1,2,0:0:0:0:
48,232,57398,6,8,B|57:151,2,81,8|10|8,0:0|0:0|0:0,0:0:0:0:
128,192,57998,2,0,B|208:176|304:192,2,162,2|10|10,0:0|0:0|0:0,0:0:0:0:
136,280,58998,1,8,0:0:0:0:
224,272,59198,1,2,0:0:0:0:
40,288,59398,5,8,0:0:0:0:
32,200,59598,1,10,0:0:0:0:
24,112,59798,1,2,0:0:0:0:
24,112,59898,1,0,0:0:0:0:
24,112,59998,2,2,B|112:104,1,81,10|6,0:0|0:0,0:0:0:0:
248,160,60398,2,0,B|168:168,1,81,0|8,0:0|0:0,0:0:0:0:
312,88,60798,5,10,0:0:0:0:
312,88,60998,1,8,0:0:0:0:
368,160,61198,2,0,B|448:152,2,81,2|0|10,0:0|0:0|0:0,0:0:0:0:
320,232,61798,1,2,0:0:0:0:
248,288,61998,2,0,B|167:295,2,81,10|8|2,0:0|0:0|0:0,0:0:0:0:
200,208,62598,2,0,B|104:216,1,81,0|10,0:0|0:0,0:0:0:0:
144,128,62998,2,0,B|56:136,2,81,0|10|2,0:0|0:0|0:0,0:0:0:0:
232,120,63598,1,2,0:0:0:0:
232,120,63798,1,8,0:0:0:0:
256,320,63998,6,0,B|176:296,1,81,10|8,0:0|0:0,0:0:0:0:
296,248,64398,2,0,B|376:272,1,81,2|0,0:0|0:0,0:0:0:0:
216,224,64798,2,0,B|136:200,1,81,10|2,0:0|0:0,0:0:0:0:
256,152,65198,2,0,B|336:176,1,81,10|8,0:0|0:0,0:0:0:0:
416,200,65598,5,2,0:0:0:0:
440,112,65798,1,8,0:0:0:0:
416,200,65998,1,10,0:0:0:0:
464,32,66398,1,10,0:0:0:0:
376,56,66598,2,0,B|296:75|209:52,1,162,4|8,0:0|0:0,0:0:0:0:
215,53,67198,5,10,0:0:0:0:
104,192,67598,1,2,0:0:0:0:
215,330,67998,1,8,0:0:0:0:
312,192,68398,2,0,B|384:192,2,60.749998189509,2|8|2,0:0|0:0|0:0,0:0:0:0:
336,264,68998,2,0,B|408:264,1,60.749998189509,0|10,0:0|0:0,0:0:0:0:
472,264,69398,1,0,0:0:0:0:
472,264,69598,1,10,0:0:0:0:
440,120,69998,1,2,0:0:0:0:
440,120,70398,6,0,B|376:120,1,60.749998189509,10|0,0:0|0:0,0:0:0:0:
304,120,70798,1,2,0:0:0:0:
304,120,70998,1,0,0:0:0:0:
304,120,71198,2,0,B|168:120,2,121.499996379018,10|2|2,0:0|0:0|0:0,0:0:0:0:
296,192,72198,1,8,0:0:0:0:
288,264,72398,2,0,B|424:264,1,121.499996379018,10|10,0:0|0:0,0:0:0:0:
472,224,72998,1,2,0:0:0:0:
472,200,73098,1,0,0:0:0:0:
472,176,73198,1,2,0:0:0:0:
384,64,73598,6,0,B|320:72|256:64,1,121.499996379018,10|2,0:0|0:0,0:0:0:0:
144,144,74398,2,0,B|208:136|272:144,1,121.499996379018,8|2,0:0|0:0,0:0:0:0:
265,143,74998,1,8,0:0:0:0:
304,216,75198,2,0,B|240:224|176:216,2,121.499996379018,2|10|10,0:0|0:0|0:0,0:0:0:0:
304,216,76398,1,2,0:0:0:0:
440,264,76798,6,0,B|472:320,1,60.749998189509,10|0,0:0|0:0,0:0:0:0:
392,200,77198,2,0,B|360:256,1,60.749998189509,2|0,0:0|0:0,0:0:0:0:
448,136,77598,2,8,B|478:188,1,60.749998189509,10|0,0:0|0:0,0:0:0:0:
400,72,77998,2,0,B|368:128,1,60.749998189509,2|8,0:0|0:0,0:0:0:0:
369,124,78398,2,0,B|312:112|248:120,2,121.499996379018,2|10|10,0:0|0:0|0:0,0:0:0:0:
384,200,79398,1,2,0:0:0:0:
392,224,79498,1,0,0:0:0:0:
400,248,79598,1,2,0:0:0:0:
96,208,79998,6,0,B|64:168|104:112,1,81,12|8,0:0|0:0,0:0:0:0:
233,188,80398,2,0,B|257:232|208:281,1,81,2|0,0:0|0:0,0:0:0:0:
216,80,80798,1,8,0:0:0:0:
216,80,81198,6,8,B|272:72|304:72,1,81,10|8,0:0|0:0,0:0:0:0:
120,56,81598,1,2,0:0:0:0:
143,151,81798,1,0,0:0:0:0:
344,144,81998,2,0,B|392:136|520:144,2,162,10|10|2,0:0|0:0|0:0,0:0:0:0:
240,208,82998,1,8,0:0:0:0:
352,248,83198,5,10,0:0:0:0:
256,320,83398,2,0,B|208:312|80:320,1,162,8|0,0:0|0:0,0:0:0:0:
376,344,83998,2,0,B|448:280|368:200,1,162,10|10,0:0|0:0,0:0:0:0:
488,336,84598,1,8,0:0:0:0:
496,216,84798,1,2,0:0:0:0:
472,96,84998,1,8,0:0:0:0:
240,48,85198,2,0,B|144:96|232:184,1,162,10|10,0:0|0:0,0:0:0:0:
344,216,85798,2,0,B|352:176|344:128,1,81,4|2,0:0|0:0,0:0:0:0:
248,280,86198,1,8,0:0:0:0:
248,280,86398,6,8,B|232:328|232:368,1,81,10|8,0:0|0:0,0:0:0:0:
192,168,86798,2,0,B|152:192|128:232,1,81,2|0,0:0|0:0,0:0:0:0:
56,56,87198,2,8,B|8:112|16:208,1,162,10|8,0:0|0:0,0:0:0:0:
56,320,87798,1,8,0:0:0:0:
176,288,87998,6,0,B|208:248|176:192,1,81,2|0,0:0|0:0,0:0:0:0:
383,152,88398,2,0,B|321:163|321:226,1,81,10|0,0:0|0:0,0:0:0:0:
464,64,88798,1,10,0:0:0:0:
232,96,88998,1,2,0:0:0:0:
232,96,89098,1,0,0:0:0:0:
232,96,89198,1,2,0:0:0:0:
280,320,89398,1,8,0:0:0:0:
280,320,89598,6,8,B|336:312|376:296,1,81,10|8,0:0|0:0,0:0:0:0:
184,240,89998,2,0,B|232:224|248:192,1,81,2|0,0:0|0:0,0:0:0:0:
72,312,90398,2,0,B|88:256|80:128,1,162,10|10,0:0|0:0,0:0:0:0:
176,72,90998,1,8,0:0:0:0:
280,128,91198,2,0,B|264:168|288:208,1,81,2|8,0:0|0:0,0:0:0:0:
408,152,91598,2,0,B|440:176|496:176,1,81,10|0,0:0|0:0,0:0:0:0:
352,48,91998,1,8,0:0:0:0:
240,96,92198,1,4,0:0:0:0:
288,208,92398,1,2,0:0:0:0:
400,168,92598,1,8,0:0:0:0:
160,208,92798,6,8,B|136:248|176:296,1,81,10|8,0:0|0:0,0:0:0:0:
272,304,93198,1,2,0:0:0:0:
272,304,93398,2,0,B|280:240|248:176,1,121.5,2|10,0:0|0:0,0:0:0:0:
128,130,94198,1,8,0:0:0:0:
344,56,94398,6,0,B|368:96|424:96,1,81,2|0,0:0|0:0,0:0:0:0:
224,64,94798,1,10,0:0:0:0:
504,96,94998,1,2,0:0:0:0:
256,176,95198,2,0,B|336:168,1,81,0|0,0:0|0:0,0:0:0:0:
168,272,95598,2,0,B|256:280,1,81,2|10,0:0|0:0,0:0:0:0:
56,344,95998,5,10,0:0:0:0:
8,224,96198,1,8,0:0:0:0:
64,112,96398,1,2,0:0:0:0:
176,54,96598,1,2,0:0:0:0:
352,32,97198,6,8,B|392:80|336:128,1,81
248,224,97598,2,0,B|224:171|280:132,1,81,2|0,0:0|0:0,0:0:0:0:
424,248,97998,2,0,B|398:299|340:296,1,81,10|2,0:0|0:0,0:0:0:0:
200,288,98398,2,0,B|241:248|294:271,1,81,10|4,0:0|0:0,0:0:0:0:
440,352,98798,2,0,B|383:365|349:319,1,81,2|8,0:0|0:0,0:0:0:0:
304,224,99198,5,10,0:0:0:0:
320,96,99398,1,8,0:0:0:0:
448,112,99598,1,2,0:0:0:0:
432,240,99798,1,2,0:0:0:0:
432,240,100398,5,10,0:0:0:0:
344,336,100598,1,8,0:0:0:0:
232,280,100798,2,0,B|184:272|128:272,1,81,2|0,0:0|0:0,0:0:0:0:
32,320,101198,1,10,0:0:0:0:
16,192,101398,2,0,B|24:144|16:112,1,81,2|0,0:0|0:0,0:0:0:0:
128,48,101798,2,0,B|168:40|216:40,1,81,0|2,0:0|0:0,0:0:0:0:
336,32,102198,1,8,0:0:0:0:
456,72,102398,6,0,B|480:128|448:176,1,81,10|8,0:0|0:0,0:0:0:0:
392,264,102798,1,2,0:0:0:0:
344,144,102998,1,2,0:0:0:0:
344,144,103598,6,8,B|320:200|256:176,1,81,10|8,0:0|0:0,0:0:0:0:
112,72,103998,2,0,B|166:44|199:104,1,81,2|2,0:0|0:0,0:0:0:0:
168,208,104398,1,10,0:0:0:0:
168,208,104798,1,10,0:0:0:0:
168,208,104998,2,0,B|88:128|184:56,1,162,4|8,0:0|0:0,0:0:0:0:
344,256,105598,6,0,B|424:200|368:104,1,162,12|0,0:0|0:0,0:0:0:0:
373,113,106198,2,0,B|288:152,1,81,0|10,0:0|0:0,0:0:0:0:
208,104,106598,2,0,B|293:65,1,81,2|10,0:0|0:0,0:0:0:0:
232,176,106998,1,8,0:0:0:0:
232,176,107198,6,0,B|153:231|203:317,2,162,2|10|10,0:0|0:0|0:0,0:0:0:0:
328,168,108198,1,2,0:0:0:0:
328,168,108298,1,0,0:0:0:0:
328,168,108398,1,2,0:0:0:0:
336,264,108598,1,8,0:0:0:0:
240,272,108798,6,0,B|72:288,2,162,10|0|10,0:0|0:0|0:0,0:0:0:0:
336,264,109798,1,2,0:0:0:0:
360,256,109898,1,0,0:0:0:0:
384,248,109998,2,8,B|400:208|384:168,1,81,10|8,0:0|0:0,0:0:0:0:
304,120,110398,6,0,B|136:136,2,162,2|10|10,0:0|0:0|0:0,0:0:0:0:
384,40,111398,2,8,B|368:80|384:120,1,81,4|0,0:0|0:0,0:0:0:0:
383,118,111798,1,8,0:0:0:0:
464,176,111998,6,8,B|480:136|464:96,1,81,6|8,0:0|0:0,0:0:0:0:
256,192,112398,2,0,B|344:200,1,81,0|0,0:0|0:0,0:0:0:0:
136,216,112798,2,8,B|120:256|136:296,1,81,10|2,0:0|0:0,0:0:0:0:
328,288,113198,2,0,B|240:280,1,81,10|8,0:0|0:0,0:0:0:0:
424,304,113598,1,2,0:0:0:0:
440,208,113798,1,0,0:0:0:0:
344,192,113998,1,10,0:0:0:0:
328,288,114198,1,0,0:0:0:0:
360,104,114398,2,0,B|280:72|184:88,1,162,10|2,0:0|0:0,0:0:0:0:
264,184,114998,6,0,B|280:96,2,81,8|10|8,0:0|0:0|0:0,0:0:0:0:
240,272,115598,2,0,B|160:285|80:253,1,162,0|10,0:0|0:0,0:0:0:0:
50,178,116198,1,2,0:0:0:0:
50,178,116398,2,8,B|40:90,1,81,10|8,0:0|0:0,0:0:0:0:
152,120,116798,1,2,0:0:0:0:
152,120,116998,2,8,B|153:205,1,81,8|10,0:0|0:0,0:0:0:0:
240,272,117398,1,0,0:0:0:0:
240,272,117598,1,10,0:0:0:0:
240,272,117798,2,0,B|256:192|240:96,1,162,4|8,0:0|0:0,0:0:0:0:
328,32,118398,6,0,B|320:72|328:112,1,81,10|8,0:0|0:0,0:0:0:0:
408,184,118798,2,0,B|416:144|408:104,1,81,0|0,0:0|0:0,0:0:0:0:
328,192,119198,2,0,B|256:231|171:191,1,162,10|10,0:0|0:0,0:0:0:0:
200,96,119798,1,8,0:0:0:0:
113,342,120198,1,2,0:0:0:0:
130,331,120298,1,0,0:0:0:0:
152,320,120398,2,0,B|224:281|309:321,1,162,10|10,0:0|0:0,0:0:0:0:
392,264,120998,2,0,B|353:192|392:108,1,162,2|8,0:0|0:0,0:0:0:0:
392,108,121598,5,10,0:0:0:0:
392,108,121798,1,8,0:0:0:0:
296,128,121998,2,0,B|304:216,1,81,0|0,0:0|0:0,0:0:0:0:
240,288,122398,2,0,B|200:128,1,162,10|10,0:0|0:0,0:0:0:0:
120,80,122998,6,0,B|112:160,2,81,8|2|8,0:0|0:0|0:0,0:0:0:0:
208,48,123598,1,10,0:0:0:0:
304,72,123798,1,0,0:0:0:0:
304,72,123998,2,0,B|400:64,1,81,10|4,0:0|0:0,0:0:0:0:
448,136,124398,1,2,0:0:0:0:
440,152,124498,1,0,0:0:0:0:
432,168,124598,1,8,0:0:0:0:
408,264,124798,5,10,0:0:0:0:
342,311,124998,2,8,B|304:296|264:312,1,81,8|0,0:0|0:0,0:0:0:0:
160,240,125398,2,0,B|198:255|238:239,2,81,0|10|2,0:0|0:0|0:0,0:0:0:0:
208,152,125998,1,10,0:0:0:0:
208,152,126198,2,0,B|288:120|369:155,1,162,8|0,0:0|0:0,0:0:0:0:
365,153,126798,6,0,B|432:104,1,81,10|0,0:0|0:0,0:0:0:0:
440,200,127198,2,0,B|376:248,1,81,10|2,0:0|0:0,0:0:0:0:
296,312,127598,1,2,0:0:0:0:
216,256,127798,1,8,0:0:0:0:
136,312,127998,2,8,B|112:272|128:224,1,81,10|8,0:0|0:0,0:0:0:0:
32,168,128398,5,0,0:0:0:0:
32,168,128598,2,8,B|56:208|40:256,2,81,0|10|2,0:0|0:0|0:0,0:0:0:0:
104,104,129198,1,10,0:0:0:0:
104,104,129398,2,8,B|184:144|264:96,1,162,8|8,0:0|0:0,0:0:0:0:
408,184,129998,2,8,B|328:144|248:192,2,162,10|10|2,0:0|0:0|0:0,0:0:0:0:
256,304,131198,6,0,B|208:296|152:304,1,81,8|8,0:0|0:0,0:0:0:0:
352,320,131598,1,2,0:0:0:0:
448,312,131798,1,2,0:0:0:0:
176,80,132798,6,0,B|72:72,1,81,2|2,0:0|0:0,0:0:0:0:
272,168,133198,2,8,B|80:184,1,162,10|8,0:0|0:0,0:0:0:0:
368,256,133798,2,0,B|288:296,2,81,0|2|8,0:0|0:0|0:0,0:0:0:0:
432,184,134398,1,10,0:0:0:0:
424,88,134598,1,10,0:0:0:0:
344,40,134798,1,2,0:0:0:0:
264,88,134998,1,2,0:0:0:0:
264,88,135198,6,0,B|216:168|120:112,2,162
40,104,136198,1,10,0:0:0:0:
40,104,136398,2,0,B|8:152|40:216,1,81,10|0,0:0|0:0,0:0:0:0:
144,296,136798,2,0,B|157:236|118:194,1,81,10|4,0:0|0:0,0:0:0:0:
240,352,137198,1,2,0:0:0:0:
336,328,137398,1,8,0:0:0:0:
312,232,137598,5,10,0:0:0:0:
216,256,137798,1,10,0:0:0:0:
240,352,137998,1,2,0:0:0:0:
336,328,138198,1,2,0:0:0:0:
56,336,138798,1,0,0:0:0:0:
56,336,139198,6,0,B|48:304|56:248,1,81,2|2,0:0|0:0,0:0:0:0:
88,160,139598,1,10,0:0:0:0:
168,216,139798,1,0,0:0:0:0:
112,296,139998,2,0,B|96:216|136:128,2,162,0|2|10,1:0|0:0|0:0,0:0:0:0:
192,352,140998,1,10,0:0:0:0:
288,352,141198,1,2,0:0:0:0:
384,336,141398,1,2,0:0:0:0:
480,352,141598,1,0,0:0:0:0:
480,64,141998,1,0,0:0:0:0:
480,64,142398,6,0,B|432:88|432:160,1,81,2|10,0:0|0:0,0:0:0:0:
480,352,142798,2,0,B|501:302|455:247,1,81,10|0,0:0|0:0,0:0:0:0:
328,144,143198,2,0,B|240:128|152:144,2,162,10|2|12,0:0|0:0|0:0,0:0:0:0:
112,56,144198,5,8,0:0:0:0:
336,62,144398,1,2,0:0:0:0:
83,134,144598,1,0,0:0:0:0:
360,142,144798,2,0,B|200:150,1,162,8|10,0:0|0:0,0:0:0:0:
440,133,145398,1,8,0:0:0:0:
51,210,145598,2,0,B|139:218,1,81,2|2,0:0|0:0,0:0:0:0:
447,220,145998,2,0,B|359:228,1,81,2|0,1:2|0:0,0:0:0:0:
44,291,146398,2,0,B|204:299,1,162,10|2,0:0|0:0,0:0:0:0:
328,312,147198,6,0,B|352:272|328:232,1,81,10|10,0:0|0:0,0:0:0:0:
280,152,147598,1,2,0:0:0:0:
424,352,147798,1,0,0:0:0:0:
424,352,147998,2,0,B|480:272|424:200,1,162,10|10,0:0|0:0,0:0:0:0:
112,216,148598,1,8,0:0:0:0:
112,216,148798,2,0,B|88:264|112:304,1,81,2|8,0:0|0:0,0:0:0:0:
275,350,149198,2,0,B|281:293|243:259,1,81,10|0,0:0|0:0,0:0:0:0:
400,320,149598,1,10,0:0:0:0:
184,320,149798,1,4,0:0:0:0:
400,320,149998,1,2,0:0:0:0:
184,320,150198,1,8,0:0:0:0:
400,320,150398,5,10,0:0:0:0:
424,224,150598,1,8,0:0:0:0:
472,136,150798,1,2,0:0:0:0:
376,112,150998,1,0,0:0:0:0:
304,48,151198,1,8,0:0:0:0:
304,48,151598,6,8,B|240:40|208:40,1,81,10|8,0:0|0:0,0:0:0:0:
128,72,151998,1,2,0:0:0:0:
192,144,152198,2,0,B|200:200|192:232,1,81,0|10,0:0|0:0,0:0:0:0:
128,296,152598,1,0,0:0:0:0:
40,264,152798,2,0,B|0:192|24:88,2,162,8|2|10,0:0|0:0|0:0,0:0:0:0:
345,225,153798,5,8,0:0:0:0:
317,104,153998,1,2,0:0:0:0:
196,132,154198,1,0,0:0:0:0:
218,254,154398,1,10,0:0:0:0:
236,47,154798,5,10,0:0:0:0:
292,312,154998,1,8,0:0:0:0:
405,153,155198,1,2,0:0:0:0:
136,202,155398,1,8,0:0:0:0:
333,222,155598,1,10,0:0:0:0:
309,116,155798,1,0,0:0:0:0:
208,139,155998,1,8,0:0:0:0:
230,243,156198,1,4,0:0:0:0:
230,243,156598,5,8,0:0:0:0:
230,243,156798,2,0,B|314:267,1,81,10|8,0:0|0:0,0:0:0:0:
161,170,157198,2,0,B|233:130,1,81,2|0,0:0|0:0,0:0:0:0:
40,152,157598,2,0,B|168:32,2,162,8|10|2,0:0|0:0|0:0,0:0:0:0:
40,272,158598,5,2,0:0:0:0:
40,272,158698,1,0,0:0:0:0:
40,272,158798,2,0,B|136:280,1,81,8|0,0:0|0:0,0:0:0:0:
240,288,159198,2,0,B|256:208|248:96,1,162,10|2,0:0|0:0,0:0:0:0:
136,88,159798,2,8,B|133:133|139:172,1,81,8|10,0:0|0:0,0:0:0:0:
152,288,160198,5,8,0:0:0:0:
240,208,160398,2,0,B|328:200,1,81,2|0,0:0|0:0,0:0:0:0:
440,184,160798,2,0,B|448:272,1,81,10|0,0:0|0:0,0:0:0:0:
360,352,161198,2,8,B|352:272,1,81,10|8,0:0|0:0,0:0:0:0:
336,152,161598,6,0,B|248:160,1,81,2|8,0:0|0:0,0:0:0:0:
136,168,161998,2,0,B|144:256,1,81,10|0,0:0|0:0,0:0:0:0:
240,376,162398,1,8,0:0:0:0:
240,376,162598,2,8,B|264:288|224:192,1,162,6|8,0:0|0:0,0:0:0:0:
112,216,163198,5,10,0:0:0:0:
128,96,163398,1,8,0:0:0:0:
248,96,163598,2,0,B|353:99,1,81,2|2,0:0|0:0,0:0:0:0:
464,200,163998,1,10,0:0:0:0:
464,200,164198,2,0,B|359:197,1,81,0|8,0:0|0:0,0:0:0:0:
248,296,164598,6,0,B|336:296,1,81,8|0,0:0|0:0,0:0:0:0:
88,192,164998,2,0,B|0:192,1,81,0|10,0:0|0:0,0:0:0:0:
264,312,165398,2,0,B|352:312,1,81,0|10,0:0|0:0,0:0:0:0:
104,168,165798,2,0,B|16:168,1,81,0|2,0:0|0:0,0:0:0:0:
208,168,166198,1,8,0:0:0:0:
320,128,166398,6,8,B|328:80|320:40,1,81,10|8,0:0|0:0,0:0:0:0:
208,168,166798,2,0,B|200:208|208:256,1,81,2|2,0:0|0:0,0:0:0:0:
416,224,167198,2,0,B|321:225,1,81,10|0,0:0|0:0,0:0:0:0:
280,336,167598,1,10,0:0:0:0:
160,352,167798,1,8,0:0:0:0:
120,240,167998,5,2,0:0:0:0:
200,152,168198,1,8,0:0:0:0:
312,200,168398,1,10,0:0:0:0:
280,336,168598,1,0,0:0:0:0:
160,352,168798,1,10,0:0:0:0:
216,256,168998,2,0,B|296:248|392:256,1,162,4|8,0:0|0:0,0:0:0:0:
264,128,169598,6,0,B|355:126,1,81,10|8,0:0|0:0,0:0:0:0:
464,120,169998,2,0,B|469:206,1,81,2|2,0:0|0:0,0:0:0:0:
472,320,170398,2,0,B|400:344|304:328,1,162,10|10,0:0|0:0,0:0:0:0:
480,136,170998,2,0,B|485:222,1,81,8|2,0:0|0:0,0:0:0:0:
80,80,171598,5,10,0:0:0:0:
96,200,171798,1,0,0:0:0:0:
112,320,171998,1,10,0:0:0:0:
232,304,172198,1,0,0:0:0:0:
216,184,172398,2,0,B|304:168,1,81,2|8,0:0|0:0,0:0:0:0:
464,56,172798,6,8,B|474:91|472:152,1,81,10|8,0:0|0:0,0:0:0:0:
408,320,173198,2,8,B|398:285|400:224,1,81,2|0,0:0|0:0,0:0:0:0:
264,128,173598,2,0,B|349:131,1,81,10|0,0:0|0:0,0:0:0:0:
296,304,173998,2,0,B|211:301,1,81,10|8,0:0|0:0,0:0:0:0:
112,160,174398,6,0,B|104:248,1,81,2|8,0:0|0:0,0:0:0:0:
224,208,174798,2,8,B|256:128|224:40,1,162,10|10,0:0|0:0,0:0:0:0:
360,320,175398,2,0,B|368:152,1,162,4|8,0:0|0:0,0:0:0:0:
392,40,175998,5,2,0:0:0:0:
296,40,176398,1,2,0:0:0:0:
64,304,177198,5,2,0:0:0:0:
160,304,177598,1,2,0:0:0:0:
256,304,177998,1,2,0:0:0:0:
256,304,178798,6,0,B|280:224|272:144,2,162,2|2|0,0:0|0:0|0:0,0:0:0:0:
184,240,179998,1,0,0:0:0:0:
136,152,180398,1,2,0:0:0:0:
168,56,180798,1,2,0:0:0:0:
168,56,181198,2,8,B|336:64,2,162,8|8|0,0:0|0:0|0:0,0:0:0:0:
8,160,182398,5,12,0:0:0:0:
48,248,182598,1,8,0:0:0:0:
136,280,182798,1,0,0:0:0:0:
224,240,182998,1,0,0:0:0:0:
240,144,183198,2,0,B|328:112|416:152,1,162,10|10,0:0|0:0,0:0:0:0:
152,96,183798,2,0,B|108:112|56:80,2,81,8|2|0,0:0|0:0|0:0,0:0:0:0:
232,48,184398,1,10,0:0:0:0:
232,48,184798,1,10,0:0:0:0:
312,104,184998,1,2,0:0:0:0:
336,200,185198,1,2,0:0:0:0:
296,288,185398,1,8,0:0:0:0:
216,344,185598,6,0,B|144:384|56:328,2,162,10|0|10,0:0|0:0|0:0,0:0:0:0:
208,200,186598,1,2,0:0:0:0:
208,200,186798,1,10,0:0:0:0:
200,56,186998,1,8,0:0:0:0:
344,48,187198,1,2,0:0:0:0:
200,56,187398,1,8,0:0:0:0:
344,48,187598,2,0,B|432:88|368:184,2,162,10|10|0,0:0|0:0|0:0,0:0:0:0:
240,328,188798,6,0,B|144:320,1,81,10|8,0:0|0:0,0:0:0:0:
56,312,189198,2,0,B|56:224,1,81,0|0,0:0|0:0,0:0:0:0:
328,208,189598,2,0,B|160:216,1,162,10|10,0:0|0:0,0:0:0:0:
328,208,190198,1,8,0:0:0:0:
424,160,190398,1,2,0:0:0:0:
432,56,190598,1,0,0:0:0:0:
328,24,190798,2,8,B|152:32,1,162,10|10,0:0|0:0,0:0:0:0:
312,120,191398,2,0,B|224:128,1,81,2|2,0:0|0:0,0:0:0:0:
136,120,191798,1,8,0:0:0:0:
136,120,191998,6,8,B|104:160|128:200,1,81,10|8,0:0|0:0,0:0:0:0:
224,328,192398,2,0,B|256:288|224:248,1,81,0|0,0:0|0:0,0:0:0:0:
104,352,192798,1,10,0:0:0:0:
401,347,193198,6,8,B|440:298|411:250,1,81,10|10,0:0|0:0,0:0:0:0:
294,94,193598,2,0,B|256:143|294:192,1,81,2|8,0:0|0:0,0:0:0:0:
440,32,193998,1,10,0:0:0:0:
440,32,194398,2,8,B|416:80|424:136,1,81,10|4,0:0|0:0,0:0:0:0:
328,184,194798,2,0,B|328:248|352:288,1,81,0|8,0:0|0:0,0:0:0:0:
440,336,195198,5,10,0:0:0:0:
264,344,195398,1,8,0:0:0:0:
80,344,195598,2,0,B|72:248,1,81,0|0,0:0|0:0,0:0:0:0:
184,248,195998,2,0,B|192:80,1,162,10|10,0:0|0:0,0:0:0:0:
280,328,196598,1,8,0:0:0:0:
376,272,196798,2,0,B|384:168,1,81,2|0,0:0|0:0,0:0:0:0:
488,336,197198,1,10,0:0:0:0:
488,336,197598,5,10,0:0:0:0:
328,336,197798,1,2,0:0:0:0:
168,328,197998,1,2,0:0:0:0:
8,336,198198,1,8,0:0:0:0:
8,336,198398,6,0,B|0:280|8:240,1,81,10|8,0:0|0:0,0:0:0:0:
72,168,198798,1,0,0:0:0:0:
48,64,198998,1,0,0:0:0:0:
152,40,199198,1,10,0:0:0:0:
152,40,199598,1,10,0:0:0:0:
250,80,199798,1,8,0:0:0:0:
368,56,199998,2,0,B|376:104|368:160,1,81,2|8,0:0|0:0,0:0:0:0:
296,328,200398,2,0,B|279:282|277:225,2,81,10|0|10,0:0|0:0|0:0,0:0:0:0:
192,336,200998,1,4,0:0:0:0:
112,272,201198,1,0,0:0:0:0:
200,216,201398,1,8,0:0:0:0:
200,216,201598,6,0,B|256:192|304:200,1,81,10|8,0:0|0:0,0:0:0:0:
280,80,201998,2,0,B|328:88|352:144,1,81,0|0,0:0|0:0,0:0:0:0:
416,24,202398,2,0,B|464:96|432:184,1,162,10|10,0:0|0:0,0:0:0:0:
392,272,202998,1,8,0:0:0:0:
392,272,203198,6,0,B|336:296|288:288,1,81,2|0,0:0|0:0,0:0:0:0:
200,208,203598,2,0,B|152:200|128:144,1,81,10|0,0:0|0:0,0:0:0:0:
312,48,203998,2,0,B|416:16|440:120,1,162,10|2,0:0|0:0,0:0:0:0:
304,280,204598,2,8,B|304:231|325:202,1,81,8|10,0:0|0:0,0:0:0:0:
160,336,204998,2,0,B|136:304|136:248,1,81,8|0,0:0|0:0,0:0:0:0:
8,352,205398,1,0,0:0:0:0:
8,352,205598,6,8,B|0:160,1,162,10|10,0:0|0:0,0:0:0:0:
0,64,206198,1,8,0:0:0:0:
104,136,206398,1,2,0:0:0:0:
200,48,206598,1,8,0:0:0:0:
312,120,206798,1,2,0:0:0:0:
416,40,207198,1,10,0:0:0:0:
472,357,207598,5,0,0:0:0:0:
369,256,207798,1,8,0:0:0:0:
479,183,207998,2,0,P|494:230|476:279,1,81,12|8,0:0|0:0,0:0:0:0:
357,358,208398,2,0,P|286:354|172:354,1,162,2|10,0:0|0:0,0:0:0:0:
10,278,208998,1,0,0:0:0:0:
109,163,209198,2,0,P|111:204|111:257,1,81,10|8,0:0|0:0,0:0:0:0:
104,342,209598,5,2,0:0:0:0:
28,188,209798,1,2,0:0:0:0:
190,275,209998,1,10,0:0:0:0:
17,288,210198,1,2,0:0:0:0:
191,186,210398,1,10,0:0:0:0:
195,191,210798,6,0,P|203:145|212:92,1,81,0|8,0:0|0:0,0:0:0:0:
221,15,211198,1,10,0:0:0:0:
110,0,211398,1,8,0:0:0:0:
93,100,211598,1,2,0:0:0:0:
211,118,211798,1,0,0:0:0:0:
334,136,211998,6,0,P|406:144|507:159,1,162,10|8,0:0|0:0,0:0:0:0:
274,224,212598,2,0,P|234:218|189:213,1,81,8|2,0:0|0:0,0:0:0:0:
71,203,212998,1,8,0:0:0:0:
52,316,213198,1,10,0:0:0:0:
175,332,213398,1,0,0:0:0:0:
193,213,213598,6,0,B|250:135|202:52|202:52,2,162,10|0|10,0:0|0:0|0:0,0:0:0:0:
98,242,214598,1,8,0:0:0:0:
11,188,214798,2,0,P|-5:220|3:269,1,81,2|0,0:0|0:0,0:0:0:0:
93,363,215198,6,0,P|179:352|267:345,1,162,10|8,0:0|0:0,0:0:0:0:
325,287,215798,1,8,0:0:0:0:
403,350,215998,1,2,0:0:0:0:
455,282,216198,1,0,0:0:0:0:
481,355,216398,6,0,P|452:310|437:262,1,81,10|0,0:0|0:0,0:0:0:0:
320,277,216798,2,0,P|369:213|403:105,1,162,10|0,0:0|0:0,0:0:0:0:
436,29,217398,1,8,0:0:0:0:
319,2,217598,1,10,0:0:0:0:
287,100,217798,2,0,P|277:143|271:185,1,81,8|2,0:0|0:0,0:0:0:0:
261,358,218198,5,0,0:0:0:0:
360,327,218398,2,0,P|400:332|460:347,1,81,10|0,0:0|0:0,0:0:0:0:
494,162,218798,2,0,P|482:206|476:246,1,81,8|8,0:0|0:0,0:0:0:0:
329,226,219198,1,2,0:0:0:0:
361,124,219398,1,8,0:0:0:0:
250,266,219598,5,10,0:0:0:0:
371,301,219798,1,0,0:0:0:0:
408,192,219998,1,10,0:0:0:0:
280,156,220198,1,4,0:0:0:0:
239,272,220398,2,0,P|228:318|219:366,1,81,0|8,0:0|0:0,0:0:0:0:
64,344,220798,6,0,B|0:264|80:176,1,162,10|2,0:0|0:0,0:0:0:0:
208,112,221398,1,0,0:0:0:0:
208,112,221598,2,0,B|240:209|135:264,1,162,10|2,0:0|0:0,0:0:0:0:
312,48,222198,1,8,0:0:0:0:
312,48,222398,2,0,B|264:88|328:144,1,81,2|2,0:0|0:0,0:0:0:0:
408,256,222798,2,0,B|432:200|360:171,1,81,10|2,0:0|0:0,0:0:0:0:
480,344,223198,1,10,0:0:0:0:
48,256,223598,1,0,0:0:0:0:
48,256,223998,6,8,B|40:312|48:368,1,81,10|8,0:0|0:0,0:0:0:0:
196,116,224398,2,0,B|165:163|148:217,1,81,2|0,0:0|0:0,0:0:0:0:
320,64,224798,1,10,0:0:0:0:
320,64,225198,6,8,B|344:104|320:144,1,81
120,237,225598,2,0,B|131:192|176:180,1,81,2|8,0:0|0:0,0:0:0:0:
396,220,225998,2,0,B|363:254|318:241,1,81,10|0,0:0|0:0,0:0:0:0:
177,72,226398,2,0,B|223:71|246:112,1,81,10|4,0:0|0:0,0:0:0:0:
264,334,226798,2,8,B|223:312|224:265,1,81,2|8,0:0|0:0,0:0:0:0:
432,304,227198,5,10,0:0:0:0:
472,216,227398,1,8,0:0:0:0:
408,144,227598,1,2,0:0:0:0:
320,192,227798,1,0,0:0:0:0:
336,288,227998,1,10,0:0:0:0:
336,288,228398,6,0,B|264:352,1,81,8|8,0:0|0:0,0:0:0:0:
208,184,228798,2,0,B|200:280,1,81,2|0,0:0|0:0,0:0:0:0:
64,136,229198,2,0,B|96:224,1,81,10|0,0:0|0:0,0:0:0:0:
0,48,229598,1,10,0:0:0:0:
352,48,229998,1,0,0:0:0:0:
352,48,230198,1,8,0:0:0:0:
352,48,230398,6,4,B|288:120|360:200,1,162,10|2,0:0|0:0,0:0:0:0:
280,264,230998,1,0,0:0:0:0:
184,240,231198,2,0,B|203:145|101:112,1,162,10|8,0:0|0:0,0:0:0:0:
259,39,231798,5,8,0:0:0:0:
152,224,231998,1,2,0:0:0:0:
344,136,232198,1,8,0:0:0:0:
144,96,232398,1,10,0:0:0:0:
280,248,232598,1,0,0:0:0:0:
240,144,232798,1,10,0:0:0:0:
240,144,232998,5,4,0:0:0:0:
240,144,233198,2,0,L|255:58,1,81,2|8,0:0|0:0,0:0:0:0:
479,179,233598,6,0,P|402:173|297:167,1,162,10|2,0:0|0:0,0:0:0:0:
145,316,234198,1,0,0:0:0:0:
145,316,234398,2,0,B|234:286|332:339|332:339,1,162,10|10,0:0|0:0,0:0:0:0:
10,178,234998,1,8,0:0:0:0:
90,148,235198,2,0,B|189:165,1,81,2|2,0:0|0:0,0:0:0:0:
115,48,235598,2,0,B|31:71,1,81,10|2,0:0|0:0,0:0:0:0:
191,15,235998,1,10,0:0:0:0:
318,201,236398,1,0,0:0:0:0:
318,201,236798,6,8,B|310:257|318:313,1,81,10|8,0:0|0:0,0:0:0:0:
147,336,237198,2,0,B|152:287|147:226,1,81,2|0,0:0|0:0,0:0:0:0:
276,80,237598,1,10,0:0:0:0:
276,80,237998,6,8,L|369:100,1,81
483,64,238398,1,2,0:0:0:0:
461,179,238598,1,8,0:0:0:0:
437,290,238798,2,0,L|340:312,1,81,10|0,0:0|0:0,0:0:0:0:
239,194,239198,2,0,P|240:239|267:283,1,81,10|4,0:0|0:0,0:0:0:0:
42,372,239598,2,0,P|42:328|26:286,1,81,2|8,0:0|0:0,0:0:0:0:
59,123,239998,5,10,0:0:0:0:
164,146,240198,1,8,0:0:0:0:
139,244,240398,1,2,0:0:0:0:
33,216,240598,1,0,0:0:0:0:
239,205,240798,5,10,0:0:0:0:
239,205,241198,2,0,B|351:170,1,81,8|8,0:0|0:0,0:0:0:0:
308,74,241598,2,0,B|393:97,1,81,2|0,0:0|0:0,0:0:0:0:
434,2,241998,2,0,B|508:59,1,81,10|0,0:0|0:0,0:0:0:0:
444,184,242398,1,10,0:0:0:0:
168,295,242798,1,0,0:0:0:0:
168,295,242998,1,8,0:0:0:0:
168,295,243198,6,4,B|96:218|175:128|175:128|175:128,1,162,10|2,0:0|0:0,0:0:0:0:
266,81,243798,1,0,0:0:0:0:
372,134,243998,2,4,B|444:211|365:301|365:301|365:301,1,162,10|8,0:0|0:0,0:0:0:0:
278,363,244598,5,8,0:0:0:0:
150,325,244798,1,2,0:0:0:0:
278,363,244998,1,8,0:0:0:0:
150,325,245198,1,10,0:0:0:0:
72,194,245398,1,0,0:0:0:0:
123,50,245598,1,10,0:0:0:0:
349,11,245998,5,0,0:0:0:0:
31,30,246398,6,0,P|99:28|208:40,1,162,10|2,0:0|0:0,0:0:0:0:
457,165,247198,2,0,P|388:163|280:175,1,162,10|10,0:0|0:0,0:0:0:0:
161,194,247798,1,8,0:0:0:0:
181,308,247998,2,0,P|238:296|290:290,1,81,2|2,0:0|0:0,0:0:0:0:
489,345,248398,2,0,P|434:351|395:360,1,81,10|2,0:0|0:0,0:0:0:0:
323,176,248798,6,0,P|330:216|339:262,1,81,10|0,0:0|0:0,0:0:0:0:
480,239,249198,1,0,0:0:0:0:
464,142,249398,1,8,0:0:0:0:
451,47,249598,2,0,L|358:64,1,81,10|8,0:0|0:0,0:0:0:0:
290,11,249998,2,0,L|128:38,2,162,2|10|8,0:0|0:0|0:0,0:0:0:0:
314,128,250998,5,8,0:0:0:0:
189,153,251198,1,2,0:0:0:0:
314,128,251398,1,8,0:0:0:0:
130,259,251598,2,0,P|176:246|224:236,1,81,10|0,0:0|0:0,0:0:0:0:
504,379,251998,2,0,P|422:356|337:338,1,162,10|0,0:0|0:0,0:0:0:0:
211,322,252598,5,8,0:0:0:0:
287,171,252798,2,0,P|294:210|303:250,1,81,10|8,0:0|0:0,0:0:0:0:
407,86,253198,2,0,P|399:125|390:165,1,81,2|0,0:0|0:0,0:0:0:0:
508,21,253598,1,10,0:0:0:0:
508,21,253998,6,0,B|564:97|502:172|502:172,1,162,8|2,0:0|0:0,0:0:0:0:
411,252,254598,1,0,0:0:0:0:
312,182,254798,2,0,P|350:156|386:154,1,81,10|0,0:0|0:0,0:0:0:0:
476,315,255198,2,0,P|434:295|414:264,1,81,10|0,0:0|0:0,0:0:0:0:
449,78,255598,2,0,P|475:116|477:152,1,81,0|8,0:0|0:0,0:0:0:0:
321,274,255998,6,0,P|262:269|132:264,1,162,10|2,0:0|0:0,0:0:0:0:
39,276,256598,1,0,0:0:0:0:
46,382,256798,1,10,0:0:0:0:
163,370,256998,1,0,0:0:0:0:
161,255,257198,2,0,P|175:218|159:160,1,81,8|8,0:0|0:0,0:0:0:0:
51,42,257598,5,2,0:0:0:0:
70,201,257798,1,8,0:0:0:0:
161,64,257998,1,10,0:0:0:0:
5,128,258198,1,0,0:0:0:0:
171,163,258398,2,0,P|256:151|347:144,1,162,10|0,0:0|0:0,0:0:0:0:
463,136,258998,5,8,0:0:0:0:
388,77,259198,2,0,P|372:37|386:-21,1,81,10|8,0:0|0:0,0:0:0:0:
399,203,259598,2,0,P|395:245|422:290,1,81,2|0,0:0|0:0,0:0:0:0:
294,358,259998,1,10,0:0:0:0:
254,258,260198,1,0,0:0:0:0:
144,285,260398,2,0,L|55:308,1,81,2|8,0:0|0:0,0:0:0:0:
181,378,260798,5,2,0:0:0:0:
251,277,260998,1,2,0:0:0:0:
157,181,261198,1,10,0:0:0:0:
245,90,261398,1,2,0:0:0:0:
171,0,261598,1,10,0:0:0:0:
0,72,261998,6,0,L|85:89,1,81,0|8,0:0|0:0,0:0:0:0:
166,141,262398,1,10,0:0:0:0:
166,141,262598,1,8,0:0:0:0:
269,16,262798,2,0,L|247:110,1,81,2|0,0:0|0:0,0:0:0:0:
94,213,263198,6,0,B|169:274|253:206|253:206|253:206,1,162,10|8,0:0|0:0,0:0:0:0:
331,164,263798,1,8,0:0:0:0:
433,180,263998,2,0,L|518:194,1,81,2|8,0:0|0:0,0:0:0:0:
387,335,264398,2,0,L|361:236,1,81,10|0,0:0|0:0,0:0:0:0:
232,146,264798,6,0,B|134:216|234:303|234:303,2,162,10|0|10,0:0|0:0|0:0,0:0:0:0:
289,219,265798,1,8,0:0:0:0:
90,262,265998,1,2,0:0:0:0:
55,191,266198,1,0,0:0:0:0:
90,262,266398,6,0,B|187:279|196:169|196:169|196:169,1,162,10|8,0:0|0:0,0:0:0:0:
103,58,266998,1,8,0:0:0:0:
103,58,267198,2,0,L|8:90,1,81,2|0,0:0|0:0,0:0:0:0:
74,168,267598,6,0,B|158:183,1,81,10|0,0:0|0:0,0:0:0:0:
174,296,267998,2,0,L|-4:250,1,162,10|0,0:0|0:0,0:0:0:0:
164,180,268598,1,8,0:0:0:0:
261,205,268798,1,10,0:0:0:0:
266,105,268998,2,0,L|242:11,1,81,8|2,0:0|0:0,0:0:0:0:
363,154,269398,5,0,0:0:0:0:
363,154,269598,2,0,L|463:174,1,81,10|0,0:0|0:0,0:0:0:0:
498,288,269998,2,0,L|400:262,1,81,8|8,0:0|0:0,0:0:0:0:
302,250,270398,1,2,0:0:0:0:
184,271,270598,1,8,0:0:0:0:
73,300,270798,5,10,0:0:0:0:
219,370,270998,1,0,0:0:0:0:
288,225,271198,1,10,0:0:0:0:
140,159,271398,1,4,0:0:0:0:
140,159,271598,2,0,B|108:204|152:261|152:261|152:261,1,81,2|8,0:0|0:0,0:0:0:0:
327,228,271998,6,0,B|348:146|323:52|323:52|323:52,1,162,10|2,0:0|0:0,0:0:0:0:
227,221,272598,1,0,0:0:0:0:
364,365,272798,2,0,L|449:352,1,81,10|0,0:0|0:0,0:0:0:0:
261,349,273198,1,10,0:0:0:0:
342,251,273398,1,8,0:0:0:0:
329,123,273598,5,2,0:0:0:0:
231,18,273798,1,2,0:0:0:0:
246,168,273998,1,10,0:0:0:0:
326,36,274198,1,2,0:0:0:0:
181,95,274398,1,10,0:0:0:0:
176,103,274798,6,0,P|126:100|62:99,1,81,0|8,0:0|0:0,0:0:0:0:
40,37,275198,2,0,B|-31:102|24:200|24:200,1,162,10|2,0:0|0:0,0:0:0:0:
91,359,275798,1,0,0:0:0:0:
91,359,275998,2,0,B|159:296|104:198|111:211,1,162,10|10,0:0|0:0,0:0:0:0:
89,102,276598,6,0,L|176:132,1,81,8|2,0:0|0:0,0:0:0:0:
248,61,276998,2,0,L|288:143,1,81,8|10,0:0|0:0,0:0:0:0:
402,126,277398,2,0,L|372:213,1,81,0|10,0:0|0:0,0:0:0:0:
332,323,277798,1,4,0:0:0:0:
453,357,277998,1,2,0:0:0:0:
488,252,278198,1,8,0:0:0:0:
370,203,278398,6,0,P|290:214|198:226,1,162,10|2,0:0|0:0,0:0:0:0:
209,224,279198,2,0,L|300:241,1,81,10|0,0:0|0:0,0:0:0:0:
78,350,279598,2,0,L|249:318,1,162,10|2,0:0|0:0,0:0:0:0:
368,298,280198,1,2,0:0:0:0:
344,175,280398,1,10,0:0:0:0:
201,202,280598,1,2,0:0:0:0:
55,246,280798,6,0,P|44:199|67:168,1,81,10|0,0:0|0:0,0:0:0:0:
152,90,281198,2,0,P|199:95|254:104,1,81,0|8,0:0|0:0,0:0:0:0:
340,13,281598,2,0,P|351:60|328:91,1,81,10|8,0:0|0:0,0:0:0:0:
250,196,281998,2,0,P|209:190|169:185,1,81,2|0,0:0|0:0,0:0:0:0:
30,288,282398,6,0,B|63:400|172:330|172:330,1,162,8|10,0:0|0:0,0:0:0:0:
282,291,282998,1,8,0:0:0:0:
413,336,283198,1,2,0:0:0:0:
282,291,283398,1,8,0:0:0:0:
375,255,283598,5,10,0:0:0:0:
322,370,283798,1,0,0:0:0:0:
188,337,283998,1,10,0:0:0:0:
240,215,284198,1,4,0:0:0:0:
240,215,284598,5,8,0:0:0:0:
322,197,284798,2,0,B|497:172|497:172,1,162,12|2,0:0|0:0,0:0:0:0:
464,68,285398,1,0,0:0:0:0:
362,88,285598,1,2,0:0:0:0:
0,196,285998,5,10,0:0:0:0:
100,220,286198,1,8,0:0:0:0:
151,319,286398,1,2,0:0:0:0:
258,284,286598,1,2,0:0:0:0:
361,289,286798,1,2,0:0:0:0:
361,289,286998,1,2,0:0:0:0:
361,289,287198,2,0,L|343:110,1,162,2|0,0:0|0:0,0:0:0:0:
417,34,287798,1,8,0:0:0:0:
482,115,287998,6,0,L|475:201,1,81,10|8,0:0|0:0,0:0:0:0:
468,325,288398,1,2,0:0:0:0:
288,369,288798,2,0,B|337:282|293:194|293:194,1,162,2|10,0:0|0:0,0:0:0:0:
406,112,289398,1,8,0:0:0:0:
310,65,289598,2,0,B|261:78|263:130|263:130,1,81,2|0,0:0|0:0,0:0:0:0:
160,122,289998,2,0,B|143:179|193:209|193:209,1,81,2|0,0:0|0:0,0:0:0:0:
35,265,290398,1,10,0:0:0:0:
35,265,290598,6,0,L|43:95,1,162,4|8,0:0|0:0,0:0:0:0:
116,27,291198,2,0,B|166:8|215:46|215:46,1,81,10|8,0:0|0:0,0:0:0:0:
264,225,291598,2,0,B|214:243|182:214|182:214,1,81,2|0,0:0|0:0,0:0:0:0:
184,125,291998,1,0,0:0:0:0:
474,66,292398,5,10,0:0:0:0:
378,111,292598,1,8,0:0:0:0:
424,198,292798,1,2,0:0:0:0:
512,160,292998,1,2,0:0:0:0:
378,111,293198,2,0,L|293:92,1,81,2|2,0:0|0:0,0:0:0:0:
384,283,293598,2,0,B|296:276|222:335|222:335,1,162,2|0,0:0|0:0,0:0:0:0:
158,244,294198,5,8,0:0:0:0:
309,13,294398,1,10,0:0:0:0:
309,13,294598,1,8,0:0:0:0:
194,363,295198,1,10,0:0:0:0:
194,363,295398,1,8,0:0:0:0:
494,216,295998,1,10,0:0:0:0:
494,216,296198,1,8,0:0:0:0:
21,169,296798,1,8,0:0:0:0:
21,169,296998,1,8,0:0:0:0:
157,105,297198,2,0,L|177:193,1,81
336,165,297598,5,4,0:0:0:0:
336,165,298398,2,0,P|390:157|430:152,1,81,2|2,0:0|0:0,0:0:0:0:
404,255,298798,2,0,P|458:247|498:242,1,81,2|0,0:0|0:0,0:0:0:0:
416,341,299198,2,0,P|336:352|244:365,1,162,2|2,0:0|0:0,0:0:0:0:
255,363,299998,6,0,L|242:279,2,81,2|2|2,0:0|0:0|0:0,0:0:0:0:
168,329,300798,2,0,B|101:244|187:177|187:177,1,162,2|0,0:0|0:0,0:0:0:0:
180,184,301598,2,0,L|86:209,1,81,2|2,0:0|0:0,0:0:0:0:
26,228,301998,1,2,0:0:0:0:
26,228,302198,1,2,0:0:0:0:
26,228,302398,1,2,0:0:0:0:
116,78,303198,1,2,0:0:0:0:
251,34,303998,6,0,P|316:32|436:37,1,162,2|0,0:0|0:0,0:0:0:0:
416,35,304798,2,0,L|378:122,1,81,2|2,0:0|0:0,0:0:0:0:
467,177,305198,2,0,L|378:211,1,81,2|0,0:0|0:0,0:0:0:0:
424,318,305598,2,0,L|267:250,2,162,2|2|2,0:0|0:0|0:0,0:0:0:0:
495,268,306598,1,2,0:0:0:0:
495,268,306798,1,2,0:0:0:0:
414,5,307198,6,0,B|340:80|416:162|416:162,1,162,2|0,0:0|0:0,0:0:0:0:
408,152,307998,2,0,L|512:176,1,81,2|2,0:0|0:0,0:0:0:0:
301,61,308398,2,0,L|197:85,2,81,2|2|2,0:0|0:0|0:0,0:0:0:0:
301,61,309598,1,2,0:0:0:0:
301,61,310398,6,0,L|129:37,1,162,6|0,0:0|0:0,0:0:0:0:
32,24,310998,1,0,0:0:0:0:
17,125,311198,2,0,L|103:140,2,81,2|2|2,0:0|0:0|0:0,0:0:0:0:
124,367,311998,6,0,B|99:388|206:317|147:220,1,162,2|2,0:0|0:0,0:0:0:0:
152,229,312798,2,0,L|65:265,1,81,2|2,0:0|0:0,0:0:0:0:
251,157,313198,2,0,L|164:119,1,81,2|0,0:0|0:0,0:0:0:0:
376,154,313598,1,2,0:0:0:0:
376,154,314398,5,2,0:0:0:0:
376,154,314598,1,2,0:0:0:0:
398,246,314798,1,2,0:0:0:0:
502,223,314998,1,2,0:0:0:0:
481,130,315198,1,2,0:0:0:0:
455,357,315998,1,2,0:0:0:0:
455,357,316798,6,0,P|394:353|276:349,1,162,2|0,0:0|0:0,0:0:0:0:
293,349,317598,2,0,P|287:299|280:255,1,81,2|2,0:0|0:0,0:0:0:0:
271,172,317998,1,2,0:0:0:0:
167,185,318198,1,0,0:0:0:0:
180,277,318398,1,2,0:0:0:0:
180,277,318798,6,0,L|78:304,1,81,2|0,0:0|0:0,0:0:0:0:
8,188,319198,2,0,L|113:219,2,81,2|2|2,0:0|0:0|0:0,0:0:0:0:
8,188,319998,6,0,B|114:242|157:130|157:130,1,162,2|0,0:0|0:0,0:0:0:0:
147,149,320798,2,0,P|139:97|137:65,1,81,2|2,0:0|0:0,0:0:0:0:
238,0,321198,2,0,P|246:52|248:84,1,81,2|2,0:0|0:0,0:0:0:0:
244,189,321598,1,2,0:0:0:0:
244,189,322398,5,2,0:0:0:0:
353,194,322798,1,2,0:0:0:0:
256,192,322898,12,2,324798,0:0:0:0:
