osu file format v14

[General]
AudioFilename: audio.mp3
AudioLeadIn: 0
PreviewTime: 105598
Countdown: 1
SampleSet: Soft
StackLeniency: 0.7
Mode: 0
LetterboxInBreaks: 0
CountdownOffset: 3
WidescreenStoryboard: 1

[Editor]
Bookmarks: 35195,67195,105595,135995,166395,195195,227195,259195,291195,323195,335995
DistanceSpacing: 1.8
BeatDivisor: 4
GridSize: 8
TimelineZoom: 2.1

[Metadata]
Title:you feat. Eminem
TitleUnicode:you feat. Eminem
Artist:haru
ArtistUnicode:haru
Creator:Fixxis
Version:Collab Hyper
Source:ひぐらしのなく頃に
Tags:Black Man Natteke tieff slim shady gillstar amity higurashi no naku koro ni when the evening cry cicadas you 07th expansion rap eminem haru☆ ha_ru mashup haru* When I'm Gone remix dear you English hip hop hip-hop
BeatmapID:2144330
BeatmapSetID:1023323

[Difficulty]
HPDrainRate:4.3
CircleSize:3.7
OverallDifficulty:6
ApproachRate:7
SliderMultiplier:1.4
SliderTickRate:1

[Events]
//Background and Video events
0,0,"BG.png",0,0
//Break Periods
//Storyboard Layer 0 (Background)
//Storyboard Layer 1 (Fail)
//Storyboard Layer 2 (Pass)
//Storyboard Layer 3 (Foreground)
//Storyboard Layer 4 (Overlay)
//Storyboard Sound Samples

[TimingPoints]
39998,400,4,2,1,60,1,0
39998,-142.857142857143,4,2,1,60,0,0
41595,-100,4,2,1,60,0,0
79998,-100,4,2,1,70,0,0
92798,-100,4,2,1,55,0,0
105598,-100,4,2,1,60,0,0
143998,-100,4,2,1,70,0,0
175998,-100,4,2,1,55,0,0
182398,-100,4,2,1,80,0,0
207598,-100,4,2,1,70,0,0
284798,-100,4,2,1,60,0,0
297595,-200,4,2,1,60,0,0
297598,-200,4,2,1,50,0,0
310398,-200,4,2,1,30,0,0
310498,-200,4,2,1,50,0,0
324798,-200,4,2,1,30,0,0

[Colours]
Combo1 : 159,159,255
Combo2 : 255,155,255

[HitObjects]
259,350,39998,5,10,0:0:0:0:
259,350,40198,2,0,L|327:358,1,48.9999985046387,8|10,0:0|0:0,0:0:0:0:
478,367,40798,5,10,0:0:0:0:
465,231,41198,1,8,0:0:0:0:
346,261,41598,6,0,B|297:189|347:122,1,140,12|0,0:0|0:0,0:0:0:0:
330,54,42198,1,0,0:0:0:0:
265,101,42398,2,0,B|196:109,1,70,10|2,0:0|0:0,0:0:0:0:
144,160,42798,1,10,0:0:0:0:
144,160,42998,1,8,0:0:0:0:
120,87,43198,2,0,B|51:95,1,70,2|0,0:0|0:0,0:0:0:0:
0,176,43598,2,0,B|69:168,1,70,10|0,0:0|0:0,0:0:0:0:
8,259,43998,2,0,B|89:250|149:260,1,140,10|2,0:0|0:0,0:0:0:0:
219,224,44598,1,8,0:0:0:0:
214,304,44798,5,10,0:0:0:0:
286,276,44998,2,0,B|355:284,1,70,8|0,0:0|0:0,0:0:0:0:
429,215,45398,2,0,B|360:207,1,70,0|10,0:0|0:0,0:0:0:0:
290,171,45798,1,2,0:0:0:0:
353,128,45998,1,10,0:0:0:0:
359,206,46198,1,8,0:0:0:0:
290,171,46398,2,0,B|264:167|221:172,1,70,2|0,0:0|0:0,0:0:0:0:
158,96,46798,2,0,B|184:100|227:95,1,70,10|0,0:0|0:0,0:0:0:0:
296,53,47198,1,10,0:0:0:0:
370,89,47398,6,0,B|434:48|500:93,1,140,4|8,0:0|0:0,0:0:0:0:
510,172,47998,1,10,0:0:0:0:
432,176,48198,1,8,0:0:0:0:
472,243,48398,2,0,B|464:312,1,70,2|0,0:0|0:0,0:0:0:0:
381,384,48798,2,0,B|390:303|380:244,1,140,10|10,0:0|0:0,0:0:0:0:
330,187,49398,1,8,0:0:0:0:
300,260,49598,6,0,B|231:252,1,70,2|0,0:0|0:0,0:0:0:0:
183,170,49998,2,0,B|252:178,1,70,10|0,0:0|0:0,0:0:0:0:
296,111,50398,1,10,0:0:0:0:
223,87,50598,2,0,B|154:95,2,70,2|2|8,0:0|0:0|0:0,0:0:0:0:
259,0,51198,5,10,0:0:0:0:
259,0,51398,2,0,B|180:22|120:23,1,140,8|0,0:0|0:0,0:0:0:0:
71,88,51998,1,10,0:0:0:0:
131,142,52198,1,2,0:0:0:0:
80,199,52398,1,10,0:0:0:0:
18,150,52598,1,8,0:0:0:0:
11,223,52798,6,0,B|19:292,1,70,2|8,0:0|0:0,0:0:0:0:
101,341,53198,2,8,B|93:272,1,70,10|0,0:0|0:0,0:0:0:0:
157,226,53598,1,10,0:0:0:0:
157,226,53798,2,0,B|238:217|298:227,1,140,4|8,0:0|0:0,0:0:0:0:
380,199,54398,5,10,0:0:0:0:
319,152,54598,1,10,0:0:0:0:
388,125,54798,2,0,B|420:130|457:124,1,70,2|0,0:0|0:0,0:0:0:0:
497,184,55198,1,10,0:0:0:0:
487,259,55398,1,2,0:0:0:0:
479,336,55598,1,10,0:0:0:0:
479,336,55798,1,8,0:0:0:0:
408,294,55998,6,0,B|400:363,1,70,2|0,0:0|0:0,0:0:0:0:
307,382,56398,2,0,B|299:313,1,70,10|0,0:0|0:0,0:0:0:0:
263,248,56798,1,10,0:0:0:0:
194,217,56998,1,2,0:0:0:0:
207,295,57198,2,0,B|215:364,1,70,2|8,0:0|0:0,0:0:0:0:
105,353,57598,1,10,0:0:0:0:
105,353,57798,6,0,B|64:289|109:223,1,140,8|0,0:0|0:0,0:0:0:0:
148,151,58398,1,10,0:0:0:0:
194,217,58598,1,0,0:0:0:0:
230,145,58798,2,0,B|299:137,1,70,10|8,0:0|0:0,0:0:0:0:
261,62,59198,2,0,B|330:54,1,70,2|8,0:0|0:0,0:0:0:0:
400,116,59598,2,0,B|441:180|396:246,1,140,10|10,0:0|0:0,0:0:0:0:
424,321,60198,2,0,B|284:337,1,140,6|8,0:0|0:0,0:0:0:0:
220,288,60798,5,10,0:0:0:0:
212,366,60998,1,8,0:0:0:0:
144,322,61198,2,0,B|149:290|143:253,1,70,2|0,0:0|0:0,0:0:0:0:
207,140,61598,2,0,B|202:172|208:209,1,70,10|2,0:0|0:0,0:0:0:0:
279,245,61998,1,10,0:0:0:0:
279,245,62198,6,0,B|348:253,1,70,8|2,0:0|0:0,0:0:0:0:
406,202,62598,1,0,0:0:0:0:
346,156,62798,2,0,B|206:139,1,140,10|10,0:0|0:0,0:0:0:0:
158,55,63398,2,0,B|227:63,1,70,2|2,0:0|0:0,0:0:0:0:
206,139,63798,1,8,0:0:0:0:
129,134,63998,5,10,0:0:0:0:
129,134,64198,2,0,B|119:193|128:274,1,140,8|0,0:0|0:0,0:0:0:0:
117,350,64798,1,10,0:0:0:0:
195,359,64998,1,2,0:0:0:0:
200,282,65198,1,10,0:0:0:0:
200,282,65398,2,0,B|269:290,1,70,8|2,0:0|0:0,0:0:0:0:
345,301,65798,1,8,0:0:0:0:
420,304,65998,2,0,B|411:223|421:163,1,140,10|10,0:0|0:0,0:0:0:0:
343,80,66598,2,0,B|349:117|344:149,1,70,4|0,0:0|0:0,0:0:0:0:
331,226,66998,1,8,0:0:0:0:
266,180,67198,5,10,0:0:0:0:
137,233,67598,1,2,0:0:0:0:
86,108,67998,1,8,0:0:0:0:
220,51,68398,2,0,B|289:59,1,70,2|8,0:0|0:0,0:0:0:0:
222,127,68798,2,0,B|361:143,2,140,2|10|10,0:0|0:0|0:0,0:0:0:0:
161,179,69798,1,0,0:0:0:0:
219,232,69998,1,2,0:0:0:0:
275,183,70198,1,0,0:0:0:0:
275,183,70398,5,10,0:0:0:0:
379,277,70798,1,2,0:0:0:0:
476,171,71198,1,10,0:0:0:0:
357,67,71598,2,0,B|288:75,1,70,2|8,0:0|0:0,0:0:0:0:
239,150,71998,1,2,0:0:0:0:
313,145,72198,1,8,0:0:0:0:
313,145,72398,2,0,B|382:137,1,70,10|0,0:0|0:0,0:0:0:0:
289,236,72798,2,0,B|368:214|428:213,2,140,10|2|10,0:0|0:0|0:0,0:0:0:0:
300,363,73998,5,2,0:0:0:0:
149,379,74398,1,8,0:0:0:0:
132,247,74798,2,0,B|124:178,1,70,2|8,0:0|0:0,0:0:0:0:
51,272,75198,2,0,B|32:109,2,140,2|10|10,0:0|0:0|0:0,0:0:0:0:
109,323,76198,1,0,0:0:0:0:
132,249,76398,1,2,0:0:0:0:
206,265,76598,1,0,0:0:0:0:
206,265,76798,5,10,0:0:0:0:
314,360,77198,1,2,0:0:0:0:
399,249,77598,1,10,0:0:0:0:
297,157,77998,2,0,B|228:165,1,70,2|8,0:0|0:0,0:0:0:0:
150,160,78398,1,2,0:0:0:0:
186,93,78598,1,8,0:0:0:0:
186,93,78798,2,0,B|255:85,1,70,10|0,0:0|0:0,0:0:0:0:
265,0,79198,2,0,B|186:22|126:23,1,140,10|2,0:0|0:0,0:0:0:0:
10,185,79998,6,0,B|89:163|149:162,1,140,12|2,0:0|0:0,0:0:0:0:
227,167,80598,1,0,0:0:0:0:
182,232,80798,2,0,B|190:301,1,70,8|0,0:0|0:0,0:0:0:0:
224,369,81198,1,10,0:0:0:0:
271,313,81398,1,8,0:0:0:0:
271,313,81598,6,0,B|263:244,1,70,2|0,0:0|0:0,0:0:0:0:
360,217,81998,2,0,B|352:286,1,70,10|0,0:0|0:0,0:0:0:0:
429,311,82398,2,0,B|429:252|451:173,1,140,10|2,0:0|0:0,0:0:0:0:
457,96,82998,1,8,0:0:0:0:
457,96,83198,2,0,B|388:88,1,70,10|8,0:0|0:0,0:0:0:0:
376,163,83598,2,0,B|307:155,1,70
249,110,83998,1,10,0:0:0:0:
241,185,84198,1,0,0:0:0:0:
170,171,84398,1,10,0:0:0:0:
170,171,84598,6,0,B|178:102,2,70,8|2|8,0:0|0:0|0:0,0:0:0:0:
107,221,85198,1,10,0:0:0:0:
95,145,85398,2,0,B|103:76,1,70,0|10,0:0|0:0,0:0:0:0:
19,89,85798,2,0,B|-22:153|23:219,1,140,4|8,0:0|0:0,0:0:0:0:
63,292,86398,5,10,0:0:0:0:
63,292,86598,2,0,B|132:300,1,70,8|2,0:0|0:0,0:0:0:0:
107,221,86998,2,0,B|176:229,1,70,0|10,0:0|0:0,0:0:0:0:
207,302,87398,1,0,0:0:0:0:
256,238,87598,1,8,0:0:0:0:
289,312,87798,1,8,0:0:0:0:
289,312,87998,6,0,B|281:381,1,70,2|0,0:0|0:0,0:0:0:0:
378,359,88398,2,0,B|370:290,1,70,10|0,0:0|0:0,0:0:0:0:
450,214,88798,2,0,B|495:280|454:344,1,140,10|2,0:0|0:0,0:0:0:0:
369,289,89398,1,8,0:0:0:0:
372,213,89598,5,10,0:0:0:0:
372,213,89798,2,0,B|303:205,1,70,8|2,0:0|0:0,0:0:0:0:
232,176,90198,1,0,0:0:0:0:
291,124,90398,2,0,B|360:132,1,70,10|0,0:0|0:0,0:0:0:0:
415,76,90798,1,10,0:0:0:0:
415,76,90998,1,8,0:0:0:0:
354,32,91198,6,0,B|285:40,1,70,2|8,0:0|0:0,0:0:0:0:
221,85,91598,2,0,B|152:93,1,70,10|0,0:0|0:0,0:0:0:0:
99,189,91998,1,8,0:0:0:0:
99,189,92198,2,0,B|178:167|236:166,1,140,4|8,0:0|0:0,0:0:0:0:
309,184,92798,2,8,B|317:253,2,70,10|8|2,0:0|0:0|0:0,0:0:0:0:
287,110,93398,1,2,0:0:0:0:
362,123,93598,1,0,0:0:0:0:
443,246,93998,6,0,B|435:315,1,70,10|8,0:0|0:0,0:0:0:0:
366,274,94398,2,0,B|358:343,2,70,2|0|10,0:0|0:0|0:0,0:0:0:0:
443,246,94998,1,2,0:0:0:0:
381,198,95198,2,0,B|389:129,1,70
340,71,95598,1,2,0:0:0:0:
312,142,95798,1,10,0:0:0:0:
262,86,95998,5,10,0:0:0:0:
262,86,96198,2,0,B|193:94,2,70,8|2|2,0:0|0:0|0:0,0:0:0:0:
240,167,96798,2,0,B|181:167|102:189,1,140
27,202,97398,1,0,0:0:0:0:
65,267,97598,6,0,B|134:259,1,70,2|0,0:0|0:0,0:0:0:0:
97,340,97998,2,0,B|166:332,1,70,10|2,0:0|0:0,0:0:0:0:
211,271,98398,1,10,0:0:0:0:
284,305,98598,2,0,B|284:246|306:167,1,140,4|8,0:0|0:0,0:0:0:0:
362,123,99198,2,0,B|431:115,2,70,10|8|2,0:0|0:0|0:0,0:0:0:0:
293,96,99798,1,2,0:0:0:0:
353,45,99998,1,0,0:0:0:0:
196,31,100398,6,0,B|127:39,1,70,10|8,0:0|0:0,0:0:0:0:
166,111,100798,2,0,B|97:119,2,70,2|0|10,0:0|0:0|0:0,0:0:0:0:
215,170,101398,1,2,0:0:0:0:
142,186,101598,2,0,B|134:255,1,70
87,313,101998,1,2,0:0:0:0:
115,384,102198,1,8,0:0:0:0:
165,328,102398,5,10,0:0:0:0:
165,328,102598,2,0,B|234:336,2,70,8|2|2,0:0|0:0|0:0,0:0:0:0:
214,248,103198,2,0,B|293:270|351:270,1,140,0|10,0:0|0:0,0:0:0:0:
426,297,103798,1,8,0:0:0:0:
408,224,103998,2,0,B|416:155,1,70,2|2,0:0|0:0,0:0:0:0:
331,181,104398,2,0,B|339:112,1,70,10|0,0:0|0:0,0:0:0:0:
272,16,104798,1,10,0:0:0:0:
272,16,104998,2,0,B|255:155,1,140,4|8,0:0|0:0,0:0:0:0:
164,215,105598,5,12,0:0:0:0:
87,219,105798,2,0,B|18:227,2,70,8|0|0,0:0|0:0|0:0,0:0:0:0:
9,320,106398,2,0,B|88:298|146:298,1,140,10|10,0:0|0:0,0:0:0:0:
225,302,106998,1,8,0:0:0:0:
301,321,107198,1,2,0:0:0:0:
301,321,107398,2,0,B|309:252,1,70,0|10,0:0|0:0,0:0:0:0:
360,192,107798,1,0,0:0:0:0:
391,265,107998,2,0,B|383:334,1,70,10|2,0:0|0:0,0:0:0:0:
456,358,108398,1,2,0:0:0:0:
473,285,108598,1,8,0:0:0:0:
473,285,108798,5,10,0:0:0:0:
479,206,108998,1,8,0:0:0:0:
487,130,109198,1,0,0:0:0:0:
417,156,109398,2,0,B|348:148,1,70,0|10,0:0|0:0,0:0:0:0:
274,116,109798,1,2,0:0:0:0:
251,45,109998,1,10,0:0:0:0:
178,71,110198,1,8,0:0:0:0:
201,144,110398,6,0,B|193:213,1,70,2|8,0:0|0:0,0:0:0:0:
145,276,110798,1,10,0:0:0:0:
114,206,110998,2,0,B|122:137,1,70,0|10,0:0|0:0,0:0:0:0:
100,60,111398,1,4,0:0:0:0:
38,110,111598,6,0,B|38:168|16:247,1,140,0|6,0:0|0:0,0:0:0:0:
40,320,112198,1,8,0:0:0:0:
108,356,112398,1,0,0:0:0:0:
186,346,112598,1,0,0:0:0:0:
186,346,112798,2,8,B|325:363,1,140,10|10,0:0|0:0,0:0:0:0:
399,348,113398,1,8,0:0:0:0:
353,288,113598,5,2,0:0:0:0:
353,288,113798,2,0,B|284:280,1,70,0|10,0:0|0:0,0:0:0:0:
225,227,114198,1,0,0:0:0:0:
299,201,114398,1,10,0:0:0:0:
225,227,114598,1,0,0:0:0:0:
163,164,114798,1,2,0:0:0:0:
241,135,114998,1,8,0:0:0:0:
211,59,115198,5,10,0:0:0:0:
211,59,115398,2,0,L|142:51,1,70,8|0,0:0|0:0,0:0:0:0:
79,115,115798,1,0,0:0:0:0:
152,143,115998,2,0,L|221:151,1,70,10|2,0:0|0:0,0:0:0:0:
318,128,116398,1,10,0:0:0:0:
298,206,116598,1,8,0:0:0:0:
373,220,116798,5,2,0:0:0:0:
396,146,116998,1,8,0:0:0:0:
396,146,117198,2,0,B|388:77,1,70,10|0,0:0|0:0,0:0:0:0:
451,29,117598,1,10,0:0:0:0:
476,99,117798,2,0,B|476:157|498:236,1,140,4|8,0:0|0:0,0:0:0:0:
496,348,118398,5,10,0:0:0:0:
419,367,118598,2,0,B|350:359,2,70,8|0|0,0:0|0:0|0:0,0:0:0:0:
436,290,119198,2,0,B|378:290|299:268,1,140,10|10,0:0|0:0,0:0:0:0:
236,316,119798,1,8,0:0:0:0:
226,240,119998,5,0,0:0:0:0:
226,240,120198,2,0,B|234:171,1,70,2|10,0:0|0:0,0:0:0:0:
205,103,120598,1,0,0:0:0:0:
143,142,120798,2,0,B|151:211,1,70,10|2,0:0|0:0,0:0:0:0:
110,277,121198,1,0,0:0:0:0:
59,328,121398,1,8,0:0:0:0:
59,328,121598,6,0,B|138:306|196:306,1,140,10|0,0:0|0:0,0:0:0:0:
276,322,122198,1,0,0:0:0:0:
331,251,122398,1,10,0:0:0:0:
289,174,122598,1,0,0:0:0:0:
350,111,122798,1,10,0:0:0:0:
393,179,122998,1,8,0:0:0:0:
331,251,123198,5,2,0:0:0:0:
257,289,123398,1,8,0:0:0:0:
290,364,123598,1,10,0:0:0:0:
365,327,123798,2,0,B|434:319,1,70,0|10,0:0|0:0,0:0:0:0:
512,300,124198,1,4,0:0:0:0:
500,220,124398,1,2,0:0:0:0:
485,145,124598,1,8,0:0:0:0:
485,145,124798,6,0,B|502:6,1,140,10|0,0:0|0:0,0:0:0:0:
429,17,125398,1,0,0:0:0:0:
414,93,125598,2,0,B|406:162,1,70,10|2,0:0|0:0,0:0:0:0:
342,210,125998,1,10,0:0:0:0:
292,158,126198,1,8,0:0:0:0:
292,158,126398,6,0,B|284:89,1,70
273,15,126798,1,10,0:0:0:0:
195,26,126998,1,0,0:0:0:0:
203,100,127198,2,0,B|211:169,1,70,10|2,0:0|0:0,0:0:0:0:
161,229,127598,1,2,0:0:0:0:
96,185,127798,1,8,0:0:0:0:
88,264,127998,1,10,0:0:0:0:
88,264,128198,6,0,B|146:264|225:286,1,140,8|0,0:0|0:0,0:0:0:0:
303,265,128798,2,0,B|372:273,1,70,10|2,0:0|0:0,0:0:0:0:
439,316,129198,1,10,0:0:0:0:
454,240,129398,1,8,0:0:0:0:
454,240,129598,5,0,0:0:0:0:
387,197,129798,2,0,B|395:128,1,70,8|10,0:0|0:0,0:0:0:0:
411,53,130198,1,0,0:0:0:0:
336,79,130398,1,10,0:0:0:0:
253,102,130598,5,4,0:0:0:0:
240,26,130798,1,2,0:0:0:0:
317,1,130998,1,0,0:0:0:0:
345,93,131198,1,8,0:0:0:0:
345,93,131398,1,8,0:0:0:0:
345,93,131598,6,0,B|328:232,2,140,2|2|0,0:0|0:0|0:0,0:0:0:0:
42,311,132798,6,0,B|76:295|109:298,1,70,2|2,0:0|0:0,0:0:0:0:
183,274,133198,1,10,0:0:0:0:
122,215,133398,1,0,0:0:0:0:
122,215,133598,6,0,B|139:76,1,140,8|2,0:0|0:0,0:0:0:0:
201,29,134198,1,8,0:0:0:0:
217,104,134398,2,0,B|208:173,2,70,10|10|2,0:0|0:0|0:0,0:0:0:0:
274,50,134998,1,2,0:0:0:0:
356,65,135198,1,0,0:0:0:0:
356,65,135598,5,0,0:0:0:0:
356,65,135998,5,0,0:0:0:0:
389,136,136198,1,10,0:0:0:0:
375,213,136398,2,0,L|362:283,1,70,10|0,0:0|0:0,0:0:0:0:
450,323,136798,2,0,L|463:253,1,70,10|4,0:0|0:0,0:0:0:0:
496,174,137198,2,0,L|481:93,1,70,2|8,0:0|0:0,0:0:0:0:
502,16,137598,6,0,B|411:38,1,70,10|10,0:0|0:0,0:0:0:0:
363,60,137998,1,2,0:0:0:0:
288,80,138198,1,2,0:0:0:0:
288,80,138798,5,0,0:0:0:0:
288,80,139198,5,2,0:0:0:0:
301,160,139398,1,2,0:0:0:0:
310,243,139598,2,0,B|240:251,1,70,10|0,0:0|0:0,0:0:0:0:
172,320,139998,2,0,B|126:253|167:189,1,140,0|2,1:0|0:0,0:0:0:0:
237,146,140598,1,8,0:0:0:0:
284,240,140798,5,10,0:0:0:0:
284,240,140998,1,10,0:0:0:0:
361,182,141198,2,0,B|430:173,1,70,2|2,0:0|0:0,0:0:0:0:
512,220,141598,1,0,0:0:0:0:
512,220,141998,5,0,0:0:0:0:
425,249,142398,5,2,0:0:0:0:
447,147,142598,1,10,0:0:0:0:
447,147,142798,2,0,B|488:83|442:16,1,140,10|10,0:0|0:0,0:0:0:0:
355,3,143398,2,0,B|270:13,2,70,4|2|0,0:0|0:0|0:0,0:0:0:0:
369,82,143998,5,12,0:0:0:0:
369,82,144198,2,0,B|230:99,1,140,8|0,0:0|0:0,0:0:0:0:
177,159,144798,1,8,0:0:0:0:
153,85,144998,1,0,0:0:0:0:
81,113,145198,1,10,0:0:0:0:
81,113,145398,1,8,0:0:0:0:
97,195,145598,6,0,B|88:229|109:262,1,70,2|2,0:0|0:0,0:0:0:0:
203,308,145998,2,0,B|212:274|190:240,1,70,2|0,1:2|0:0,0:0:0:0:
251,191,146398,2,0,B|390:208,1,140,10|2,0:0|0:0,0:0:0:0:
461,179,146998,1,0,0:0:0:0:
447,256,147198,5,10,0:0:0:0:
447,256,147398,2,0,B|457:341,2,70,10|2|0,0:0|0:0|0:0,0:0:0:0:
461,179,147998,1,10,0:0:0:0:
389,207,148198,2,0,B|380:137,1,70,0|10,0:0|0:0,0:0:0:0:
426,72,148598,1,8,0:0:0:0:
426,72,148798,5,2,0:0:0:0:
351,61,148998,1,8,0:0:0:0:
273,53,149198,2,0,B|203:44,1,70,10|0,0:0|0:0,0:0:0:0:
128,40,149598,1,10,0:0:0:0:
118,120,149798,2,0,B|176:120|255:142,1,140,4|8,0:0|0:0,0:0:0:0:
317,193,150398,5,10,0:0:0:0:
317,193,150598,1,8,0:0:0:0:
244,220,150798,2,0,B|235:289,1,70,2|0,0:0|0:0,0:0:0:0:
306,338,151198,2,0,B|314:268,1,70,8|0,0:0|0:0,0:0:0:0:
380,236,151598,1,10,0:0:0:0:
380,236,151798,1,8,0:0:0:0:
387,314,151998,6,0,B|378:383,1,70,2|0,0:0|0:0,0:0:0:0:
456,368,152398,1,10,0:0:0:0:
464,293,152598,1,0,0:0:0:0:
464,293,152798,2,0,B|464:235|486:156,1,140,8|2,0:0|0:0,0:0:0:0:
498,80,153398,1,0,0:0:0:0:
430,109,153598,5,10,0:0:0:0:
430,109,153798,2,0,B|361:100,2,70,8|2|0,0:0|0:0|0:0,0:0:0:0:
399,188,154398,2,0,B|320:166|262:166,1,140,10|10,0:0|0:0,0:0:0:0:
182,178,154998,1,8,0:0:0:0:
212,104,155198,5,2,0:0:0:0:
137,112,155398,1,8,0:0:0:0:
182,178,155598,2,0,B|173:247,1,70,10|0,0:0|0:0,0:0:0:0:
166,323,155998,1,8,0:0:0:0:
243,356,156198,2,0,B|243:298|265:219,1,140,4|8,0:0|0:0,0:0:0:0:
262,139,156798,5,10,0:0:0:0:
262,139,156998,1,8,0:0:0:0:
327,177,157198,2,0,B|396:168,1,70,2|0,0:0|0:0,0:0:0:0:
475,160,157598,1,8,0:0:0:0:
475,160,157998,5,10,0:0:0:0:
465,80,158198,1,8,0:0:0:0:
452,10,158398,2,0,B|383:19,1,70,2|2,0:0|0:0,0:0:0:0:
304,87,158798,1,8,0:0:0:0:
310,4,158998,1,0,0:0:0:0:
233,52,159198,2,0,B|175:52|96:74,1,140,10|2,0:0|0:0,0:0:0:0:
21,113,159798,1,8,0:0:0:0:
94,166,159998,5,10,0:0:0:0:
94,166,160198,2,0,B|73:199|82:233,1,70,8|2,0:0|0:0,0:0:0:0:
172,257,160598,2,0,B|193:224|184:190,1,70,0|10,0:0|0:0,0:0:0:0:
75,248,160998,1,0,0:0:0:0:
97,334,161198,1,10,0:0:0:0:
189,359,161398,1,8,0:0:0:0:
189,359,161598,6,0,B|268:349,1,70,2|8,0:0|0:0,0:0:0:0:
288,264,161998,2,0,B|219:273,1,70,10|0,0:0|0:0,0:0:0:0:
158,216,162398,1,8,0:0:0:0:
230,166,162598,2,8,B|309:144|375:159,1,140,6|8,0:0|0:0,0:0:0:0:
471,154,163198,5,10,0:0:0:0:
471,154,163398,1,8,0:0:0:0:
429,219,163598,2,0,B|420:288,1,70,2|2,0:0|0:0,0:0:0:0:
347,236,163998,2,0,B|330:375,1,140,10|8,0:0|0:0,0:0:0:0:
330,374,164598,1,8,0:0:0:0:
253,355,164798,6,0,B|262:286,1,70
186,289,165198,2,0,B|177:358,1,70,10|0,0:0|0:0,0:0:0:0:
96,353,165598,2,0,B|118:274|118:216,1,140,10|2,0:0|0:0,0:0:0:0:
115,140,166198,1,8,0:0:0:0:
181,178,166398,1,10,0:0:0:0:
181,178,166598,1,8,0:0:0:0:
175,97,166798,2,0,B|244:88,1,70,2|2,0:0|0:0,0:0:0:0:
250,168,167198,2,0,B|181:177,1,70,10|0,0:0|0:0,0:0:0:0:
115,140,167598,1,10,0:0:0:0:
115,140,167798,1,8,0:0:0:0:
175,78,167998,6,0,B|244:87,1,70,2|8,0:0|0:0,0:0:0:0:
244,87,168398,1,10,0:0:0:0:
243,11,168598,2,0,B|312:20,1,70,0|10,0:0|0:0,0:0:0:0:
366,74,168998,1,4,0:0:0:0:
388,0,169198,1,0,0:0:0:0:
441,55,169398,1,8,0:0:0:0:
422,130,169598,5,10,0:0:0:0:
422,130,169798,2,0,B|400:209|400:267,1,140,8|2,0:0|0:0,0:0:0:0:
318,290,170398,2,0,B|327:221,1,70,10|0,0:0|0:0,0:0:0:0:
328,148,170798,1,10,0:0:0:0:
328,148,170998,1,8,0:0:0:0:
255,182,171198,2,0,B|246:251,1,70,2|0,0:0|0:0,0:0:0:0:
245,328,171598,1,10,0:0:0:0:
245,328,171998,6,0,B|187:328|108:350,1,140,10|2,0:0|0:0,0:0:0:0:
34,322,172598,1,8,0:0:0:0:
96,278,172798,5,10,0:0:0:0:
96,278,172998,1,8,0:0:0:0:
27,242,173198,2,8,B|18:173,1,70,2|0,0:0|0:0,0:0:0:0:
89,126,173598,2,0,B|98:195,1,70,10|0,0:0|0:0,0:0:0:0:
167,237,173998,1,10,0:0:0:0:
167,237,174198,1,8,0:0:0:0:
179,150,174398,6,0,B|170:81,1,70,2|8,0:0|0:0,0:0:0:0:
268,118,174798,2,8,B|259:187,1,70,10|0,0:0|0:0,0:0:0:0:
269,265,175198,1,10,0:0:0:0:
339,227,175398,2,0,B|339:169|361:90,1,140,4|8,0:0|0:0,0:0:0:0:
378,11,175998,5,2,0:0:0:0:
504,36,176398,1,2,0:0:0:0:
478,166,176798,1,0,0:0:0:0:
346,141,177198,1,2,0:0:0:0:
222,80,177598,5,2,0:0:0:0:
96,105,177998,1,2,0:0:0:0:
122,235,178398,1,0,0:0:0:0:
254,210,178798,1,2,0:0:0:0:
352,141,179198,5,2,0:0:0:0:
478,166,179598,1,0,0:0:0:0:
452,296,179998,1,0,0:0:0:0:
320,271,180398,1,2,0:0:0:0:
254,210,180798,5,2,0:0:0:0:
254,210,181198,1,8,0:0:0:0:
126,253,181598,1,8,0:0:0:0:
170,381,181998,1,0,0:0:0:0:
33,206,182398,5,12,0:0:0:0:
33,206,182598,2,0,B|101:192,2,70,8|0|0,0:0|0:0|0:0,0:0:0:0:
26,128,183198,2,0,B|84:123|161:94,1,140,10|10,0:0|0:0,0:0:0:0:
233,76,183798,1,8,0:0:0:0:
306,49,183998,5,2,0:0:0:0:
306,49,184198,2,0,B|374:35,1,70,0|10,0:0|0:0,0:0:0:0:
448,31,184598,1,0,0:0:0:0:
418,103,184798,2,0,B|350:117,1,70,10|2,0:0|0:0,0:0:0:0:
294,174,185198,1,2,0:0:0:0:
368,191,185398,1,8,0:0:0:0:
444,214,185598,5,10,0:0:0:0:
444,214,185798,1,8,0:0:0:0:
426,293,185998,1,0,0:0:0:0:
345,311,186198,2,0,B|269:329,1,70,0|10,0:0|0:0,0:0:0:0:
199,367,186598,1,2,0:0:0:0:
206,286,186798,1,10,0:0:0:0:
206,286,186998,1,8,0:0:0:0:
166,201,187198,5,2,0:0:0:0:
260,211,187398,1,8,0:0:0:0:
228,130,187598,1,10,0:0:0:0:
228,130,187798,1,0,0:0:0:0:
236,28,187998,1,10,0:0:0:0:
236,28,188198,2,0,B|176:73|88:78,1,140,4|8,0:0|0:0,0:0:0:0:
53,145,188798,5,10,0:0:0:0:
53,145,188998,1,8,0:0:0:0:
145,167,189198,2,0,B|215:170,1,70
176,256,189598,2,0,B|316:261,1,140,10|10,0:0|0:0,0:0:0:0:
393,210,190198,1,8,0:0:0:0:
388,291,190398,6,0,B|385:360,1,70,2|0,0:0|0:0,0:0:0:0:
290,326,190798,1,10,0:0:0:0:
299,244,190998,1,0,0:0:0:0:
301,158,191198,2,0,L|217:171,1,70,10|2,0:0|0:0,0:0:0:0:
154,141,191598,1,2,0:0:0:0:
153,226,191798,1,8,0:0:0:0:
72,191,191998,5,10,0:0:0:0:
72,191,192198,2,0,B|57:123,1,70,8|0,0:0|0:0,0:0:0:0:
109,31,192598,1,0,0:0:0:0:
208,29,192798,2,0,B|223:97,1,70,10|0,0:0|0:0,0:0:0:0:
303,162,193198,1,10,0:0:0:0:
265,242,193398,1,10,0:0:0:0:
265,242,193598,5,2,0:0:0:0:
344,281,193798,2,0,B|413:284,1,70,8|10,0:0|0:0,0:0:0:0:
496,242,194198,1,0,0:0:0:0:
483,152,194398,1,10,0:0:0:0:
483,152,194598,2,0,B|343:147,1,140,4|8,0:0|0:0,0:0:0:0:
266,159,195198,5,10,0:0:0:0:
266,159,195398,2,0,B|198:173,2,70,8|0|0,0:0|0:0|0:0,0:0:0:0:
269,243,195998,2,0,B|211:248|134:276,1,140,10|10,0:0|0:0,0:0:0:0:
59,252,196598,1,8,0:0:0:0:
94,187,196798,1,2,0:0:0:0:
94,187,196998,2,0,B|80:118,1,70,0|10,0:0|0:0,0:0:0:0:
108,46,197398,1,0,0:0:0:0:
157,107,197598,2,0,B|171:175,1,70,10|2,0:0|0:0,0:0:0:0:
243,207,197998,1,2,0:0:0:0:
239,127,198198,1,8,0:0:0:0:
313,166,198398,5,10,0:0:0:0:
313,166,198598,1,8,0:0:0:0:
383,183,198798,1,0,0:0:0:0:
463,155,198998,1,0,0:0:0:0:
472,63,199198,1,10,0:0:0:0:
396,22,199398,1,0,0:0:0:0:
314,16,199598,1,10,0:0:0:0:
314,16,199798,1,8,0:0:0:0:
316,94,199998,6,0,B|389:106,1,70,2|8,0:0|0:0,0:0:0:0:
464,181,200398,1,10,0:0:0:0:
464,181,200598,2,0,B|391:189,1,70,0|10,0:0|0:0,0:0:0:0:
485,282,200998,2,0,B|404:267|347:272,1,140,4|8,0:0|0:0,0:0:0:0:
283,330,201598,5,10,0:0:0:0:
255,254,201798,2,0,B|241:186,2,70,8|0|0,0:0|0:0|0:0,0:0:0:0:
191,321,202398,2,0,B|162:184,1,140,10|10,0:0|0:0,0:0:0:0:
143,97,202998,1,8,0:0:0:0:
86,150,203198,6,0,B|18:164,1,70,2|0,0:0|0:0,0:0:0:0:
0,60,203598,2,0,B|70:62,1,70,10|0,0:0|0:0,0:0:0:0:
143,97,203998,1,10,0:0:0:0:
189,31,204198,1,0,0:0:0:0:
249,83,204398,1,2,0:0:0:0:
208,149,204598,1,8,0:0:0:0:
208,149,204798,5,10,0:0:0:0:
282,154,204998,2,0,B|352:156,1,70,8|0,0:0|0:0,0:0:0:0:
401,93,205398,1,0,0:0:0:0:
431,167,205598,1,10,0:0:0:0:
503,144,205798,1,0,0:0:0:0:
480,68,205998,1,10,0:0:0:0:
480,68,206198,6,0,B|482:0,1,70,8|2,0:0|0:0,0:0:0:0:
402,23,206598,1,8,0:0:0:0:
402,23,206798,2,0,B|400:92,1,70,2|0,0:0|0:0,0:0:0:0:
398,171,207198,1,10,0:0:0:0:
327,138,207398,1,4,0:0:0:0:
191,155,207598,5,0,0:0:0:0:
263,188,207798,1,8,0:0:0:0:
258,99,207998,5,12,0:0:0:0:
181,74,208198,1,8,0:0:0:0:
110,142,208398,2,0,B|104:177|127:208,1,70,2|0,0:0|0:0,0:0:0:0:
208,220,208798,2,0,B|214:185|190:154,1,70,10|0,0:0|0:0,0:0:0:0:
126,207,209198,1,10,0:0:0:0:
57,248,209398,1,8,0:0:0:0:
88,318,209598,5,2,0:0:0:0:
158,279,209798,1,2,0:0:0:0:
208,220,209998,2,0,B|264:172|338:203,1,140,10|10,0:0|0:0,0:0:0:0:
391,257,210598,1,0,0:0:0:0:
414,184,210798,1,0,0:0:0:0:
478,227,210998,1,8,0:0:0:0:
461,307,211198,5,10,0:0:0:0:
461,307,211398,2,0,B|405:355|331:323,1,140,8|0,0:0|0:0,0:0:0:0:
260,353,211998,2,0,B|245:285,1,70,10|0,0:0|0:0,0:0:0:0:
215,206,212398,1,8,0:0:0:0:
215,206,212598,1,8,0:0:0:0:
159,261,212798,2,0,B|174:329,1,70,2|8,0:0|0:0,0:0:0:0:
75,250,213198,2,0,B|104:387,1,140,10|10,0:0|0:0,0:0:0:0:
174,330,213798,2,0,B|159:261,2,70,4|0|0,0:0|0:0|0:0,0:0:0:0:
103,387,214398,5,10,0:0:0:0:
104,387,214598,2,0,B|75:250,1,140,8|0,0:0|0:0,0:0:0:0:
24,193,215198,1,10,0:0:0:0:
101,177,215398,1,0,0:0:0:0:
51,119,215598,2,0,B|54:49,1,70,8|8,0:0|0:0,0:0:0:0:
121,11,215998,5,2,0:0:0:0:
127,85,216198,1,0,0:0:0:0:
196,46,216398,2,0,B|210:115,1,70,10|0,0:0|0:0,0:0:0:0:
277,36,216798,2,0,B|282:94|311:171,1,140,10|0,0:0|0:0,0:0:0:0:
329,245,217398,1,8,0:0:0:0:
385,194,217598,5,10,0:0:0:0:
385,194,217798,2,0,B|455:197,1,70,8|2,0:0|0:0,0:0:0:0:
491,279,218198,1,0,0:0:0:0:
491,279,218398,2,0,B|421:277,1,70,10|0,0:0|0:0,0:0:0:0:
356,320,218798,1,8,0:0:0:0:
356,320,218998,6,0,B|287:334,2,70,8|2|8,0:0|0:0|0:0,0:0:0:0:
334,238,219598,2,0,B|257:267|199:272,1,140,10|10,0:0|0:0,0:0:0:0:
128,310,220198,1,4,0:0:0:0:
134,235,220398,2,0,B|120:166,1,70,0|8,0:0|0:0,0:0:0:0:
59,260,220798,6,0,B|54:202|25:125,1,140,10|2,0:0|0:0,0:0:0:0:
42,49,221398,1,0,0:0:0:0:
105,97,221598,2,0,B|119:166,1,70,10|0,0:0|0:0,0:0:0:0:
194,193,221998,1,10,0:0:0:0:
194,193,222198,1,8,0:0:0:0:
132,239,222398,6,0,B|130:309,1,70,2|2,0:0|0:0,0:0:0:0:
205,347,222798,2,0,B|207:277,1,70,10|2,0:0|0:0,0:0:0:0:
260,215,223198,1,10,0:0:0:0:
288,290,223398,1,0,0:0:0:0:
360,267,223598,1,0,0:0:0:0:
336,192,223798,1,0,0:0:0:0:
260,215,223998,5,10,0:0:0:0:
260,215,224198,2,0,B|202:220|125:249,1,140,8|0,0:0|0:0,0:0:0:0:
75,176,224798,2,0,B|144:162,1,70,10|0,0:0|0:0,0:0:0:0:
216,145,225198,1,8,0:0:0:0:
216,145,225398,1,8,0:0:0:0:
157,84,225598,6,0,B|88:98,1,70,2|8,0:0|0:0,0:0:0:0:
35,35,225998,2,0,B|104:21,1,70,10|0,0:0|0:0,0:0:0:0:
178,7,226398,1,10,0:0:0:0:
154,85,226598,2,0,B|291:56,1,140,4|8,0:0|0:0,0:0:0:0:
367,38,227198,5,10,0:0:0:0:
367,38,227398,1,8,0:0:0:0:
439,59,227598,2,0,B|480:46|506:46,2,70,2|0|10,0:0|0:0|0:0,0:0:0:0:
397,122,228198,1,0,0:0:0:0:
422,193,228398,1,8,0:0:0:0:
422,193,228598,1,8,0:0:0:0:
341,181,228798,6,0,B|272:195,1,70,2|0,0:0|0:0,0:0:0:0:
341,260,229198,2,0,B|272:274,1,70,10|0,0:0|0:0,0:0:0:0:
345,342,229598,2,0,B|208:371,1,140,10|0,0:0|0:0,0:0:0:0:
134,348,230198,1,8,0:0:0:0:
134,348,230398,5,10,0:0:0:0:
71,302,230598,2,0,B|70:275|58:234,1,70,8|2,0:0|0:0,0:0:0:0:
64,153,230998,1,0,0:0:0:0:
134,181,231198,2,0,B|134:207|146:248,1,70,10|0,0:0|0:0,0:0:0:0:
207,303,231598,1,8,0:0:0:0:
207,303,231798,1,8,0:0:0:0:
227,220,231998,6,0,B|296:206,1,70,2|8,0:0|0:0,0:0:0:0:
214,145,232398,2,0,B|283:131,1,70,10|0,0:0|0:0,0:0:0:0:
357,157,232798,1,10,0:0:0:0:
361,233,232998,2,0,B|390:310|395:368,1,140,4|8,0:0|0:0,0:0:0:0:
473,357,233598,6,0,B|459:288,1,70,10|8,0:0|0:0,0:0:0:0:
512,232,233998,2,0,B|498:163,1,70,2|0,0:0|0:0,0:0:0:0:
425,132,234398,1,10,0:0:0:0:
431,53,234598,1,0,0:0:0:0:
354,41,234798,1,10,0:0:0:0:
354,41,234998,1,8,0:0:0:0:
344,121,235198,6,0,B|275:135,1,70,2|2,0:0|0:0,0:0:0:0:
272,59,235598,2,0,B|203:73,1,70,10|2,0:0|0:0,0:0:0:0:
131,101,235998,2,0,B|136:159|165:236,1,140,10|0,0:0|0:0,0:0:0:0:
204,301,236598,1,8,0:0:0:0:
125,303,236798,5,10,0:0:0:0:
125,303,236998,1,8,0:0:0:0:
204,301,237198,2,0,B|273:287,1,70,2|0,0:0|0:0,0:0:0:0:
346,264,237598,1,10,0:0:0:0:
299,203,237798,2,0,B|230:217,1,70,0|8,0:0|0:0,0:0:0:0:
179,161,238198,1,8,0:0:0:0:
179,161,238398,5,2,0:0:0:0:
248,129,238598,2,0,B|317:115,2,70,8|10|0,0:0|0:0|0:0,0:0:0:0:
210,61,239198,1,10,0:0:0:0:
210,61,239398,2,0,B|347:32,1,140,4|8,0:0|0:0,0:0:0:0:
416,79,239998,5,10,0:0:0:0:
416,79,240198,2,0,B|402:148,1,70,8|2,0:0|0:0,0:0:0:0:
488,127,240598,1,0,0:0:0:0:
488,127,240798,2,0,B|474:196,1,70,10|0,0:0|0:0,0:0:0:0:
453,271,241198,1,8,0:0:0:0:
453,271,241398,1,8,0:0:0:0:
387,226,241598,6,0,B|318:240,1,70,2|0,0:0|0:0,0:0:0:0:
368,308,241998,2,0,B|231:337,1,140,10|10,0:0|0:0,0:0:0:0:
171,286,242598,1,0,0:0:0:0:
231,336,242798,1,0,0:0:0:0:
162,366,242998,1,8,0:0:0:0:
99,320,243198,5,10,0:0:0:0:
99,320,243398,2,0,B|105:285|81:254,1,70,8|2,0:0|0:0,0:0:0:0:
1,242,243798,2,0,B|-5:277|18:308,1,70,0|10,0:0|0:0,0:0:0:0:
81,254,244198,1,0,0:0:0:0:
51,182,244398,1,8,0:0:0:0:
51,182,244598,1,8,0:0:0:0:
134,180,244798,5,2,0:0:0:0:
112,104,244998,1,8,0:0:0:0:
185,124,245198,2,0,B|254:138,1,70,10|0,0:0|0:0,0:0:0:0:
312,68,245598,1,10,0:0:0:0:
312,68,245798,2,0,B|254:63|176:33,1,140,4|8,0:0|0:0,0:0:0:0:
112,104,246398,5,10,0:0:0:0:
112,104,246598,1,8,0:0:0:0:
178,127,246798,2,0,B|192:196,1,70,2|0,0:0|0:0,0:0:0:0:
269,208,247198,2,0,B|255:139,1,70,10|0,0:0|0:0,0:0:0:0:
306,80,247598,1,10,0:0:0:0:
306,80,247798,1,8,0:0:0:0:
339,157,247998,5,2,0:0:0:0:
386,96,248198,1,2,0:0:0:0:
445,149,248398,1,10,0:0:0:0:
393,207,248598,1,2,0:0:0:0:
393,207,248798,2,0,B|422:284|427:342,1,140,10|0,0:0|0:0,0:0:0:0:
352,361,249398,1,8,0:0:0:0:
285,329,249598,5,10,0:0:0:0:
285,329,249798,2,0,B|216:343,2,70,8|2|0,0:0|0:0|0:0,0:0:0:0:
350,289,250398,1,10,0:0:0:0:
357,212,250598,1,0,0:0:0:0:
282,202,250798,1,8,0:0:0:0:
271,274,250998,1,8,0:0:0:0:
282,202,251198,6,0,B|268:133,1,70,2|8,0:0|0:0,0:0:0:0:
198,184,251598,2,0,B|193:126|163:48,1,140,10|10,0:0|0:0,0:0:0:0:
89,67,252198,2,0,B|118:144|123:202,1,140,8|8,0:0|0:0,0:0:0:0:
177,262,252798,5,10,0:0:0:0:
177,262,252998,2,0,B|246:276,1,70,8|2,0:0|0:0,0:0:0:0:
195,342,253398,1,0,0:0:0:0:
195,342,253598,2,0,B|264:356,1,70,10|0,0:0|0:0,0:0:0:0:
320,299,253998,1,8,0:0:0:0:
320,299,254198,1,8,0:0:0:0:
297,223,254398,6,0,B|283:154,1,70,2|0,0:0|0:0,0:0:0:0:
244,88,254798,2,0,B|301:31|372:60,1,140,10|10,0:0|0:0,0:0:0:0:
372,60,255398,1,0,0:0:0:0:
454,59,255598,1,0,0:0:0:0:
459,135,255798,1,8,0:0:0:0:
380,146,255998,5,10,0:0:0:0:
380,146,256198,2,0,B|394:215,1,70,8|2,0:0|0:0,0:0:0:0:
404,293,256598,1,0,0:0:0:0:
327,275,256798,2,0,B|313:206,1,70,10|0,0:0|0:0,0:0:0:0:
250,161,257198,1,8,0:0:0:0:
250,161,257398,1,8,0:0:0:0:
242,243,257598,6,0,B|228:312,1,70,2|8,0:0|0:0,0:0:0:0:
153,302,257998,2,0,B|95:358|24:329,1,140,10|10,0:0|0:0,0:0:0:0:
35,251,258598,2,0,B|21:182,2,70,4|0|8,0:0|0:0|0:0,0:0:0:0:
111,225,259198,1,10,0:0:0:0:
111,225,259398,1,8,0:0:0:0:
91,147,259598,2,0,B|77:78,1,70,2|0,0:0|0:0,0:0:0:0:
132,20,259998,1,10,0:0:0:0:
164,93,260198,2,0,B|178:162,1,70,0|10,0:0|0:0,0:0:0:0:
251,192,260598,1,8,0:0:0:0:
254,113,260798,5,2,0:0:0:0:
322,151,260998,1,2,0:0:0:0:
322,151,261198,2,0,B|391:137,1,70,10|2,0:0|0:0,0:0:0:0:
457,206,261598,2,0,B|399:211|321:240,1,140,10|0,0:0|0:0,0:0:0:0:
278,299,262198,1,8,0:0:0:0:
243,232,262398,5,10,0:0:0:0:
243,232,262598,2,0,B|174:218,1,70,8|2,0:0|0:0,0:0:0:0:
194,302,262998,2,0,B|125:288,1,70,0|10,0:0|0:0,0:0:0:0:
105,204,263398,2,0,B|174:218,1,70,0|8,0:0|0:0,0:0:0:0:
218,145,263798,1,8,0:0:0:0:
218,145,263998,5,2,0:0:0:0:
218,145,264198,1,8,0:0:0:0:
140,128,264398,2,0,B|71:114,1,70,10|0,0:0|0:0,0:0:0:0:
28,48,264798,1,10,0:0:0:0:
103,38,264998,2,0,B|180:67|238:72,1,140,4|8,0:0|0:0,0:0:0:0:
298,130,265598,5,10,0:0:0:0:
298,130,265798,1,8,0:0:0:0:
309,55,265998,2,0,B|378:41,1,70,2|0,0:0|0:0,0:0:0:0:
447,104,266398,1,10,0:0:0:0:
447,104,266598,2,0,B|378:118,1,70,0|8,0:0|0:0,0:0:0:0:
347,192,266998,1,8,0:0:0:0:
427,200,267198,6,0,B|413:269,1,70,2|0,0:0|0:0,0:0:0:0:
333,261,267598,2,0,B|347:192,1,70,10|0,0:0|0:0,0:0:0:0:
304,128,267998,1,10,0:0:0:0:
267,197,268198,2,0,B|198:211,1,70
125,227,268598,1,8,0:0:0:0:
147,151,268798,5,10,0:0:0:0:
147,151,268998,2,0,B|161:82,2,70,8|2|0,0:0|0:0|0:0,0:0:0:0:
72,177,269598,1,10,0:0:0:0:
125,227,269798,1,0,0:0:0:0:
54,251,269998,1,8,0:0:0:0:
36,332,270198,6,0,B|105:346,2,70,8|2|8,0:0|0:0|0:0,0:0:0:0:
54,251,270798,2,0,B|131:280|189:285,1,140,10|10,0:0|0:0,0:0:0:0:
266,278,271398,2,0,B|335:264,2,70,4|2|8,0:0|0:0|0:0,0:0:0:0:
215,209,271998,5,10,0:0:0:0:
215,209,272198,1,8,0:0:0:0:
195,131,272398,2,0,B|181:62,2,70,2|0|10,0:0|0:0|0:0,0:0:0:0:
276,150,272998,2,0,B|262:81,1,70,0|10,0:0|0:0,0:0:0:0:
316,27,273398,1,8,0:0:0:0:
316,27,273598,6,0,B|385:41,1,70,2|2,0:0|0:0,0:0:0:0:
460,58,273998,1,10,0:0:0:0:
408,121,274198,2,0,B|477:135,1,70,2|10,0:0|0:0,0:0:0:0:
476,211,274598,1,0,0:0:0:0:
472,290,274798,1,0,0:0:0:0:
395,278,274998,1,8,0:0:0:0:
396,204,275198,5,10,0:0:0:0:
396,204,275398,2,0,B|327:218,1,70,8|2,0:0|0:0,0:0:0:0:
251,220,275798,1,0,0:0:0:0:
249,292,275998,2,0,B|318:306,1,70,10|0,0:0|0:0,0:0:0:0:
389,326,276398,1,10,0:0:0:0:
466,347,276598,1,8,0:0:0:0:
466,347,276798,6,0,B|452:278,1,70,2|8,0:0|0:0,0:0:0:0:
501,219,277198,1,10,0:0:0:0:
423,207,277398,1,0,0:0:0:0:
473,146,277598,1,10,0:0:0:0:
473,146,277798,2,0,B|336:175,1,140,4|8,0:0|0:0,0:0:0:0:
343,91,278398,6,0,B|274:105,1,70,10|8,0:0|0:0,0:0:0:0:
293,25,278798,2,0,B|224:39,1,70,2|0,0:0|0:0,0:0:0:0:
199,111,279198,2,0,B|170:248,1,140,10|10,0:0|0:0,0:0:0:0:
147,324,279798,1,8,0:0:0:0:
92,263,279998,5,2,0:0:0:0:
170,247,280198,1,2,0:0:0:0:
231,313,280398,2,0,B|300:327,1,70,10|2,0:0|0:0,0:0:0:0:
383,327,280798,1,10,0:0:0:0:
352,258,280998,1,0,0:0:0:0:
423,214,281198,1,0,0:0:0:0:
457,283,281398,1,8,0:0:0:0:
343,257,281598,5,10,0:0:0:0:
343,257,281798,2,0,B|357:188,1,70,8|2,0:0|0:0,0:0:0:0:
319,124,282198,1,0,0:0:0:0:
249,160,282398,1,8,0:0:0:0:
249,160,282598,2,0,B|263:229,1,70,0|10,0:0|0:0,0:0:0:0:
216,292,282998,1,8,0:0:0:0:
183,219,283198,5,2,0:0:0:0:
100,248,283398,1,8,0:0:0:0:
144,327,283598,1,10,0:0:0:0:
232,304,283798,1,0,0:0:0:0:
183,219,283998,1,10,0:0:0:0:
183,219,284198,2,0,B|178:161|148:83,1,140,4|8,0:0|0:0,0:0:0:0:
222,61,284798,2,0,B|291:53,1,70,12|8,0:0|0:0,0:0:0:0:
345,126,285198,2,0,B|276:134,1,70,2|0,0:0|0:0,0:0:0:0:
197,143,285598,1,2,0:0:0:0:
42,258,285998,6,0,B|50:189,1,70,10|8,0:0|0:0,0:0:0:0:
151,217,286398,2,0,B|126:282,2,70,2|2|2,0:0|0:0|0:0,0:0:0:0:
241,258,286998,1,2,0:0:0:0:
241,258,287198,2,0,B|199:313,1,70,2|0,0:0|0:0,0:0:0:0:
398,340,287798,5,8,0:0:0:0:
443,280,287998,1,10,0:0:0:0:
443,280,288198,2,0,B|512:288,2,70,8|2|0,0:0|0:0|0:0,0:0:0:0:
298,209,288998,5,0,0:0:0:0:
374,196,289198,1,10,0:0:0:0:
374,194,289398,1,8,0:0:0:0:
336,129,289598,6,0,B|267:137,1,70,2|0,0:0|0:0,0:0:0:0:
282,60,289998,2,0,B|213:68,1,70,2|0,0:0|0:0,0:0:0:0:
138,42,290398,1,10,0:0:0:0:
147,118,290598,2,0,B|147:177|125:256,1,140,4|8,0:0|0:0,0:0:0:0:
69,303,291198,2,0,B|0:311,1,70,10|8,0:0|0:0,0:0:0:0:
46,384,291598,2,0,B|115:376,1,70,2|0,0:0|0:0,0:0:0:0:
175,325,291998,1,0,0:0:0:0:
318,353,292398,6,0,B|387:345,1,70,10|8,0:0|0:0,0:0:0:0:
348,273,292798,2,0,B|417:265,2,70,2|2|2,0:0|0:0|0:0,0:0:0:0:
299,214,293398,1,2,0:0:0:0:
372,198,293598,2,0,B|380:129,1,70,2|0,0:0|0:0,0:0:0:0:
427,71,293998,1,0,0:0:0:0:
399,0,294198,1,8,0:0:0:0:
349,56,294398,5,10,0:0:0:0:
349,56,294598,2,0,B|280:48,2,70,8|0|0,0:0|0:0|0:0,0:0:0:0:
300,136,295198,2,0,B|221:114|163:114,1,140,8|0,0:0|0:0,0:0:0:0:
88,87,295798,1,0,0:0:0:0:
104,163,295998,2,0,B|96:232,1,70,10|8,0:0|0:0,0:0:0:0:
182,203,296398,2,0,B|174:272,1,70
248,341,296798,1,8,0:0:0:0:
248,341,296998,2,0,B|265:202,1,140,8|0,0:0|0:0,0:0:0:0:
351,219,297598,6,0,B|342:149,1,70,4|0,0:0|0:0,0:0:0:0:
404,99,298398,2,0,B|385:54,2,35,2|2|2,0:0|0:0|0:0,0:0:0:0:
342,149,299198,2,0,B|311:77,1,70,2|2,0:0|0:0,0:0:0:0:
241,53,299998,2,0,B|222:8,2,35,2|2|2,0:0|0:0|0:0,0:0:0:0:
239,129,300798,2,0,B|266:193,1,70,2|0,0:0|0:0,0:0:0:0:
266,193,301398,1,0,0:0:0:0:
266,193,301598,2,0,B|311:212,2,35,2|2|2,0:0|0:0|0:0,0:0:0:0:
248,270,302398,2,0,B|183:242,1,70,2|0,0:0|0:0,0:0:0:0:
137,307,303198,2,0,B|201:334,1,70,2|0,0:0|0:0,0:0:0:0:
278,368,303998,6,0,B|342:340,1,70,2|0,0:0|0:0,0:0:0:0:
297,278,304798,2,0,B|252:297,2,35,2|2|2,0:0|0:0|0:0,0:0:0:0:
376,271,305598,2,0,B|403:206,1,70,2|2,0:0|0:0,0:0:0:0:
458,155,306398,2,0,B|490:141,2,35,2|2|2,0:0|0:0|0:0,0:0:0:0:
379,133,307198,2,0,B|406:68,1,70,2|0,0:0|0:0,0:0:0:0:
406,68,307798,1,0,0:0:0:0:
406,68,307998,2,0,B|373:54,2,35,2|2|2,0:0|0:0|0:0,0:0:0:0:
376,136,308798,2,0,B|311:108,1,70,2|0,0:0|0:0,0:0:0:0:
246,153,309598,2,0,B|181:125,1,70,2|0,0:0|0:0,0:0:0:0:
118,170,310398,6,0,B|109:240,1,70,6|0,0:0|0:0,0:0:0:0:
118,315,311198,2,0,B|99:360,2,35,2|2|2,0:0|0:0|0:0,0:0:0:0:
51,284,311998,2,0,B|20:355,1,70,2|2,0:0|0:0,0:0:0:0:
104,347,312798,2,0,B|117:314,2,35,2|2|2,0:0|0:0|0:0,0:0:0:0:
175,374,313598,2,0,B|202:309,1,70,2|0,0:0|0:0,0:0:0:0:
202,309,314198,1,0,0:0:0:0:
202,309,314398,2,0,B|247:290,2,35,2|2|2,0:0|0:0|0:0,0:0:0:0:
173,235,315198,2,0,B|237:207,1,70,2|0,0:0|0:0,0:0:0:0:
203,139,315998,2,0,B|138:166,1,70,2|0,0:0|0:0,0:0:0:0:
157,76,316798,6,0,B|222:49,1,70,2|0,0:0|0:0,0:0:0:0:
235,125,317598,2,0,B|203:139,2,35,2|2|2,0:0|0:0|0:0,0:0:0:0:
284,183,318398,2,0,B|256:247,1,70,2|2,0:0|0:0,0:0:0:0:
242,321,319198,2,0,B|274:334,2,35,2|2|2,0:0|0:0|0:0,0:0:0:0:
179,281,319998,2,0,B|151:345,1,70,2|0,0:0|0:0,0:0:0:0:
151,345,320598,1,0,0:0:0:0:
151,346,320798,2,0,B|183:359,2,35,2|2|2,0:0|0:0|0:0,0:0:0:0:
75,364,321598,2,0,B|10:336,1,70,2|0,0:0|0:0,0:0:0:0:
22,259,322398,2,0,B|86:286,1,70,2|2,0:0|0:0,0:0:0:0:
256,192,322898,12,2,324798,0:0:0:0:
