osu file format v14

[General]
AudioFilename: audio.mp3
AudioLeadIn: 0
PreviewTime: -1
Countdown: 1
SampleSet: None
StackLeniency: 0.7
Mode: 0
LetterboxInBreaks: 0
WidescreenStoryboard: 0

[Editor]
DistanceSpacing: 0.8
BeatDivisor: 4
GridSize: 8
TimelineZoom: 1

[Metadata]
Title:Bogosawieni Miosierni (HARDSTYLE BOOTLEG)
TitleUnicode:Błogosławieni Miłosierni (HARDSTYLE BOOTLEG)
Artist:hardstyle
ArtistUnicode:hardstyle
Creator:[Sad Memes]
Version:Bass
Source:hella lit
Tags:your mum
BeatmapID:1385391
BeatmapSetID:653533

[Difficulty]
HPDrainRate:5
CircleSize:4
OverallDifficulty:8
ApproachRate:9.6
SliderMultiplier:2.2
SliderTickRate:1

[Events]
//Background and Video events
0,0,"All Pokemons!!.jpg",0,0
//Break Periods
//Storyboard Layer 0 (Background)
//Storyboard Layer 1 (Fail)
//Storyboard Layer 2 (Pass)
//Storyboard Layer 3 (Foreground)
//Storyboard Sound Samples

[TimingPoints]
46,400,4,2,0,100,1,0
125,-133.333333333333,4,2,0,100,0,0
38346,-90.9090909090909,4,2,0,100,0,0
51146,-74.0740740740741,4,2,0,100,0,0
52746,-66.6666666666667,4,2,0,100,0,0
52946,-74.0740740740741,4,2,0,100,0,0
63946,-66.6666666666667,4,2,0,100,0,0
64346,-74.0740740740741,4,2,0,100,0,0

[HitObjects]
80,128,22446,6,0,L|264:128,1,165.000006294251
328,184,23046,1,0,0:0:0:0:
288,272,23246,2,0,P|232:216|248:136,1,165.000006294251
160,88,23846,1,0,0:0:0:0:
256,56,24046,2,0,L|432:48,1,165.000006294251
440,144,24646,5,0,0:0:0:0:
344,168,24846,1,0,0:0:0:0:
328,264,25046,1,0,0:0:0:0:
240,304,25246,1,0,0:0:0:0:
328,264,25446,2,0,P|256:200|184:224,1,165.000006294251
128,120,27046,5,0,0:0:0:0:
208,64,27246,2,0,L|392:72,1,165.000006294251
312,152,27846,1,0,0:0:0:0:
240,88,28046,2,0,P|208:168|264:240,2,165
360,248,29246,5,0,0:0:0:0:
288,312,29446,2,0,L|168:288,1,82.5000031471254
160,208,29846,1,0,0:0:0:0:
224,128,30046,2,0,L|344:104,1,82.5000031471254
272,208,30446,2,0,P|256:280|176:320,1,165.000006294251
272,296,31046,6,0,B|416:288|416:288|432:256,1,165.000006294251
480,184,31646,2,0,L|488:96,1,82.5000031471254
400,56,32046,2,0,L|296:104,1,82.5000031471254
240,136,32446,2,0,P|296:191|373:174,1,165.000006294251
448,240,33046,5,0,0:0:0:0:
424,264,33146,1,0,0:0:0:0:
400,288,33246,1,0,0:0:0:0:
376,312,33346,1,0,0:0:0:0:
352,336,33446,1,0,0:0:0:0:
256,304,33646,6,0,L|88:288,1,165.000006294251
152,208,34246,1,0,0:0:0:0:
232,264,34446,2,0,P|264:192|200:120,1,165.000006294251
304,72,35046,1,0,0:0:0:0:
360,160,35246,2,0,L|448:192,7,82.5000031471254
336,240,36846,2,0,L|360:304,7,41.2500015735627
264,288,37646,2,0,L|262:346,6,41.2500015735627
344,168,38446,6,0,P|408:152|464:168,1,121.000003692627
408,304,38846,2,0,L|280:312,1,121.000003692627
160,256,39246,1,0,0:0:0:0:
136,216,39346,1,0,0:0:0:0:
112,176,39446,1,0,0:0:0:0:
88,136,39546,1,0,0:0:0:0:
64,96,39646,1,0,0:0:0:0:
32,232,39846,1,0,0:0:0:0:
152,312,40046,6,0,P|176:232|168:184,1,121.000003692627
248,72,40446,2,0,P|240:152|264:216,1,121.000003692627
384,256,40846,1,0,0:0:0:0:
464,136,41046,1,0,0:0:0:0:
320,128,41246,1,0,0:0:0:0:
384,256,41446,1,0,0:0:0:0:
448,104,41646,6,0,B|416:80|416:80|288:80,1,121.000003692627
248,200,42046,1,0,0:0:0:0:
248,200,42146,1,0,0:0:0:0:
248,200,42246,1,0,0:0:0:0:
248,200,42346,1,0,0:0:0:0:
248,200,42446,2,0,P|304:216|368:200,1,121.000003692627
448,88,42846,6,0,L|432:232,1,121.000003692627
328,112,43246,2,0,L|232:224,1,121.000003692627
112,160,43646,2,0,P|112:256|160:296,1,121.000003692627
249,203,44046,1,0,0:0:0:0:
392,232,44246,1,0,0:0:0:0:
249,203,44446,1,0,0:0:0:0:
416,336,44646,1,0,0:0:0:0:
288,192,44846,6,0,P|320:128|408:136,1,121.000003692627
352,272,45246,2,0,P|264:288|200:232,1,121.000003692627
120,192,45646,1,0,0:0:0:0:
120,192,45746,1,0,0:0:0:0:
120,192,45846,1,0,0:0:0:0:
200,72,46046,5,0,0:0:0:0:
200,72,46146,1,0,0:0:0:0:
200,72,46246,1,0,0:0:0:0:
256,208,46446,2,0,P|320:232|384:200,1,121.000003692627
464,104,46846,2,0,L|432:280,1,121.000003692627
368,304,47246,1,0,0:0:0:0:
368,304,47346,1,0,0:0:0:0:
368,304,47446,1,0,0:0:0:0:
96,232,47646,5,0,0:0:0:0:
312,200,47846,1,0,0:0:0:0:
176,136,48046,2,0,P|160:64|184:16,1,121.000003692627
309,86,48446,2,0,P|328:142|311:199,1,121.000003692627
208,264,48846,1,0,0:0:0:0:
240,304,48946,1,0,0:0:0:0:
288,320,49046,1,0,0:0:0:0:
336,320,49146,1,0,0:0:0:0:
376,296,49246,1,0,0:0:0:0:
448,216,49446,5,0,0:0:0:0:
344,152,49646,1,0,0:0:0:0:
448,216,49846,1,0,0:0:0:0:
272,232,50046,1,0,0:0:0:0:
448,216,50246,1,0,0:0:0:0:
304,72,50446,5,0,0:0:0:0:
304,72,50546,1,0,0:0:0:0:
304,72,50646,2,0,L|192:56,1,60.5000018463135
200,88,50846,2,0,L|80:128,1,121.000003692627
176,160,51246,6,0,P|200:240|152:312,1,148.500000566483
352,336,51646,2,0,L|536:352,1,148.500000566483
496,168,52046,1,0,0:0:0:0:
496,168,52146,1,0,0:0:0:0:
496,168,52246,1,0,0:0:0:0:
440,64,52446,2,0,P|384:96|376:192,1,148.500000566483
504,320,52846,6,0,P|392:304|288:352,1,165.000006294251
176,368,53246,2,0,P|128:304|160:232,1,148.500000566483
264,112,53646,1,0,0:0:0:0:
440,112,53846,1,0,0:0:0:0:
264,112,54046,1,0,0:0:0:0:
424,264,54246,1,0,0:0:0:0:
224,80,54446,6,0,P|152:136|184:216,1,148.500000566483
384,176,54846,2,0,L|416:32,1,148.500000566483
456,248,55246,1,0,0:0:0:0:
400,272,55346,1,0,0:0:0:0:
344,296,55446,1,0,0:0:0:0:
168,280,55646,6,0,L|104:136,1,148.500000566483
192,0,56046,2,0,P|272:64|248:152,1,148.500000566483
192,264,56446,2,0,P|256:296|344:272,1,148.500000566483
384,112,56846,2,0,L|424:296,1,148.500000566483
272,152,57246,2,0,P|224:120|112:152,1,148.500000566483
72,296,57646,5,0,0:0:0:0:
72,296,57746,1,0,0:0:0:0:
72,296,57846,1,0,0:0:0:0:
208,184,58046,2,0,B|272:136|272:136|328:192,1,148.500000566483
360,360,58446,2,0,P|464:336|488:296,1,148.500000566483
424,136,58846,5,0,0:0:0:0:
392,88,58946,1,0,0:0:0:0:
360,40,59046,1,0,0:0:0:0:
224,160,59246,1,0,0:0:0:0:
224,160,59346,1,0,0:0:0:0:
224,160,59446,2,0,B|192:272|192:272|120:344,1,148.500000566483
80,144,59846,6,0,P|26:94|20:22,1,148.500000566483
184,160,60246,2,0,P|157:226|88:240,1,148.500000566483
192,320,60646,1,0,0:0:0:0:
392,240,60846,1,0,0:0:0:0:
424,192,60946,1,0,0:0:0:0:
456,144,61046,1,0,0:0:0:0:
352,0,61246,5,0,0:0:0:0:
232,48,61446,1,0,0:0:0:0:
400,32,61646,1,0,0:0:0:0:
128,248,61846,1,0,0:0:0:0:
296,192,62046,2,0,P|368:224|432:184,1,148.500000566483
280,88,62446,2,0,P|288:184|272:248,1,148.500000566483
424,336,62846,5,0,0:0:0:0:
248,304,63046,1,0,0:0:0:0:
368,168,63246,1,0,0:0:0:0:
368,160,63446,6,0,L|248:120,1,74.2500002832413
216,104,63646,1,0,0:0:0:0:
368,168,63846,1,0,0:0:0:0:
184,88,64046,2,0,L|-8:160,1,165.000006294251
200,200,64446,2,0,P|280:176|296:112,1,148.500000566483
440,16,64846,5,0,0:0:0:0:
456,72,64946,1,0,0:0:0:0:
472,128,65046,1,0,0:0:0:0:
488,184,65146,1,0,0:0:0:0:
496,240,65246,2,0,P|448:320|352:320,1,148.500000566483
232,264,65646,2,0,L|160:120,1,148.500000566483
64,272,66046,6,0,P|96:352|168:368,1,148.500000566483
208,200,66446,2,0,P|264:152|352:168,1,148.500000566483
288,224,66846,2,0,P|432:168|432:160,1,148.500000566483
416,136,67246,1,0,0:0:0:0:
288,88,67446,1,0,0:0:0:0:
288,88,67546,5,0,0:0:0:0:
216,192,67746,1,0,0:0:0:0:
216,192,67846,1,0,0:0:0:0:
312,184,68046,2,0,P|272:256|208:272,1,148.500000566483
212,272,68446,2,0,P|224:184|280:144,1,148.500000566483
376,96,68846,5,0,0:0:0:0:
376,96,68946,1,0,0:0:0:0:
432,168,69146,1,0,0:0:0:0:
432,168,69246,1,0,0:0:0:0:
432,232,69446,2,0,P|312:272|240:128,1,297.000001132965
184,56,70046,5,0,0:0:0:0:
160,104,70146,1,0,0:0:0:0:
144,160,70246,1,0,0:0:0:0:
152,216,70346,1,0,0:0:0:0:
168,264,70446,1,0,0:0:0:0:
256,264,70646,6,0,P|384:192|384:160,1,148.500000566483
296,192,71046,2,0,B|224:160|168:216|176:272,1,148.500000566483
176,240,71446,2,0,P|208:136|256:112,1,148.500000566483
280,96,71846,1,0,0:0:0:0:
280,96,71946,1,0,0:0:0:0:
304,232,72246,6,0,L|192:128,1,148.500000566483
195,130,72646,2,0,P|320:144|328:184,1,148.500000566483
336,208,73046,1,0,0:0:0:0:
336,208,73146,1,0,0:0:0:0:
336,208,73246,1,0,0:0:0:0:
240,112,73446,6,0,P|184:200|192:264,1,148.500000566483
104,192,73846,1,0,0:0:0:0:
104,192,73946,1,0,0:0:0:0:
272,232,74146,1,0,0:0:0:0:
272,232,74246,1,0,0:0:0:0:
272,232,74346,1,0,0:0:0:0:
272,232,74446,5,0,0:0:0:0:
120,64,74646,1,0,0:0:0:0:
160,112,74746,1,0,0:0:0:0:
200,160,74946,2,0,L|368:320,1,222.750000849724
416,288,75446,1,0,0:0:0:0:
168,72,75846,6,0,P|88:64|40:120,1,148.500000566483
120,136,76246,2,0,P|216:144|248:80,1,148.500000566483
176,80,76646,2,0,P|240:32|304:72,1,148.500000566483
232,280,77547,1,0,0:0:0:0:
