osu file format v14

[General]
AudioFilename: audio.mp3
AudioLeadIn: 0
PreviewTime: -1
Countdown: 1
SampleSet: None
StackLeniency: 0.7
Mode: 0
LetterboxInBreaks: 0
WidescreenStoryboard: 0

[Editor]
DistanceSpacing: 1
BeatDivisor: 4
GridSize: 16
TimelineZoom: 0.2

[Metadata]
Title:hello
TitleUnicode:hello
Artist:hard
ArtistUnicode:hard
Creator:Tygex
Version:Hard
Source:
Tags:
BeatmapID:2075050
BeatmapSetID:992224

[Difficulty]
HPDrainRate:5
CircleSize:5
OverallDifficulty:5
ApproachRate:5
SliderMultiplier:0.8
SliderTickRate:1

[Events]
//Background and Video events
//Break Periods
//Storyboard Layer 0 (Background)
//Storyboard Layer 1 (Fail)
//Storyboard Layer 2 (Pass)
//Storyboard Layer 3 (Foreground)
//Storyboard Sound Samples

[TimingPoints]
178152,461.538461538462,4,2,0,100,1,0
179075,472.44094488189,4,2,0,100,1,0
180019,230.769230769231,4,2,0,100,1,0
253865,232.558139534884,4,2,0,100,1,0
254330,234.375,4,2,0,100,1,0
254798,236.220472440945,4,2,0,100,1,0
255270,237.154150197628,4,2,0,100,1,0
255744,238.095238095238,4,2,0,100,1,0
256220,239.043824701195,4,2,0,100,1,0
256698,240.963855421687,4,2,0,100,1,0
257179,242.914979757085,4,2,0,100,1,0
257664,245.901639344262,4,2,0,100,1,0
258155,248.96265560166,4,2,0,100,1,0
258652,250,4,2,0,100,1,0
259152,252.100840336134,4,2,0,100,1,0
259656,255.31914893617,4,2,0,100,1,0
260166,257.510729613734,4,2,0,100,1,0
261196,259.74025974026,4,2,0,100,1,0
261715,262.008733624454,4,2,0,100,1,0
262239,263.157894736842,4,2,0,100,1,0
262765,264.31718061674,4,2,0,100,1,0
263293,266.666666666667,4,2,0,100,1,0
263826,270.27027027027,4,2,0,100,1,0
264366,273.972602739726,4,2,0,100,1,0
264913,276.497695852535,4,2,0,100,1,0
265465,280.373831775701,4,2,0,100,1,0
266585,284.36018957346,4,2,0,100,1,0
267153,285.714285714286,4,2,0,100,1,0
267724,287.081339712919,4,2,0,100,1,0
268872,291.26213592233,4,2,0,100,1,0
269454,294.117647058824,4,2,0,100,1,0
270042,298.507462686567,4,2,0,100,1,0

[HitObjects]
256,192,1277,12,0,6152,0:0:0:0:
231,143,7541,6,0,L|298:114,1,60
185,242,9152,1,0,0:0:0:0:
293,125,10152,1,0,0:0:0:0:
90,145,11152,1,0,0:0:0:0:
209,231,12152,1,0,0:0:0:0:
253,154,12652,1,0,0:0:0:0:
114,146,13152,1,0,0:0:0:0:
174,246,13652,1,0,0:0:0:0:
237,173,14152,1,0,0:0:0:0:
202,89,14652,1,0,0:0:0:0:
132,204,15152,1,0,0:0:0:0:
344,278,15652,1,0,0:0:0:0:
364,149,16152,1,0,0:0:0:0:
208,176,17152,2,8,L|377:171,3,160
42,157,20652,1,0,0:0:0:0:
128,176,21152,1,0,0:0:0:0:
208,144,21652,1,0,0:0:0:0:
204,132,22152,1,0,0:0:0:0:
256,192,22652,1,0,0:0:0:0:
336,192,23152,1,0,0:0:0:0:
320,160,23402,1,0,0:0:0:0:
288,128,23652,1,0,0:0:0:0:
208,144,24152,1,0,0:0:0:0:
149,215,24652,1,0,0:0:0:0:
224,240,25152,1,0,0:0:0:0:
304,256,25652,1,0,0:0:0:0:
257,82,26152,1,0,0:0:0:0:
149,110,26652,1,0,0:0:0:0:
147,178,27152,1,0,0:0:0:0:
165,219,27402,1,0,0:0:0:0:
185,234,27652,1,0,0:0:0:0:
282,217,28152,1,0,0:0:0:0:
306,138,28652,1,0,0:0:0:0:
229,77,29152,1,0,0:0:0:0:
111,109,29652,1,0,0:0:0:0:
104,196,30152,1,0,0:0:0:0:
244,244,30652,1,0,0:0:0:0:
319,155,31152,1,0,0:0:0:0:
318,150,31402,1,0,0:0:0:0:
317,147,31652,1,0,0:0:0:0:
207,78,32152,1,0,0:0:0:0:
117,139,32652,1,0,0:0:0:0:
207,232,33152,1,0,0:0:0:0:
309,195,33652,1,0,0:0:0:0:
284,92,34152,1,0,0:0:0:0:
114,125,34652,1,0,0:0:0:0:
232,201,35152,1,0,0:0:0:0:
235,205,35402,1,0,0:0:0:0:
236,206,35652,1,0,0:0:0:0:
323,190,36152,1,0,0:0:0:0:
304,77,36652,1,0,0:0:0:0:
143,136,37152,1,0,0:0:0:0:
313,173,37652,1,0,0:0:0:0:
278,59,38152,1,0,0:0:0:0:
201,232,38652,1,0,0:0:0:0:
338,179,39152,1,0,0:0:0:0:
338,179,39402,1,0,0:0:0:0:
338,179,39652,1,0,0:0:0:0:
156,152,40152,1,0,0:0:0:0:
251,61,40652,1,0,0:0:0:0:
206,271,41152,1,0,0:0:0:0:
364,195,41652,1,0,0:0:0:0:
170,152,42152,1,0,0:0:0:0:
272,83,42777,1,0,0:0:0:0:
237,248,43152,1,0,0:0:0:0:
315,221,43402,1,0,0:0:0:0:
338,222,43652,1,0,0:0:0:0:
279,120,44152,1,0,0:0:0:0:
142,180,44652,1,0,0:0:0:0:
306,226,45152,1,0,0:0:0:0:
277,77,45652,1,0,0:0:0:0:
196,222,46152,1,0,0:0:0:0:
148,129,46652,1,0,0:0:0:0:
315,161,47027,1,0,0:0:0:0:
320,168,47277,1,0,0:0:0:0:
163,211,51152,1,0,0:0:0:0:
181,73,51652,1,0,0:0:0:0:
357,219,52152,1,0,0:0:0:0:
61,144,52652,1,0,0:0:0:0:
177,58,56152,1,0,0:0:0:0:
90,210,56652,1,0,0:0:0:0:
371,131,57152,1,0,0:0:0:0:
318,60,57402,1,0,0:0:0:0:
255,262,57652,1,0,0:0:0:0:
170,147,58152,1,0,0:0:0:0:
273,164,58652,1,0,0:0:0:0:
22,136,59152,2,8,B|280:146|278:146,2,240
298,134,63152,1,0,0:0:0:0:
298,134,63402,1,0,0:0:0:0:
298,134,63652,1,0,0:0:0:0:
193,108,64027,1,0,0:0:0:0:
134,180,65277,2,0,L|325:166,2,180
137,130,67652,2,0,P|129:181|135:210,4,80
139,122,71652,5,0,0:0:0:0:
220,215,72152,1,0,0:0:0:0:
261,117,72652,1,0,0:0:0:0:
81,173,74152,1,0,0:0:0:0:
235,215,74652,1,0,0:0:0:0:
235,132,75152,1,0,0:0:0:0:
172,162,75652,1,0,0:0:0:0:
270,177,76152,1,0,0:0:0:0:
228,118,76652,1,0,0:0:0:0:
208,207,77152,1,0,0:0:0:0:
149,157,77527,1,0,0:0:0:0:
256,176,78152,1,0,0:0:0:0:
236,120,78402,1,0,0:0:0:0:
157,121,78652,1,0,0:0:0:0:
153,159,78902,1,0,0:0:0:0:
176,189,79152,1,0,0:0:0:0:
212,196,79402,1,0,0:0:0:0:
242,197,79652,1,0,0:0:0:0:
259,195,79777,1,0,0:0:0:0:
282,189,80027,1,0,0:0:0:0:
293,184,80277,1,0,0:0:0:0:
302,173,80402,1,0,0:0:0:0:
306,157,80652,1,0,0:0:0:0:
304,140,80902,1,0,0:0:0:0:
290,119,81152,1,0,0:0:0:0:
279,106,81402,1,0,0:0:0:0:
250,92,81652,1,0,0:0:0:0:
228,87,81902,1,0,0:0:0:0:
192,84,82152,1,0,0:0:0:0:
174,87,82402,1,0,0:0:0:0:
147,100,82652,1,0,0:0:0:0:
139,114,82902,1,0,0:0:0:0:
133,130,83152,1,0,0:0:0:0:
133,152,83402,1,0,0:0:0:0:
133,170,83652,1,0,0:0:0:0:
141,189,83902,1,0,0:0:0:0:
152,207,84152,1,0,0:0:0:0:
171,220,84277,1,0,0:0:0:0:
206,232,84652,1,0,0:0:0:0:
224,237,84777,1,0,0:0:0:0:
241,237,85027,1,0,0:0:0:0:
259,237,85152,1,0,0:0:0:0:
274,230,85402,1,0,0:0:0:0:
289,222,85652,1,0,0:0:0:0:
299,204,85902,1,0,0:0:0:0:
304,186,86152,1,0,0:0:0:0:
305,161,86402,1,0,0:0:0:0:
295,136,86652,1,0,0:0:0:0:
284,118,86902,1,0,0:0:0:0:
254,104,87152,1,0,0:0:0:0:
232,97,87402,1,0,0:0:0:0:
198,96,87652,1,0,0:0:0:0:
168,102,87902,1,0,0:0:0:0:
156,109,88152,1,0,0:0:0:0:
143,129,88277,1,0,0:0:0:0:
134,157,88652,1,0,0:0:0:0:
140,180,88902,1,0,0:0:0:0:
154,201,89152,1,0,0:0:0:0:
186,211,89402,1,0,0:0:0:0:
212,215,89652,1,0,0:0:0:0:
261,112,90152,1,0,0:0:0:0:
302,231,90652,1,0,0:0:0:0:
149,199,91152,1,0,0:0:0:0:
239,102,91652,1,0,0:0:0:0:
212,248,91902,1,0,0:0:0:0:
348,193,92152,1,0,0:0:0:0:
172,173,92652,1,0,0:0:0:0:
247,103,93152,1,0,0:0:0:0:
224,237,93652,1,0,0:0:0:0:
370,205,94152,1,0,0:0:0:0:
166,163,94652,1,0,0:0:0:0:
258,87,95152,1,0,0:0:0:0:
172,148,96152,1,0,0:0:0:0:
235,61,96652,1,0,0:0:0:0:
158,193,97152,1,0,0:0:0:0:
346,183,97652,1,0,0:0:0:0:
194,102,97902,1,0,0:0:0:0:
301,60,98152,1,0,0:0:0:0:
239,218,98652,1,0,0:0:0:0:
185,176,99152,1,0,0:0:0:0:
306,157,99402,1,0,0:0:0:0:
160,70,99652,1,0,0:0:0:0:
219,184,101152,1,0,0:0:0:0:
294,157,101652,1,0,0:0:0:0:
80,78,102152,1,0,0:0:0:0:
192,218,102652,1,0,0:0:0:0:
282,98,103152,1,0,0:0:0:0:
264,118,104277,1,0,0:0:0:0:
42,60,104652,1,0,0:0:0:0:
128,180,105152,1,0,0:0:0:0:
239,116,105652,1,0,0:0:0:0:
79,146,107402,2,0,L|288:142,2,200
208,77,112152,1,0,0:0:0:0:
218,201,112652,1,0,0:0:0:0:
352,105,113152,1,0,0:0:0:0:
125,127,113652,1,0,0:0:0:0:
228,239,114152,1,0,0:0:0:0:
252,96,114402,1,0,0:0:0:0:
135,187,114652,1,0,0:0:0:0:
304,176,115027,1,0,0:0:0:0:
215,142,115277,1,0,0:0:0:0:
188,86,115527,1,0,0:0:0:0:
201,208,116152,1,0,0:0:0:0:
261,189,116402,1,0,0:0:0:0:
306,155,116652,1,0,0:0:0:0:
314,122,117027,1,0,0:0:0:0:
311,93,117277,1,0,0:0:0:0:
265,59,117527,1,0,0:0:0:0:
198,52,118027,1,0,0:0:0:0:
130,61,118402,1,0,0:0:0:0:
85,85,118652,1,0,0:0:0:0:
51,168,119027,1,0,0:0:0:0:
63,232,119277,1,0,0:0:0:0:
140,292,119527,1,0,0:0:0:0:
264,266,120152,1,0,0:0:0:0:
316,165,120652,1,0,0:0:0:0:
256,101,121027,1,0,0:0:0:0:
142,59,121652,1,0,0:0:0:0:
56,141,122152,1,0,0:0:0:0:
93,255,122652,1,0,0:0:0:0:
209,301,123152,1,0,0:0:0:0:
306,230,123652,1,0,0:0:0:0:
324,130,124152,1,0,0:0:0:0:
211,50,124652,1,0,0:0:0:0:
89,122,125152,1,0,0:0:0:0:
176,231,125652,1,0,0:0:0:0:
229,142,126152,1,0,0:0:0:0:
114,174,126652,1,0,0:0:0:0:
246,248,127152,1,0,0:0:0:0:
250,154,127652,1,0,0:0:0:0:
157,259,128152,1,0,0:0:0:0:
281,229,128652,1,0,0:0:0:0:
179,188,129152,1,0,0:0:0:0:
275,215,129652,1,0,0:0:0:0:
261,153,130152,1,0,0:0:0:0:
207,242,130652,1,0,0:0:0:0:
285,214,131152,1,0,0:0:0:0:
176,178,131652,1,0,0:0:0:0:
276,216,132152,1,0,0:0:0:0:
166,177,132652,1,0,0:0:0:0:
253,114,133152,1,0,0:0:0:0:
190,245,133652,1,0,0:0:0:0:
243,130,134152,1,0,0:0:0:0:
290,247,134652,1,0,0:0:0:0:
168,180,135152,1,0,0:0:0:0:
168,180,135402,1,0,0:0:0:0:
171,258,135652,1,0,0:0:0:0:
301,234,136152,1,0,0:0:0:0:
269,146,136652,1,0,0:0:0:0:
247,254,137152,1,0,0:0:0:0:
339,251,137652,1,0,0:0:0:0:
186,199,138152,1,0,0:0:0:0:
186,199,138402,1,0,0:0:0:0:
256,143,138652,1,0,0:0:0:0:
226,251,139152,1,0,0:0:0:0:
313,238,139652,1,0,0:0:0:0:
241,114,140152,1,0,0:0:0:0:
373,188,140652,1,0,0:0:0:0:
360,76,141152,1,0,0:0:0:0:
218,191,141527,1,0,0:0:0:0:
146,138,142152,1,0,0:0:0:0:
160,148,143277,2,0,L|300:122,3,140
315,142,146152,1,0,0:0:0:0:
207,240,146652,1,0,0:0:0:0:
439,260,147152,1,0,0:0:0:0:
199,94,147652,1,0,0:0:0:0:
374,70,148152,1,0,0:0:0:0:
253,226,148652,1,0,0:0:0:0:
392,191,149152,1,0,0:0:0:0:
235,134,149652,1,0,0:0:0:0:
156,236,150152,1,0,0:0:0:0:
250,270,150652,1,0,0:0:0:0:
161,148,151527,2,0,L|341:146,1,180
256,192,154402,12,0,156152,0:0:0:0:
218,76,157152,5,0,0:0:0:0:
254,226,157652,1,0,0:0:0:0:
505,96,158152,1,0,0:0:0:0:
183,161,158652,1,0,0:0:0:0:
159,285,159277,1,0,0:0:0:0:
256,192,160152,12,0,162777,0:0:0:0:
177,147,163902,6,0,L|374:152,2,180
185,93,166152,1,0,0:0:0:0:
159,221,166652,1,0,0:0:0:0:
319,174,167152,1,0,0:0:0:0:
288,108,167652,1,0,0:0:0:0:
224,186,168152,1,0,0:0:0:0:
336,210,168652,1,0,0:0:0:0:
342,145,169152,1,0,0:0:0:0:
320,112,169402,1,0,0:0:0:0:
295,93,169652,1,0,0:0:0:0:
208,162,170152,1,0,0:0:0:0:
297,244,170652,1,0,0:0:0:0:
403,152,171152,1,0,0:0:0:0:
403,152,171402,1,0,0:0:0:0:
403,152,171652,1,0,0:0:0:0:
312,102,172152,1,0,0:0:0:0:
264,195,172652,1,0,0:0:0:0:
416,199,173152,1,0,0:0:0:0:
416,199,173402,1,0,0:0:0:0:
416,199,173652,1,0,0:0:0:0:
378,104,174152,1,0,0:0:0:0:
252,167,174652,1,0,0:0:0:0:
394,213,175152,1,0,0:0:0:0:
394,213,175402,1,0,0:0:0:0:
394,213,175652,1,0,0:0:0:0:
305,137,175902,1,0,0:0:0:0:
251,240,176152,1,0,0:0:0:0:
193,144,177152,2,0,L|377:141,2,175
256,192,179429,12,0,180422,0:0:0:0:
240,80,180942,5,0,0:0:0:0:
240,240,181403,1,0,0:0:0:0:
368,208,181807,1,0,0:0:0:0:
368,32,182326,1,0,0:0:0:0:
272,160,182788,1,0,0:0:0:0:
160,96,184172,1,0,0:0:0:0:
256,224,184634,1,0,0:0:0:0:
304,64,185095,1,0,0:0:0:0:
176,160,185557,1,0,0:0:0:0:
336,176,186019,1,0,0:0:0:0:
368,16,186480,1,0,0:0:0:0:
416,176,186942,1,0,0:0:0:0:
288,256,187403,1,0,0:0:0:0:
128,272,187865,1,0,0:0:0:0:
61,177,188269,1,0,0:0:0:0:
137,24,188788,1,0,0:0:0:0:
426,168,189192,1,0,0:0:0:0:
205,194,189711,1,0,0:0:0:0:
258,61,190115,1,0,0:0:0:0:
330,281,190634,1,0,0:0:0:0:
114,249,191038,1,0,0:0:0:0:
362,152,191557,1,0,0:0:0:0:
88,97,192019,1,0,0:0:0:0:
243,302,192422,1,0,0:0:0:0:
298,96,192884,1,0,0:0:0:0:
161,249,193345,1,0,0:0:0:0:
197,136,193980,1,0,0:0:0:0:
426,98,194788,1,0,0:0:0:0:
250,324,195249,1,0,0:0:0:0:
281,107,195711,1,0,0:0:0:0:
98,210,196115,1,0,0:0:0:0:
403,246,196576,1,0,0:0:0:0:
350,85,197038,1,0,0:0:0:0:
267,182,197557,1,0,0:0:0:0:
439,192,197961,1,0,0:0:0:0:
414,76,198422,1,0,0:0:0:0:
330,211,198884,1,0,0:0:0:0:
274,104,199345,1,0,0:0:0:0:
453,223,199807,1,0,0:0:0:0:
435,74,200269,1,0,0:0:0:0:
297,210,200788,1,0,0:0:0:0:
308,107,201249,1,0,0:0:0:0:
446,234,201711,1,0,0:0:0:0:
437,86,202115,1,0,0:0:0:0:
324,217,203038,1,0,0:0:0:0:
320,203,204884,1,0,0:0:0:0:
229,141,205865,1,0,0:0:0:0:
275,80,206326,1,0,0:0:0:0:
382,139,206788,1,0,0:0:0:0:
355,211,207192,1,0,0:0:0:0:
252,182,207711,1,0,0:0:0:0:
302,67,208172,1,0,0:0:0:0:
435,189,208576,1,0,0:0:0:0:
220,124,209038,1,0,0:0:0:0:
432,77,209557,1,0,0:0:0:0:
362,172,210019,1,0,0:0:0:0:
279,102,210422,1,0,0:0:0:0:
15,168,212038,2,0,L|221:163,2,175
123,226,213711,1,0,0:0:0:0:
154,82,214172,1,0,0:0:0:0:
51,152,214634,1,0,0:0:0:0:
191,168,215095,1,0,0:0:0:0:
91,73,215557,1,0,0:0:0:0:
112,220,215961,1,0,0:0:0:0:
235,231,216480,1,0,0:0:0:0:
17,161,216884,1,0,0:0:0:0:
187,67,217865,1,0,0:0:0:0:
297,144,218788,1,0,0:0:0:0:
84,159,220172,2,0,L|296:157,2,210
247,194,221557,1,0,0:0:0:0:
136,66,221961,1,0,0:0:0:0:
120,210,222422,1,0,0:0:0:0:
423,198,222942,1,0,0:0:0:0:
370,99,223345,1,0,0:0:0:0:
213,112,223865,1,0,0:0:0:0:
213,112,224095,1,0,0:0:0:0:
213,112,224326,1,0,0:0:0:0:
172,183,224788,1,0,0:0:0:0:
314,219,225249,1,0,0:0:0:0:
357,102,225942,1,0,0:0:0:0:
358,108,226230,1,0,0:0:0:0:
358,108,226345,1,0,0:0:0:0:
192,109,227095,1,0,0:0:0:0:
183,225,227557,1,0,0:0:0:0:
370,227,228192,1,0,0:0:0:0:
374,232,228769,1,0,0:0:0:0:
352,121,229057,1,0,0:0:0:0:
211,96,229403,1,0,0:0:0:0:
203,205,229865,1,0,0:0:0:0:
203,205,230038,1,0,0:0:0:0:
203,205,230153,1,0,0:0:0:0:
203,205,230326,1,0,0:0:0:0:
203,205,230442,1,0,0:0:0:0:
319,239,230730,1,0,0:0:0:0:
427,148,231192,1,0,0:0:0:0:
330,108,231711,1,0,0:0:0:0:
330,108,231884,1,0,0:0:0:0:
330,108,231999,1,0,0:0:0:0:
330,108,232172,1,0,0:0:0:0:
330,108,232288,1,0,0:0:0:0:
212,120,232634,1,0,0:0:0:0:
213,232,233153,1,0,0:0:0:0:
377,253,233557,1,0,0:0:0:0:
377,253,233672,1,0,0:0:0:0:
377,253,233845,1,0,0:0:0:0:
377,253,234019,1,0,0:0:0:0:
345,142,234422,1,0,0:0:0:0:
144,194,234884,1,0,0:0:0:0:
199,24,235403,1,0,0:0:0:0:
276,254,235865,1,0,0:0:0:0:
350,113,236269,1,0,0:0:0:0:
156,142,236730,1,0,0:0:0:0:
257,140,237249,1,0,0:0:0:0:
257,140,237365,1,0,0:0:0:0:
257,140,237538,1,0,0:0:0:0:
257,140,237653,1,0,0:0:0:0:
257,140,237826,1,0,0:0:0:0:
257,140,237999,1,0,0:0:0:0:
355,173,238576,1,0,0:0:0:0:
345,104,239095,1,0,0:0:0:0:
186,191,239557,1,0,0:0:0:0:
312,233,240019,1,0,0:0:0:0:
290,145,240480,1,0,0:0:0:0:
387,162,240942,1,0,0:0:0:0:
376,95,241403,1,0,0:0:0:0:
243,95,241865,1,0,0:0:0:0:
250,215,242269,1,0,0:0:0:0:
168,167,243249,2,0,L|382:152,2,210
261,129,245153,1,0,0:0:0:0:
204,80,247403,2,0,L|179:184,3,105
393,281,250115,2,0,L|330:122,3,140
355,265,252019,2,0,L|261:106,2,175
123,147,253345,1,0,0:0:0:0:
307,83,253865,1,0,0:0:0:0:
319,252,254330,1,0,0:0:0:0:
129,219,254798,1,0,0:0:0:0:
350,167,255211,1,0,0:0:0:0:
215,92,255685,1,0,0:0:0:0:
251,255,256220,1,0,0:0:0:0:
276,117,256698,1,0,0:0:0:0:
192,180,257725,2,0,L|315:187,3,105
394,206,260423,2,0,L|337:114,5,105
327,178,262699,2,0,B|269:122|192:264|160:241|186:175|229:92|230:90,6,245
178,133,268728,5,0,0:0:0:0:
179,242,269381,1,0,0:0:0:0:
281,215,270042,1,0,0:0:0:0:
30,153,270713,1,0,0:0:0:0:
