osu file format v14

[General]
AudioFilename: happy30 - You spin my world.mp3
AudioLeadIn: 0
PreviewTime: 19981
Countdown: 0
SampleSet: Soft
StackLeniency: 0.7
Mode: 0
LetterboxInBreaks: 0
WidescreenStoryboard: 0

[Editor]
Bookmarks: 466,20057,39649,49445,59241,78833,98425,108221,127812,137608,160009
DistanceSpacing: 1.1
BeatDivisor: 4
GridSize: 4
TimelineZoom: 2.799999

[Metadata]
Title:You spin my world
TitleUnicode:You spin my world
Artist:happy30
ArtistUnicode:happy30
Creator:Kyouren
Version:Kyouren x Renumi's Easy
Source:
Tags:happythirsty happythirty Jordi van der Hulst As the wind blows EP extended play gokugohan12468 kittyadventure airincat -_ascended_- -ascended- ascended addy2607 kaedeharakazuha kaedehara kazuha renumi instrumental piano mappers' guild mpg fa featured artist electronic classical
BeatmapID:3855506
BeatmapSetID:1873680

[Difficulty]
HPDrainRate:2
CircleSize:2.5
OverallDifficulty:2
ApproachRate:3
SliderMultiplier:0.86
SliderTickRate:1

[Events]
//Background and Video events
0,0,"20220617_090448.jpg",0,0
//Break Periods
//Storyboard Layer 0 (Background)
//Storyboard Layer 1 (Fail)
//Storyboard Layer 2 (Pass)
//Storyboard Layer 3 (Foreground)
//Storyboard Layer 4 (Overlay)
//Storyboard Sound Samples

[TimingPoints]
466,306.122448979592,4,2,0,50,1,0
466,-100,4,2,0,50,0,0
1537,-100,4,2,0,50,0,0
1996,-100,4,2,0,50,0,0
3986,-100,4,2,0,50,0,0
4445,-100,4,2,0,50,0,0
6435,-100,4,2,0,50,0,0
6894,-100,4,2,0,50,0,0
10261,-100,4,2,0,35,0,0
20057,-100,4,2,0,65,0,0
20210,-100,4,2,0,50,0,0
21052,-100,4,2,0,5,0,0
21129,-100,4,2,0,50,0,0
21205,-100,4,2,0,5,0,0
21282,-100,4,2,0,50,0,0
22200,-100,4,2,0,50,0,0
22506,-100,4,2,0,50,0,0
27098,-100,4,2,0,50,0,0
27404,-100,4,2,0,50,0,0
31996,-100,4,2,0,50,0,0
32302,-100,4,2,0,50,0,0
39649,-100,4,2,0,75,0,1
59241,-100,4,2,0,45,0,0
76384,-100,4,2,0,65,0,0
77608,-100,4,2,0,80,0,1
78833,-100,4,2,0,70,0,0
83731,-100,4,2,0,55,0,0
87404,-100,4,2,0,80,0,1
88629,-100,4,2,0,70,0,0
97200,-100,4,2,0,80,0,1
98425,-100,4,2,0,70,0,0
103323,-100,4,2,0,60,0,0
106996,-100,4,2,0,90,0,1
108144,-100,4,2,0,90,0,0
108221,-100,4,2,0,80,0,1
117940,-100,4,2,0,80,0,0
118017,-100,4,2,0,80,0,1
127736,-100,4,2,0,70,0,0
127812,-100,4,2,0,70,0,1
127889,-100,4,2,0,70,0,0
132404,-100,4,2,0,70,0,0
132710,-100,4,2,0,70,0,1
132787,-100,4,2,0,70,0,0
136384,-100,4,2,0,90,0,1
137532,-100,4,2,0,90,0,0
137608,-100,4,2,0,80,0,1
137685,-100,4,2,0,80,0,0
142200,-100,4,2,0,80,0,0
142506,-100,4,2,0,80,0,1
146103,-100,4,2,0,80,0,0
146180,-100,4,2,0,90,0,1
147328,-100,4,2,0,90,0,0
147404,-100,4,2,0,80,0,1
147481,-100,4,2,0,80,0,0
147710,-100,4,2,0,70,0,0
155976,-100,4,2,0,90,0,1
157047,-100,4,2,0,70,0,0
157124,-100,4,2,0,15,0,0
160009,306.122448979592,4,2,0,15,1,0

[Colours]
Combo1 : 117,227,197
Combo2 : 173,255,95
Combo3 : 17,254,176
Combo4 : 113,173,223

[HitObjects]
30,200,466,6,0,P|113:178|197:162,1,172,2|2,0:0|0:0,0:0:0:0:
314,243,1537,2,0,P|376:259|439:270,1,129,2|2,0:0|0:0,0:0:0:0:
500,198,2302,1,2,0:0:0:0:
506,103,2608,1,2,0:0:0:0:
441,34,2914,6,0,P|355:36|274:65,1,172,2|2,0:0|0:0,0:0:0:0:
175,167,3986,2,0,L|165:295,1,129,2|2,0:0|0:0,0:0:0:0:
82,341,4751,1,2,0:0:0:0:
22,267,5057,1,2,0:0:0:0:
54,178,5363,6,0,P|33:96|73:22,1,172,2|2,0:0|0:0,0:0:0:0:
211,55,6435,2,0,L|339:45,1,129,2|2,0:0|0:0,0:0:0:0:
363,137,7200,1,2,0:0:0:0:
309,214,7506,1,2,0:0:0:0:
344,301,7812,6,0,P|425:323|502:289,1,172,2|2,0:0|0:0,0:0:0:0:
497,100,9037,2,0,P|499:57|476:22,1,86,6|2,1:0|0:0,0:0:0:0:
382,33,9649,2,0,L|296:23,1,86,2|2,0:0|0:0,0:0:0:0:
208,59,10261,5,4,1:0:0:0:
118,26,10568,2,0,P|27:73|30:175,1,215,2|2,0:0|0:0,0:0:0:0:
111,292,11792,2,0,L|196:282,1,86,2|2,0:0|0:0,0:0:0:0:
269,342,12404,1,2,0:0:0:0:
351,296,12710,6,0,P|392:305|432:293,1,86,2|2,0:0|0:0,0:0:0:0:
491,218,13323,2,0,L|496:175,1,43,2|2,0:0|0:0,0:0:0:0:
440,98,13782,2,0,B|355:88|368:49|279:42,1,172,2|2,0:0|0:0,0:0:0:0:
97,193,15159,6,0,L|108:278,1,86,2|2,0:0|0:0,0:0:0:0:
191,324,15772,1,2,0:0:0:0:
251,251,16078,2,0,L|245:208,1,43,2|2,0:0|0:0,0:0:0:0:
199,125,16537,2,0,L|193:82,1,43,2|2,0:0|0:0,0:0:0:0:
120,21,16996,2,0,L|34:32,1,86,2|2,0:0|0:0,0:0:0:0:
3,121,17608,6,0,L|14:206,1,86,2|2,0:0|0:0,0:0:0:0:
90,263,18221,2,0,L|101:348,1,86,2|2,0:0|0:0,0:0:0:0:
194,365,18833,1,6,1:0:0:0:
270,309,19139,2,0,B|356:290|329:244|417:226,1,172,2|2,0:0|0:0,0:0:0:0:
492,169,20057,6,0,P|468:136|424:98,1,86,4|2,1:0|0:0,0:0:0:0:
349,64,20670,2,0,L|202:85,1,129,10|4,0:0|3:0,0:0:0:0:
83,114,21588,1,4,3:0:0:0:
25,189,21894,2,0,P|7:237|-4:284,1,86,10|2,0:0|0:0,0:0:0:0:
54,346,22506,6,0,L|148:332,1,86,0|2,1:0|0:0,0:0:0:0:
210,271,23119,2,0,P|249:278|304:292,1,86,10|2,0:0|0:0,0:0:0:0:
381,252,23731,2,0,L|466:230,2,86,2|4|10,0:0|3:0|0:0,0:0:0:0:
313,185,24649,1,2,0:0:0:0:
231,136,24955,6,0,L|47:121,1,172,4|10,1:0|0:0,0:0:0:0:
29,260,26027,2,0,P|77:295|141:265,1,129,4|4,3:0|3:0,0:0:0:0:
221,230,26792,2,0,P|265:239|322:258,1,86,10|2,0:0|0:0,0:0:0:0:
382,303,27404,6,0,L|472:278,1,86,0|2,1:0|0:0,0:0:0:0:
504,193,28017,2,0,P|475:161|438:128,1,86,10|2,0:0|0:0,0:0:0:0:
396,50,28629,2,0,P|337:99|243:73,1,172,2|10,0:0|0:0,0:0:0:0:
175,20,29547,1,2,0:0:0:0:
98,75,29853,6,0,B|75:116|75:116|55:250,1,172,4|10,1:0|0:0,0:0:0:0:
129,361,30925,2,0,B|190:333|190:333|266:343,1,129,4|4,3:0|3:0,0:0:0:0:
341,369,31690,1,10,0:0:0:0:
469,230,32302,2,0,L|445:144,1,86,0|2,1:0|0:0,0:0:0:0:
368,92,32914,2,0,P|315:103|270:118,1,86,10|2,0:0|0:0,0:0:0:0:
209,169,33527,2,0,P|167:165|116:152,1,86,2|4,0:0|3:0,0:0:0:0:
38,116,34139,1,10,0:0:0:0:
5,302,34751,6,0,B|56:286|56:286|179:278,1,172,4|10,1:0|0:0,0:0:0:0:
302,216,35823,2,0,P|332:267|310:332,1,129,4|4,3:0|3:0,0:0:0:0:
222,362,36588,1,10,0:0:0:0:
129,342,36894,1,2,0:0:0:0:
87,256,37200,2,0,L|100:83,1,172,0|10,1:0|0:0,0:0:0:0:
176,28,38119,1,2,0:0:0:0:
269,44,38425,2,0,P|310:98|325:125,1,86,2|4,0:0|3:0,0:0:0:0:
326,207,39037,2,0,P|367:219|409:225,1,86,10|2,0:0|0:0,0:0:0:0:
488,172,39649,6,0,P|496:129|505:87,1,86,6|2,1:0|0:0,0:0:0:0:
464,2,40261,1,10,0:0:0:0:
370,18,40568,1,2,0:0:0:0:
280,48,40874,2,0,P|237:43|194:38,1,86,2|4,0:0|3:0,0:0:0:0:
114,88,41486,2,0,P|109:130|104:173,1,86,10|2,0:0|0:0,0:0:0:0:
40,243,42098,6,0,P|77:315|160:320,1,172,2|10,1:0|0:0,0:0:0:0:
234,261,43017,1,2,0:0:0:0:
305,323,43323,2,0,P|388:301|473:291,1,172,2|10,0:0|0:0,0:0:0:0:
492,198,44241,1,2,0:0:0:0:
417,140,44547,6,0,P|414:97|424:55,1,86,0|2,1:0|0:0,0:0:0:0:
335,25,45159,1,10,0:0:0:0:
245,56,45466,1,2,0:0:0:0:
151,42,45772,2,0,L|65:35,1,86,2|4,0:0|3:0,0:0:0:0:
3,106,46384,1,10,0:0:0:0:
52,186,46690,1,2,0:0:0:0:
4,267,46996,6,0,P|47:336|129:336,1,172,0|10,1:0|0:0,0:0:0:0:
193,267,47914,1,2,0:0:0:0:
263,330,48221,2,0,P|305:326|348:320,1,86,2|4,0:0|3:0,0:0:0:0:
401,241,48833,2,0,P|397:198|391:155,1,86,10|2,0:0|0:0,0:0:0:0:
370,63,49445,6,0,P|332:42|291:27,1,86,4|2,1:0|0:0,0:0:0:0:
197,35,50057,2,0,P|175:76|160:119,1,86,10|2,0:0|0:0,0:0:0:0:
84,168,50670,2,0,L|-9:153,2,86,2|4|10,0:0|3:0|0:0,0:0:0:0:
147,238,51588,1,2,0:0:0:0:
108,324,51894,6,0,P|178:275|271:300,1,172,0|10,1:0|0:0,0:0:0:0:
316,364,52812,1,2,0:0:0:0:
395,311,53119,2,0,L|412:211,1,86,2|4,0:0|3:0,0:0:0:0:
478,161,53731,2,0,L|463:76,1,86,10|2,0:0|0:0,0:0:0:0:
378,34,54343,6,0,P|339:42|292:61,1,86,0|2,1:0|0:0,0:0:0:0:
244,145,54955,2,0,P|205:137|158:118,1,86,10|2,0:0|0:0,0:0:0:0:
74,84,55568,2,0,B|65:-9,2,86,2|4|10,0:0|3:0|0:0,0:0:0:0:
19,161,56486,1,2,0:0:0:0:
64,243,56792,6,0,B|173:220|129:268|252:240,1,172,0|10,1:0|0:0,0:0:0:0:
317,200,57710,1,2,0:0:0:0:
408,223,58017,2,0,L|431:309,1,86,2|4,0:0|3:0,0:0:0:0:
358,367,58629,2,0,P|323:364|266:345,1,86,10|2,0:0|0:0,0:0:0:0:
216,274,59241,6,0,L|45:293,1,172,4|10,1:0|0:0,0:0:0:0:
8,156,60312,2,0,P|54:112|117:108,1,129,0|0,1:0|1:0,0:0:0:0:
209,86,61078,2,0,P|243:110|286:114,1,86,10|2,0:0|0:0,0:0:0:0:
338,35,61690,2,0,L|509:46,1,172,0|10,1:0|0:0,0:0:0:0:
479,185,62761,2,0,L|488:313,1,129,0|0,1:0|1:0,0:0:0:0:
401,351,63527,1,10,0:0:0:0:
219,296,64139,6,0,P|140:329|55:323,1,172,0|10,1:0|0:0,0:0:0:0:
47,181,65210,2,0,P|16:125|25:62,1,129,0|0,1:0|1:0,0:0:0:0:
114,27,65976,1,10,0:0:0:0:
298,67,66588,2,0,L|469:49,1,172,0|10,1:0|0:0,0:0:0:0:
469,191,67659,2,0,L|483:319,1,129,0|0,1:0|1:0,0:0:0:0:
398,361,68425,2,0,P|360:341|334:307,1,86,10|2,0:0|0:0,0:0:0:0:
244,279,69037,6,0,L|267:108,1,172,0|10,1:0|0:0,0:0:0:0:
138,49,70108,2,0,P|75:55|40:107,1,129,0|0,1:0|1:0,0:0:0:0:
4,195,70874,2,0,L|17:279,1,86,10|2,0:0|0:0,0:0:0:0:
87,343,71486,2,0,B|173:332|160:295|246:285,1,172,0|10,1:0|0:0,0:0:0:0:
374,346,72557,2,0,P|434:358|481:316,1,129,0|0,1:0|1:0,0:0:0:0:
455,225,73323,1,10,0:0:0:0:
486,38,73935,6,0,B|439:54|439:54|317:42,1,172,0|10,1:0|0:0,0:0:0:0:
185,96,75006,2,0,L|193:224,1,129,0|0,1:0|1:0,0:0:0:0:
139,302,75772,1,10,0:0:0:0:
47,278,76078,1,10,0:0:0:0:
19,187,76384,6,0,L|14:102,1,86,4|10,1:0|0:0,0:0:0:0:
58,17,76996,2,0,L|143:12,1,86,2|10,0:0|0:0,0:0:0:0:
185,96,77608,2,0,L|270:91,1,86,4|0,1:0|1:0,0:0:0:0:
354,46,78221,1,6,3:0:0:0:
431,99,78527,1,10,0:0:0:0:
383,180,78833,6,0,B|370:207|370:207|356:273,1,86,4|10,1:0|0:0,0:0:0:0:
330,352,79445,2,0,B|290:340|290:340|190:329,1,129,2|2,0:0|0:0,0:0:0:0:
112,233,80363,1,10,0:0:0:0:
38,173,80670,2,0,P|51:124|70:87,1,86,2|10,0:0|0:0,0:0:0:0:
134,26,81282,6,0,P|191:41|226:63,1,86,4|10,3:0|0:0,0:0:0:0:
240,144,81894,2,0,P|309:145|378:112,1,129,2|2,3:0|0:0,0:0:0:0:
499,83,82812,2,0,B|495:35|495:35|475:-19,2,86,10|0|10,0:0|0:0|0:0,0:0:0:0:
464,171,83731,6,0,B|446:215|446:215|433:297,2,129,6|4|2,1:0|3:0|0:0,0:0:0:0:
402,99,84955,1,4,3:0:0:0:
319,53,85261,2,0,L|230:66,1,86,2|2,0:0|0:0,0:0:0:0:
155,7,85874,1,2,0:0:0:0:
104,87,86180,2,0,P|48:122|-6:84,2,129,4|4|2,3:0|3:0|0:0,0:0:0:0:
198,93,87404,5,4,1:0:0:0:
275,146,87710,1,0,1:0:0:0:
249,237,88017,2,0,B|237:263|237:263|225:324,1,86,6|10,3:0|0:0,0:0:0:0:
301,375,88629,6,0,L|402:354,1,86,4|10,1:0|0:0,0:0:0:0:
449,287,89241,2,0,P|436:246|412:197,1,86,2|10,0:0|0:0,0:0:0:0:
358,133,89853,2,0,B|267:156|291:121|184:146,1,172,2|2,1:2|0:0,0:0:0:0:
99,109,90772,1,10,0:0:0:0:
19,160,91078,6,0,P|7:201|-1:243,1,86,0|10,1:0|0:0,0:0:0:0:
83,284,91690,2,0,P|94:325|103:367,1,86,2|10,0:0|0:0,0:0:0:0:
194,342,92302,2,0,B|232:316|232:316|360:289,1,172,0|0,1:0|0:0,0:0:0:0:
425,226,93221,1,10,0:0:0:0:
382,141,93527,6,0,P|338:103|232:142,1,172,4|2,1:0|0:0,0:0:0:0:
192,216,94445,1,10,0:0:0:0:
106,175,94751,2,0,P|71:193|34:221,1,86,0|10,1:0|0:0,0:0:0:0:
33,315,95363,2,0,P|75:331|121:342,1,86,0|10,0:0|0:0,0:0:0:0:
186,278,95976,6,0,B|287:254|267:297|362:260,1,172,0|2,1:0|0:0,0:0:0:0:
445,234,96894,1,10,0:0:0:0:
463,141,97200,1,4,1:0:0:0:
425,54,97506,1,0,1:0:0:0:
332,34,97812,2,0,B|291:44|291:44|248:72,1,86,6|10,3:0|0:0,0:0:0:0:
193,140,98425,6,0,P|152:125|110:116,1,86,4|10,1:0|0:0,0:0:0:0:
25,156,99037,2,0,P|8:218|9:282,1,129,2|2,0:0|0:0,0:0:0:0:
135,348,99955,2,0,P|177:355|220:356,1,86,10|2,0:0|0:0,0:0:0:0:
295,299,100568,1,10,0:0:0:0:
373,351,100874,2,0,P|412:335|453:322,1,86,0|10,1:0|0:0,0:0:0:0:
494,236,101486,1,2,0:0:0:0:
435,161,101792,1,10,0:0:0:0:
460,69,102098,2,0,P|422:47|380:39,1,86,0|10,1:0|0:0,0:0:0:0:
299,86,102710,2,0,P|261:107|219:115,1,86,2|10,0:0|0:0,0:0:0:0:
136,70,103323,6,0,P|55:87|31:165,1,172,6|2,1:0|0:0,0:0:0:0:
90,239,104241,2,0,L|132:243,1,43,2|6,0:0|3:0,0:0:0:0:
237,338,104853,2,0,L|322:329,1,86,2|2,0:0|0:0,0:0:0:0:
414,351,105466,1,2,0:0:0:0:
476,279,105772,2,0,P|482:193|496:108,1,172,4|2,3:0|0:0,0:0:0:0:
430,41,106690,1,2,0:0:0:0:
345,82,106996,2,0,P|302:82|260:71,1,86,6|8,1:0|0:0,0:0:0:0:
175,30,107608,1,6,3:0:0:0:
88,67,107914,1,10,0:0:0:0:
94,161,108221,6,0,B|106:208|106:208|112:259,1,86,6|10,1:0|0:0,0:0:0:0:
183,305,108833,2,0,B|231:311|231:311|282:329,1,86,0|10,1:0|0:0,0:0:0:0:
355,356,109445,2,0,P|409:329|438:215,1,172,0|2,1:0|0:0,0:0:0:0:
410,138,110363,1,10,0:0:0:0:
326,93,110670,6,0,B|281:97|281:97|227:113,2,86,0|10|2,1:0|0:0|0:0,0:0:0:0:
402,37,111588,1,10,0:0:0:0:
487,77,111894,2,0,B|472:264,1,172,0|2,1:0|0:0,0:0:0:0:
414,320,112812,1,10,0:0:0:0:
323,291,113119,6,0,P|263:283|221:286,1,86,4|10,1:0|0:0,0:0:0:0:
145,304,113731,2,0,P|117:283|81:240,1,86,2|10,0:0|0:0,0:0:0:0:
83,149,114343,2,0,B|174:124|158:162|263:129,1,172,0|2,1:0|0:0,0:0:0:0:
323,69,115261,1,10,0:0:0:0:
413,98,115568,6,0,P|451:151|418:257,1,172,0|2,1:0|0:0,0:0:0:0:
355,311,116486,1,10,0:0:0:0:
266,343,116792,1,6,1:0:0:0:
182,298,117098,1,8,0:0:0:0:
137,214,117404,2,0,B|99:206|99:206|44:206,1,86,6|10,3:0|0:0,0:0:0:0:
13,119,118017,6,0,P|36:69|153:80,1,172,6|2,1:0|0:0,0:0:0:0:
214,126,118935,1,10,0:0:0:0:
276,197,119241,2,0,L|288:291,2,86,0|10|2,1:0|0:0|0:0,0:0:0:0:
363,162,120159,1,10,0:0:0:0:
345,68,120466,6,0,B|397:46|397:46|518:33,1,172,0|2,1:0|0:0,0:0:0:0:
511,128,121384,1,10,0:0:0:0:
511,222,121690,2,0,P|490:257|450:297,1,86,0|10,1:0|0:0,0:0:0:0:
371,254,122302,2,0,P|350:298|337:344,1,86,2|10,0:0|0:0,0:0:0:0:
248,359,122914,6,0,P|212:333|173:315,1,86,6|10,1:0|0:0,0:0:0:0:
79,310,123527,2,0,P|68:269|60:221,1,86,2|10,0:0|0:0,0:0:0:0:
73,132,124139,2,0,B|161:105|140:154|256:113,1,172,0|2,1:0|0:0,0:0:0:0:
326,75,125057,1,10,0:0:0:0:
384,149,125363,6,0,L|483:157,2,86,0|10|2,1:0|0:0|0:0,0:0:0:0:
306,204,126282,1,10,0:0:0:0:
330,295,126588,1,6,1:0:0:0:
256,354,126894,1,0,1:0:0:0:
175,304,127200,2,0,B|132:298|132:298|78:304,1,86,6|10,3:0|0:0,0:0:0:0:
13,247,127812,6,0,P|30:185|33:120,1,129,6|0,1:0|1:0,0:0:0:0:
104,58,128578,2,0,L|189:63,1,86,0|2,1:0|0:0,0:0:0:0:
268,116,129190,2,0,L|353:110,1,86,2|0,3:0|1:0,0:0:0:0:
472,32,129955,1,10,0:0:0:0:
510,118,130261,2,0,L|485:288,1,172,0|2,1:0|0:0,0:0:0:0:
404,337,131180,1,10,0:0:0:0:
310,324,131486,2,0,P|249:343|185:337,1,129,0|0,1:0|1:0,0:0:0:0:
76,246,132404,1,10,0:0:0:0:
156,197,132710,6,0,P|164:155|157:113,1,86,6|10,1:0|0:0,0:0:0:0:
102,35,133323,1,2,0:0:0:0:
14,69,133629,1,10,0:0:0:0:
5,163,133935,2,0,L|24:333,1,172,0|2,1:0|0:0,0:0:0:0:
113,366,134853,1,10,0:0:0:0:
195,320,135159,2,0,L|323:334,1,129,0|0,1:0|1:0,0:0:0:0:
436,248,136078,1,10,0:0:0:0:
382,169,136384,6,0,L|396:84,1,86,6|0,1:0|1:0,0:0:0:0:
325,21,136996,1,6,3:0:0:0:
243,69,137302,1,10,0:0:0:0:
157,28,137608,6,0,P|120:37|68:59,1,86,6|10,1:0|0:0,0:0:0:0:
11,125,138221,1,2,0:0:0:0:
75,194,138527,2,0,B|114:229|114:229|179:344,1,172,10|10,0:0|0:0,0:0:0:0:
257,376,139445,2,0,B|298:362|298:362|348:356,1,86,2|10,0:0|0:0,0:0:0:0:
434,366,140057,5,0,1:0:0:0:
478,282,140363,2,0,L|464:192,1,86,10|2,0:0|3:0,0:0:0:0:
371,178,140976,2,0,P|377:135|385:88,1,86,10|0,0:0|1:0,0:0:0:0:
444,20,141588,2,0,L|532:27,2,86,10|2|10,0:0|0:0|0:0,0:0:0:0:
356,56,142506,6,0,B|309:43|309:43|281:45|281:45|219:32,2,129,6|0|10,1:0|1:0|0:0,0:0:0:0:
425,120,143731,1,0,1:0:0:0:
450,210,144037,1,10,0:0:0:0:
402,291,144343,2,0,B|361:306|361:306|310:313,1,86,2|10,0:0|0:0,0:0:0:0:
240,258,144955,2,0,B|233:193|233:193|255:119,2,129,0|0|10,1:0|1:0|0:0,0:0:0:0:
191,339,146180,1,6,1:0:0:0:
97,355,146486,1,0,1:0:0:0:
28,290,146792,2,0,P|47:237|63:205,1,86,6|10,3:0|0:0,0:0:0:0:
122,141,147404,6,0,L|271:130,1,129,6|0,1:0|1:0,0:0:0:0:
387,170,148323,2,0,L|471:189,2,86,10|0|10,0:0|1:0|0:0,0:0:0:0:
298,203,149241,1,0,0:0:0:0:
210,167,149547,1,10,0:0:0:0:
124,206,149853,6,0,P|94:267|130:326,1,129,0|0,1:0|1:0,0:0:0:0:
257,349,150772,1,10,0:0:0:0:
350,337,151078,2,0,B|418:354|418:354|483:385,2,129,0|0|10,1:0|1:0|0:0,0:0:0:0:
292,261,152302,6,0,L|281:129,1,129,6|0,1:0|1:0,0:0:0:0:
147,85,153221,2,0,L|157:-14,2,86,10|0|10,0:0|1:0|0:0,0:0:0:0:
97,165,154139,1,2,0:0:0:0:
150,243,154445,1,10,0:0:0:0:
144,337,154751,6,0,L|282:327,1,129,0|0,1:0|1:0,0:0:0:0:
368,227,155670,2,0,L|464:237,1,86,10|6,0:0|1:0,0:0:0:0:
508,159,156282,1,0,1:0:0:0:
481,68,156588,1,6,3:0:0:0:
386,63,156894,1,10,0:0:0:0:
256,192,157047,12,2,160009,0:0:0:0:
