osu file format v14

[General]
AudioFilename: happy30 - You spin my world.mp3
AudioLeadIn: 0
PreviewTime: 19981
Countdown: 0
SampleSet: Soft
StackLeniency: 0.7
Mode: 0
LetterboxInBreaks: 0
WidescreenStoryboard: 1

[Editor]
Bookmarks: 160009
DistanceSpacing: 0.9
BeatDivisor: 4
GridSize: 4
TimelineZoom: 1

[Metadata]
Title:You spin my world
TitleUnicode:You spin my world
Artist:happy30
ArtistUnicode:happy30
Creator:Kyouren
Version:Kazuha's Normal
Source:
Tags:happythirsty happythirty Jordi van der Hulst As the wind blows EP extended play gokugohan12468 kittyadventure airincat -_ascended_- -ascended- ascended addy2607 kaedeharakazuha kaedehara kazuha renumi instrumental piano mappers' guild mpg fa featured artist electronic classical
BeatmapID:3855539
BeatmapSetID:1873680

[Difficulty]
HPDrainRate:4
CircleSize:3
OverallDifficulty:5
ApproachRate:6
SliderMultiplier:1.06
SliderTickRate:1

[Events]
//Background and Video events
0,0,"20220617_090448.jpg",0,0
//Break Periods
//Storyboard Layer 0 (Background)
//Storyboard Layer 1 (Fail)
//Storyboard Layer 2 (Pass)
//Storyboard Layer 3 (Foreground)
//Storyboard Layer 4 (Overlay)
//Storyboard Sound Samples

[TimingPoints]
466,306.122448979592,4,2,0,50,1,0
466,-111.111111111111,4,2,0,50,0,0
10261,-105.263157894737,4,2,0,35,0,0
20057,-100,4,2,0,65,0,0
20210,-100,4,2,0,50,0,0
21052,-100,4,2,0,5,0,0
21129,-100,4,2,0,50,0,0
21205,-100,4,2,0,5,0,0
21282,-100,4,2,0,50,0,0
39649,-95.2380952380952,4,2,0,75,0,0
59241,-105.263157894737,4,2,0,45,0,0
76384,-100,4,2,0,65,0,0
77608,-100,4,2,0,80,0,0
78833,-100,4,2,0,70,0,0
83731,-105.263157894737,4,2,0,55,0,0
87404,-105.263157894737,4,2,0,80,0,0
88629,-95.2380952380952,4,2,0,70,0,0
97200,-95.2380952380952,4,2,0,80,0,0
98425,-100,4,2,0,70,0,0
103323,-105.263157894737,4,2,0,60,0,0
106996,-105.263157894737,4,2,0,90,0,0
108221,-95.2380952380952,4,2,0,80,0,0
127736,-95.2380952380952,4,2,0,70,0,0
127812,-100,4,2,0,70,0,0
136384,-100,4,2,0,90,0,0
137608,-95.2380952380952,4,2,0,80,0,0
146180,-95.2380952380952,4,2,0,90,0,0
147404,-105.263157894737,4,2,0,80,0,0
147710,-105.263157894737,4,2,0,70,0,0
155976,-105.263157894737,4,2,0,90,0,0
157047,-105.263157894737,4,2,0,70,0,0
157124,-105.263157894737,4,2,0,15,0,0
160009,306.122448979592,4,2,0,15,1,0

[Colours]
Combo1 : 117,227,197
Combo2 : 173,255,95
Combo3 : 17,254,176
Combo4 : 113,173,223

[HitObjects]
25,268,466,6,0,P|32:308|39:363,2,95.3999970886231,2|2|2,0:0|0:0|0:0,0:0:0:0:
75,199,1384,1,2,0:0:0:0:
75,199,1537,2,0,P|115:203|222:235,1,143.099995632935,2|2,0:0|0:0,0:0:0:0:
290,270,2302,1,2,0:0:0:0:
368,236,2608,1,2,0:0:0:0:
390,153,2914,6,0,P|436:158|490:173,2,95.3999970886231,2|2|2,0:0|0:0|0:0,0:0:0:0:
354,80,3833,1,2,0:0:0:0:
354,80,3986,2,0,P|283:62|239:123,1,143.099995632935,2|2,0:0|0:0,0:0:0:0:
290,180,4751,1,2,0:0:0:0:
390,319,5363,6,0,P|441:314|494:309,2,95.3999970886231,2|2|2,0:0|0:0|0:0,0:0:0:0:
321,368,6282,1,2,0:0:0:0:
321,368,6435,2,0,P|250:359|172:350,1,143.099995632935,2|2,0:0|0:0,0:0:0:0:
98,381,7200,1,2,0:0:0:0:
38,318,7506,1,2,0:0:0:0:
63,236,7812,6,0,P|56:188|40:132,2,95.3999970886231,2|2|2,0:0|0:0|0:0,0:0:0:0:
148,249,8731,1,2,0:0:0:0:
148,249,8884,2,0,P|196:243|301:246,1,143.099995632935,0|2,0:0|0:0,0:0:0:0:
356,190,9649,1,2,0:0:0:0:
301,123,9955,1,2,0:0:0:0:
360,54,10261,5,4,1:0:0:0:
284,3,10568,2,0,P|246:8|225:14,1,50.34999865551,2|2,0:0|0:0,0:0:0:0:
203,44,10874,1,2,0:0:0:0:
121,4,11180,1,2,0:0:0:0:
121,4,11333,1,2,0:0:0:0:
10,83,11792,1,2,0:0:0:0:
40,168,12098,2,0,P|29:206|26:222,2,50.34999865551,2|2|2,0:0|0:0|0:0,0:0:0:0:
84,152,12557,1,2,0:0:0:0:
84,152,12710,6,0,P|123:157|191:171,1,100.69999731102,2|2,0:0|0:0,0:0:0:0:
259,117,13323,1,2,0:0:0:0:
259,117,13476,1,2,0:0:0:0:
334,167,13782,1,2,0:0:0:0:
312,254,14088,2,0,P|306:292|303:312,1,50.34999865551,2|2,0:0|0:0,0:0:0:0:
298,348,14394,2,0,P|351:338|400:337,1,100.69999731102,2|0,0:0|0:0,0:0:0:0:
439,353,14853,1,0,0:0:0:0:
505,291,15159,6,0,P|501:258|498:236,1,50.34999865551,2|2,0:0|0:0,0:0:0:0:
491,196,15466,1,2,0:0:0:0:
426,131,15772,2,0,P|385:110|338:153,1,100.69999731102,2|2,0:0|0:0,0:0:0:0:
320,176,16231,1,2,0:0:0:0:
244,127,16537,1,2,0:0:0:0:
244,127,16690,1,2,0:0:0:0:
170,179,16996,2,0,P|178:237|187:297,1,100.69999731102,2|2,0:0|0:0,0:0:0:0:
161,319,17455,1,2,0:0:0:0:
161,319,17608,6,0,B|115:351|115:351|61:326,1,100.69999731102,2|2,0:0|0:0,0:0:0:0:
9,269,18221,2,0,P|14:238|18:216,1,50.34999865551,2|0,0:0|0:0,0:0:0:0:
6,175,18527,1,2,0:0:0:0:
6,175,18680,1,2,0:0:0:0:
88,67,19139,2,0,P|84:33|79:9,2,50.34999865551,2|2|2,0:0|0:0|0:0,0:0:0:0:
131,93,19598,1,2,0:0:0:0:
131,93,19751,2,0,P|168:87|194:82,1,50.34999865551,2|2,0:0|0:0,0:0:0:0:
227,76,20057,5,4,1:0:0:0:
298,12,20363,2,0,P|335:18|361:23,1,53,2|2,0:0|0:0,0:0:0:0:
379,58,20670,2,0,P|366:129|357:180,1,106,10|2,0:0|0:0,0:0:0:0:
354,212,21129,1,4,3:0:0:0:
354,212,21282,1,2,0:0:0:0:
425,275,21588,2,0,P|431:310|435:336,1,53,4|2,3:0|0:0,0:0:0:0:
400,361,21894,2,0,P|341:354|289:348,1,106,10|2,0:0|0:0,0:0:0:0:
206,383,22506,5,0,1:0:0:0:
135,318,22812,2,0,P|129:283|125:257,1,53,2|2,0:0|0:0,0:0:0:0:
160,232,23118,2,0,P|219:239|271:245,1,106,10|2,0:0|0:0,0:0:0:0:
316,241,23578,1,4,3:0:0:0:
316,241,23731,2,0,P|347:203|319:150,1,106,2|4,0:0|3:0,0:0:0:0:
337,60,24343,2,0,P|271:72|216:85,1,106,10|2,0:0|0:0,0:0:0:0:
147,39,24955,6,0,B|106:9|106:9|41:41,1,106,4|2,1:0|0:0,0:0:0:0:
24,68,25414,1,2,0:0:0:0:
24,68,25568,2,0,P|30:111|45:183,1,106,10|2,0:0|0:0,0:0:0:0:
31,221,26027,1,4,3:0:0:0:
31,221,26180,1,2,0:0:0:0:
108,276,26486,2,0,P|101:314|96:337,1,53,4|2,3:0|0:0,0:0:0:0:
135,358,26792,2,0,P|201:350|252:345,1,106,10|2,0:0|0:0,0:0:0:0:
333,327,27404,6,0,P|386:358|425:331,1,106,0|2,1:0|0:0,0:0:0:0:
455,307,27863,1,2,0:0:0:0:
455,307,28017,2,0,P|457:244|461:183,1,106,10|2,0:0|0:0,0:0:0:0:
409,120,28629,2,0,P|346:118|285:114,1,106,2|4,0:0|3:0,0:0:0:0:
265,142,29088,1,2,0:0:0:0:
265,142,29241,2,0,P|231:148|199:154,1,53,10|0,0:0|0:0,0:0:0:0:
167,165,29547,1,2,0:0:0:0:
78,130,29853,6,0,P|46:85|71:46,1,106,4|2,1:0|0:0,0:0:0:0:
115,27,30312,1,2,0:0:0:0:
115,27,30466,2,0,P|196:40|233:50,1,106,10|2,0:0|0:0,0:0:0:0:
262,22,30925,1,4,3:0:0:0:
262,22,31078,1,2,0:0:0:0:
347,65,31384,2,0,P|387:58|411:54,1,53,4|2,3:0|0:0,0:0:0:0:
446,48,31690,2,0,P|438:109|431:167,1,106,10|2,0:0|0:0,0:0:0:0:
496,224,32302,5,0,1:0:0:0:
437,299,32608,2,0,P|397:304|380:307,1,53,2|2,0:0|0:0,0:0:0:0:
349,338,32914,2,0,P|311:360|256:329,1,106,10|2,0:0|0:0,0:0:0:0:
242,295,33374,1,4,3:0:0:0:
242,295,33527,2,0,P|248:233|253:187,1,106,2|4,0:0|3:0,0:0:0:0:
174,135,34139,2,0,P|110:146|55:155,1,106,10|2,0:0|0:0,0:0:0:0:
5,223,34751,6,0,P|-21:265|12:318,1,106,4|2,1:0|0:0,0:0:0:0:
50,333,35210,1,2,0:0:0:0:
50,333,35363,2,0,P|106:324|158:319,1,106,10|2,0:0|0:0,0:0:0:0:
196,352,35823,1,4,3:0:0:0:
196,352,35976,1,2,0:0:0:0:
268,289,36282,2,0,P|262:248|255:219,1,53,4|2,3:0|0:0,0:0:0:0:
223,205,36588,2,0,P|190:162|223:112,1,106,10|2,0:0|0:0,0:0:0:0:
285,61,37200,6,0,P|345:66|401:78,1,106,0|2,1:0|0:0,0:0:0:0:
436,64,37659,1,2,0:0:0:0:
436,64,37812,2,0,P|472:88|456:149,1,106,10|2,0:0|0:0,0:0:0:0:
500,231,38425,2,0,P|453:238|382:261,1,106,2|4,0:0|3:0,0:0:0:0:
362,231,38884,1,0,0:0:0:0:
362,231,39037,2,0,P|312:224|290:217,1,53,10|0,0:0|0:0,0:0:0:0:
275,256,39343,1,2,0:0:0:0:
204,326,39649,6,0,L|214:392,2,55.6499983016968,6|2|2,1:0|0:0|0:0,0:0:0:0:
164,295,40108,1,2,0:0:0:0:
164,295,40261,2,0,P|170:253|175:218,1,55.6499983016968,10|2,0:0|0:0,0:0:0:0:
180,190,40568,1,2,0:0:0:0:
192,90,40874,2,0,L|61:117,1,111.299996603394,2|4,0:0|3:0,0:0:0:0:
34,99,41333,1,2,0:0:0:0:
34,99,41486,2,0,P|20:69|32:36,2,55.6499983016968,10|2|2,0:0|0:0|0:0,0:0:0:0:
2,193,42098,6,0,P|13:253|22:312,1,111.299996603394,2|2,1:0|0:0,0:0:0:0:
60,342,42557,1,2,0:0:0:0:
60,342,42710,2,0,P|101:351|135:359,1,55.6499983016968,10|2,0:0|0:0,0:0:0:0:
161,372,43017,1,2,0:0:0:0:
251,330,43323,6,0,P|281:293|256:234,1,111.299996603394,2|4,0:0|3:0,0:0:0:0:
221,206,43782,1,2,0:0:0:0:
221,206,43935,2,0,P|176:214|141:224,1,55.6499983016968,10|2,0:0|0:0,0:0:0:0:
125,187,44241,1,2,0:0:0:0:
60,110,44547,6,0,P|18:116|-6:123,2,55.6499983016968,0|2|2,1:0|0:0|0:0,0:0:0:0:
96,75,45006,1,2,0:0:0:0:
96,75,45159,2,0,P|139:81|159:87,1,55.6499983016968,10|2,0:0|0:0,0:0:0:0:
194,59,45466,1,2,0:0:0:0:
266,127,45772,2,0,P|262:165|260:192,2,55.6499983016968,2|2|4,0:0|0:0|3:0,0:0:0:0:
335,55,46384,2,0,P|331:17|329:-10,2,55.6499983016968,10|2|2,0:0|0:0|0:0,0:0:0:0:
416,112,46996,6,0,L|480:104,2,55.6499983016968,0|2|2,1:0|0:0|0:0,0:0:0:0:
388,155,47455,1,2,0:0:0:0:
388,155,47608,2,0,P|392:193|394:220,1,55.6499983016968,10|2,0:0|0:0,0:0:0:0:
430,244,47914,1,2,0:0:0:0:
372,326,48221,2,0,P|324:303|271:344,1,111.299996603394,2|4,0:0|3:0,0:0:0:0:
236,359,48680,1,2,0:0:0:0:
236,359,48833,2,0,P|191:365|166:368,1,55.6499983016968,10|0,0:0|0:0,0:0:0:0:
124,374,49139,1,2,0:0:0:0:
54,302,49445,6,0,P|9:308|-16:311,2,55.6499983016968,4|2|2,1:0|0:0|0:0,0:0:0:0:
89,266,49904,1,2,0:0:0:0:
89,266,50057,2,0,P|134:260|159:257,1,55.6499983016968,10|2,0:0|0:0,0:0:0:0:
201,251,50363,1,2,0:0:0:0:
288,300,50670,2,0,P|342:306|411:329,1,111.299996603394,2|4,0:0|3:0,0:0:0:0:
445,310,51129,1,2,0:0:0:0:
445,310,51282,2,0,P|479:323|512:312,2,55.6499983016968,10|2|2,0:0|0:0|0:0,0:0:0:0:
395,223,51894,6,0,P|401:170|410:109,1,111.299996603394,0|2,1:0|0:0,0:0:0:0:
386,74,52353,1,2,0:0:0:0:
386,74,52506,2,0,P|351:80|313:87,1,55.6499983016968,10|2,0:0|0:0,0:0:0:0:
282,94,52812,1,2,0:0:0:0:
195,42,53119,2,0,P|149:64|90:34,1,111.299996603394,2|4,0:0|3:0,0:0:0:0:
59,16,53578,1,2,0:0:0:0:
59,16,53731,2,0,L|66:76,1,55.6499983016968,10|2,0:0|0:0,0:0:0:0:
72,120,54037,1,2,0:0:0:0:
43,215,54343,6,0,P|25:253|28:279,2,55.6499983016968,0|2|2,1:0|0:0|0:0,0:0:0:0:
96,212,54802,1,2,0:0:0:0:
96,212,54955,2,0,P|138:215|165:218,1,55.6499983016968,10|2,0:0|0:0,0:0:0:0:
201,222,55261,1,2,0:0:0:0:
281,282,55568,2,0,L|277:356,2,55.6499983016968,2|2|4,0:0|0:0|3:0,0:0:0:0:
354,213,56180,2,0,L|358:139,2,55.6499983016968,10|2|2,0:0|0:0|0:0,0:0:0:0:
429,278,56792,6,0,L|425:352,2,55.6499983016968,0|2|2,1:0|0:0|0:0,0:0:0:0:
468,246,57251,1,2,0:0:0:0:
468,246,57404,2,0,L|472:172,1,55.6499983016968,10|2,0:0|0:0,0:0:0:0:
474,140,57710,1,2,0:0:0:0:
503,44,58017,2,0,P|461:11|406:41,1,111.299996603394,2|4,0:0|3:0,0:0:0:0:
380,70,58476,1,2,0:0:0:0:
380,70,58629,2,0,P|336:75|313:82,1,55.6499983016968,10|2,0:0|0:0,0:0:0:0:
283,49,58935,1,2,0:0:0:0:
208,101,59241,6,0,P|214:155|220:212,1,100.69999731102,4|2,1:0|0:0,0:0:0:0:
298,245,59853,2,0,P|326:285|308:337,1,100.69999731102,10|2,0:0|0:0,0:0:0:0:
279,362,60312,2,0,P|212:353|117:355,1,151.04999596653,0|0,1:0|1:0,0:0:0:0:
57,297,61078,1,10,0:0:0:0:
109,222,61384,1,2,0:0:0:0:
41,161,61690,6,0,P|10:126|38:75,1,100.69999731102,0|2,1:0|0:0,0:0:0:0:
105,34,62302,2,0,P|160:42|212:54,1,100.69999731102,10|2,0:0|0:0,0:0:0:0:
243,29,62761,2,0,P|316:25|402:12,1,151.04999596653,0|0,1:0|1:0,0:0:0:0:
470,60,63527,1,10,0:0:0:0:
416,133,63833,1,2,0:0:0:0:
472,204,64139,6,0,P|496:242|468:294,1,100.69999731102,0|2,1:0|0:0,0:0:0:0:
392,327,64751,2,0,P|316:321|275:320,1,100.69999731102,10|2,0:0|0:0,0:0:0:0:
248,334,65210,2,0,P|201:293|244:217,1,151.04999596653,0|0,1:0|1:0,0:0:0:0:
313,179,65976,1,10,0:0:0:0:
357,100,66282,1,2,0:0:0:0:
300,29,66588,6,0,P|246:32|194:45,1,100.69999731102,0|2,1:0|0:0,0:0:0:0:
111,29,67200,2,0,P|55:16|16:48,1,100.69999731102,10|2,0:0|0:0,0:0:0:0:
6,81,67659,2,0,P|22:161|29:233,1,151.04999596653,0|0,1:0|1:0,0:0:0:0:
7,318,68425,1,10,0:0:0:0:
80,371,68731,1,2,0:0:0:0:
158,325,69037,6,0,P|146:267|141:215,1,100.69999731102,0|2,1:0|0:0,0:0:0:0:
197,153,69649,2,0,P|238:130|285:174,1,100.69999731102,10|2,0:0|0:0,0:0:0:0:
304,193,70108,2,0,P|348:231|422:190,1,151.04999596653,0|0,1:0|1:0,0:0:0:0:
487,130,70874,1,10,0:0:0:0:
455,45,71180,1,2,0:0:0:0:
371,10,71486,6,0,P|318:17|268:14,1,100.69999731102,0|2,1:0|0:0,0:0:0:0:
206,77,72098,2,0,P|213:130|210:180,1,100.69999731102,10|2,0:0|0:0,0:0:0:0:
240,210,72557,2,0,P|290:256|259:338,1,151.04999596653,0|0,1:0|1:0,0:0:0:0:
188,368,73323,1,10,0:0:0:0:
120,307,73629,1,2,0:0:0:0:
33,333,73935,6,0,P|28:290|15:228,1,100.69999731102,0|2,1:0|0:0,0:0:0:0:
78,167,74547,2,0,P|83:124|96:62,1,100.69999731102,10|0,0:0|0:0,0:0:0:0:
116,28,75006,2,0,P|173:76|242:45,1,151.04999596653,0|0,1:0|1:0,0:0:0:0:
317,6,75772,2,0,P|353:14|376:19,1,50.34999865551,10|10,0:0|0:0,0:0:0:0:
409,31,76078,2,0,P|445:39|468:44,1,50.34999865551,10|10,0:0|0:0,0:0:0:0:
500,62,76384,6,0,P|525:100|491:158,1,106,4|10,1:0|0:0,0:0:0:0:
436,219,76996,2,0,P|443:256|448:285,2,53,2|4|10,0:0|3:0|0:0,0:0:0:0:
397,190,77455,2,0,P|350:197|288:211,1,106,2|0,0:0|1:0,0:0:0:0:
249,190,77914,1,0,1:0:0:0:
166,141,78221,2,0,L|110:153,1,53,6|4,3:0|3:0,0:0:0:0:
82,188,78527,2,0,L|94:244,1,53,10|4,0:0|3:0,0:0:0:0:
82,286,78833,5,4,1:0:0:0:
151,351,79139,2,0,P|196:343|216:341,1,53,10|4,0:0|3:0,0:0:0:0:
244,318,79445,2,0,P|284:325|354:338,1,106,2|10,0:0|0:0,0:0:0:0:
382,369,79904,1,2,0:0:0:0:
382,369,80057,1,4,3:0:0:0:
452,304,80363,1,10,0:0:0:0:
397,225,80670,2,0,P|363:218|329:212,2,53,2|4|10,0:0|3:0|0:0,0:0:0:0:
445,210,81129,1,2,0:0:0:0:
445,210,81282,6,0,P|477:170|454:124,1,106,4|10,3:0|0:0,0:0:0:0:
392,61,81894,1,2,3:0:0:0:
392,61,82047,1,2,0:0:0:0:
298,77,82353,2,0,P|238:86|176:95,1,106,2|2,0:0|0:0,0:0:0:0:
163,62,82812,1,10,0:0:0:0:
163,62,82966,2,0,P|107:30|45:92,1,159,4|10,3:0|0:0,0:0:0:0:
55,176,83731,6,0,P|11:182|-10:187,2,50.34999865551,6|2|2,1:0|0:0|0:0,0:0:0:0:
132,223,84343,2,0,P|177:227|241:243,1,100.69999731102,2|2,0:0|0:0,0:0:0:0:
275,234,84802,2,0,P|304:200|282:147,1,100.69999731102,2|2,0:0|3:0,0:0:0:0:
253,121,85261,1,2,0:0:0:0:
299,43,85568,1,2,0:0:0:0:
372,95,85874,1,2,0:0:0:0:
449,47,86180,6,0,P|459:103|468:151,1,100.69999731102,4|2,3:0|0:0,0:0:0:0:
506,178,86639,1,4,3:0:0:0:
506,178,86792,1,2,3:0:0:0:
466,259,87098,2,0,P|431:255|406:253,1,50.34999865551,2|2,0:0|0:0,0:0:0:0:
379,280,87404,2,0,B|332:287|331:287|272:305,1,100.69999731102,4|0,1:0|1:0,0:0:0:0:
206,354,88017,2,0,P|172:359|145:348,1,50.34999865551,6|4,3:0|3:0,0:0:0:0:
119,329,88323,2,0,P|97:302|93:273,1,50.34999865551,10|4,0:0|3:0,0:0:0:0:
120,244,88629,5,4,1:0:0:0:
37,186,88935,2,0,P|32:153|28:125,1,55.6499983016968,10|0,0:0|1:0,0:0:0:0:
63,94,89241,2,0,P|115:103|189:119,1,111.299996603394,2|10,0:0|0:0,0:0:0:0:
224,132,89700,1,2,0:0:0:0:
224,132,89853,1,2,1:2:0:0:
303,70,90159,2,0,P|350:63|373:59,1,55.6499983016968,10|0,0:0|1:0,0:0:0:0:
408,64,90466,2,0,P|447:101|421:154,1,111.299996603394,2|10,0:0|0:0,0:0:0:0:
483,233,91078,5,0,1:0:0:0:
424,314,91384,2,0,P|383:318|351:325,1,55.6499983016968,10|0,0:0|1:0,0:0:0:0:
326,293,91690,2,0,P|322:252|315:220,1,55.6499983016968,2|0,0:0|1:0,0:0:0:0:
348,197,91996,1,10,0:0:0:0:
299,109,92302,2,0,P|231:119|182:132,1,111.299996603394,0|10,1:0|0:0,0:0:0:0:
147,102,92761,1,0,1:0:0:0:
147,102,92914,2,0,P|109:97|83:92,1,55.6499983016968,0|0,0:0|1:0,0:0:0:0:
43,79,93221,1,10,0:0:0:0:
2,170,93527,6,0,P|8:218|18:291,1,111.299996603394,4|10,1:0|0:0,0:0:0:0:
59,315,93986,1,0,1:0:0:0:
59,315,94139,2,0,P|115:288|167:323,1,111.299996603394,2|10,0:0|0:0,0:0:0:0:
191,350,94598,1,2,0:0:0:0:
191,350,94751,1,0,1:0:0:0:
263,280,95057,2,0,P|267:247|272:218,1,55.6499983016968,10|0,0:0|1:0,0:0:0:0:
314,200,95363,2,0,P|343:153|307:110,1,111.299996603394,0|10,0:0|0:0,0:0:0:0:
213,112,95976,6,0,P|154:125|92:148,1,111.299996603394,0|10,1:0|0:0,0:0:0:0:
61,135,96435,1,0,1:0:0:0:
61,135,96588,2,0,P|41:111|45:82,1,55.6499983016968,2|0,0:0|1:0,0:0:0:0:
68,45,96894,1,10,0:0:0:0:
164,16,97200,2,0,P|224:25|281:37,1,111.299996603394,4|0,1:0|1:0,0:0:0:0:
322,16,97659,1,6,3:0:0:0:
322,16,97812,2,0,P|369:10|393:6,1,55.6499983016968,6|4,3:0|3:0,0:0:0:0:
419,36,98119,1,10,0:0:0:0:
508,2,98425,6,0,P|500:56|488:131,1,106,4|10,1:0|0:0,0:0:0:0:
487,157,98884,1,0,1:0:0:0:
487,157,99037,2,0,P|439:132|387:172,1,106,2|10,0:0|0:0,0:0:0:0:
372,196,99496,1,2,0:0:0:0:
372,196,99649,1,0,1:0:0:0:
291,145,99955,2,0,L|297:88,1,53,10|0,0:0|1:0,0:0:0:0:
302,44,100261,2,0,L|184:66,1,106,2|10,0:0|0:0,0:0:0:0:
119,8,100874,5,0,1:0:0:0:
36,56,101180,2,0,L|46:120,1,53,10|0,0:0|1:0,0:0:0:0:
22,151,101486,2,0,L|150:177,1,106,2|10,0:0|0:0,0:0:0:0:
189,242,102098,2,0,L|317:216,1,106,0|10,1:0|0:0,0:0:0:0:
344,220,102557,1,0,1:0:0:0:
344,220,102710,2,0,L|334:284,1,53,2|0,0:0|1:0,0:0:0:0:
329,319,103017,1,10,0:0:0:0:
395,380,103323,5,6,1:0:0:0:
478,344,103629,2,0,L|488:280,1,50.34999865551,2|4,0:0|3:0,0:0:0:0:
464,254,103935,2,0,L|481:143,1,100.69999731102,2|2,0:0|0:0,0:0:0:0:
427,80,104547,1,4,3:0:0:0:
353,132,104853,2,0,L|343:196,1,50.34999865551,2|2,0:0|3:0,0:0:0:0:
316,216,105159,2,0,P|270:238|227:205,1,100.69999731102,2|2,0:0|0:0,0:0:0:0:
173,144,105772,6,0,P|127:122|84:155,1,100.69999731102,4|4,3:0|3:0,0:0:0:0:
69,189,106231,1,2,0:0:0:0:
69,189,106384,2,0,P|76:245|82:293,1,100.69999731102,2|2,0:0|0:0,0:0:0:0:
147,350,106996,2,0,P|203:343|251:337,1,100.69999731102,6|8,1:0|0:0,0:0:0:0:
285,313,107455,1,6,3:0:0:0:
285,313,107608,2,0,P|279:275|275:240,1,50.34999865551,6|4,3:0|3:0,0:0:0:0:
271,218,107914,1,10,0:0:0:0:
205,141,108221,6,0,P|164:149|144:155,2,55.6499983016968,6|2|10,1:0|0:0|0:0,0:0:0:0:
242,107,108680,1,0,1:0:0:0:
242,107,108833,2,0,P|279:111|303:114,1,55.6499983016968,0|0,1:0|1:0,0:0:0:0:
346,123,109139,1,10,0:0:0:0:
431,70,109445,2,0,P|427:38|423:10,2,55.6499983016968,0|2|10,1:0|0:0|0:0,0:0:0:0:
472,107,109904,1,0,1:0:0:0:
472,107,110057,2,0,P|460:179|453:222,1,111.299996603394,2|10,0:0|0:0,0:0:0:0:
480,313,110670,6,0,P|429:344|387:319,1,111.299996603394,0|10,1:0|0:0,0:0:0:0:
345,309,111129,1,0,1:0:0:0:
345,309,111282,2,0,P|310:316|282:324,1,55.6499983016968,2|0,0:0|1:0,0:0:0:0:
243,337,111588,1,10,0:0:0:0:
201,245,111894,2,0,P|262:232|311:218,1,111.299996603394,0|10,1:0|0:0,0:0:0:0:
357,200,112353,1,0,1:0:0:0:
357,200,112506,2,0,P|368:170|365:138,1,55.6499983016968,2|0,0:0|1:0,0:0:0:0:
348,100,112812,1,10,0:0:0:0:
257,55,113119,6,0,P|260:8|263:-11,2,55.6499983016968,4|2|10,1:0|0:0|0:0,0:0:0:0:
217,83,113578,1,0,1:0:0:0:
217,83,113731,2,0,L|148:94,1,55.6499983016968,2|0,0:0|1:0,0:0:0:0:
120,63,114037,1,10,0:0:0:0:
54,138,114343,2,0,L|-15:127,2,55.6499983016968,0|2|10,1:0|0:0|0:0,0:0:0:0:
85,183,114802,1,0,1:0:0:0:
85,183,114955,2,0,P|71:245|62:304,1,111.299996603394,2|10,0:0|0:0,0:0:0:0:
140,356,115568,6,0,B|182:346|182:346|210:361|210:361|259:350,1,111.299996603394,0|10,1:0|0:0,0:0:0:0:
285,322,116027,1,0,1:0:0:0:
285,322,116180,2,0,P|330:329|360:338,1,55.6499983016968,2|0,0:0|1:0,0:0:0:0:
387,346,116486,1,10,0:0:0:0:
485,361,116792,2,0,L|473:240,1,111.299996603394,6|8,1:0|0:0,0:0:0:0:
507,213,117251,1,6,3:0:0:0:
507,213,117404,2,0,L|513:152,1,55.6499983016968,6|4,3:0|3:0,0:0:0:0:
486,114,117710,1,10,0:0:0:0:
395,157,118017,6,0,L|389:218,2,55.6499983016968,6|2|10,1:0|0:0|0:0,0:0:0:0:
363,125,118476,1,0,1:0:0:0:
363,125,118629,2,0,L|296:136,1,55.6499983016968,2|0,0:0|1:0,0:0:0:0:
258,143,118935,1,10,0:0:0:0:
183,76,119241,2,0,L|189:15,2,55.6499983016968,0|2|10,1:0|0:0|0:0,0:0:0:0:
146,109,119700,1,0,1:0:0:0:
146,109,119853,2,0,P|109:146|138:205,1,111.299996603394,2|10,0:0|0:0,0:0:0:0:
91,291,120466,6,0,P|150:288|216:298,1,111.299996603394,0|10,1:0|0:0,0:0:0:0:
244,319,120925,1,0,1:0:0:0:
244,319,121078,2,0,P|277:313|316:311,1,55.6499983016968,2|0,0:0|1:0,0:0:0:0:
338,280,121384,1,10,0:0:0:0:
276,201,121690,2,0,P|268:132|260:83,1,111.299996603394,0|10,1:0|0:0,0:0:0:0:
291,50,122149,1,0,1:0:0:0:
291,50,122302,2,0,P|326:38|352:46,1,55.6499983016968,2|0,0:0|1:0,0:0:0:0:
387,65,122608,1,10,0:0:0:0:
486,58,122914,6,0,P|491:12|495:-9,2,55.6499983016968,6|2|10,1:0|0:0|0:0,0:0:0:0:
509,108,123374,1,0,1:0:0:0:
509,108,123527,2,0,P|504:135|502:163,1,55.6499983016968,2|0,0:0|1:0,0:0:0:0:
495,212,123833,1,10,0:0:0:0:
481,311,124139,2,0,P|476:338|474:366,2,55.6499983016968,0|2|10,1:0|0:0|0:0,0:0:0:0:
440,292,124598,1,0,1:0:0:0:
440,292,124751,2,0,P|397:288|328:283,1,111.299996603394,2|10,0:0|0:0,0:0:0:0:
245,228,125363,6,0,P|222:175|268:129,1,111.299996603394,0|10,1:0|0:0,0:0:0:0:
294,109,125823,1,0,1:0:0:0:
294,109,125976,2,0,P|311:81|298:50,1,55.6499983016968,2|0,0:0|1:0,0:0:0:0:
279,17,126282,1,10,0:0:0:0:
185,53,126588,2,0,B|142:61|142:61|124:77|124:77|69:90,1,111.299996603394,6|0,1:0|1:0,0:0:0:0:
55,131,127047,1,6,3:0:0:0:
55,131,127200,2,0,P|65:171|70:197,1,55.6499983016968,6|4,3:0|3:0,0:0:0:0:
40,227,127506,1,10,0:0:0:0:
96,303,127812,6,0,P|145:275|189:300,1,106,6|10,1:0|0:0,0:0:0:0:
219,328,128272,2,0,P|265:347|308:320,1,106,0|0,1:0|1:0,0:0:0:0:
354,236,128884,2,0,P|347:185|338:127,1,106,2|2,0:0|3:0,0:0:0:0:
333,88,129343,1,10,0:0:0:0:
333,88,129496,1,0,1:0:0:0:
392,13,129802,1,0,1:0:0:0:
392,13,129955,1,10,0:0:0:0:
472,64,130261,6,0,P|475:91|480:122,1,53,0|2,1:0|0:0,0:0:0:0:
490,163,130568,1,10,0:0:0:0:
436,241,130874,2,0,P|439:268|444:299,2,53,2|0|10,0:0|1:0|0:0,0:0:0:0:
402,206,131333,1,2,0:0:0:0:
324,260,131639,2,0,P|270:266|197:278,1,106,2|0,0:0|1:0,0:0:0:0:
188,310,132098,2,0,P|143:348|91:325,1,106,0|10,0:0|0:0,0:0:0:0:
25,279,132710,6,0,P|20:241|16:215,1,53,6|2,1:0|0:0,0:0:0:0:
11,178,133017,1,10,0:0:0:0:
56,94,133323,2,0,P|51:56|47:30,2,53,2|0|10,0:0|1:0|0:0,0:0:0:0:
94,122,133782,2,0,P|146:134|178:91,1,106,2|2,0:0|0:0,0:0:0:0:
192,52,134241,1,10,0:0:0:0:
275,98,134547,2,0,P|267:167|262:223,1,106,2|10,0:0|0:0,0:0:0:0:
320,279,135159,6,0,P|316:313|313:341,2,53,0|2|10,1:0|0:0|0:0,0:0:0:0:
360,253,135619,2,0,P|415:260|475:271,1,106,0|0,1:0|1:0,0:0:0:0:
497,181,136231,1,2,0:0:0:0:
497,181,136384,2,0,P|442:174|382:163,1,106,6|0,1:0|1:0,0:0:0:0:
358,131,136843,1,6,3:0:0:0:
358,131,136996,2,0,P|324:133|288:137,1,53,6|4,3:0|3:0,0:0:0:0:
257,141,137302,1,10,0:0:0:0:
187,69,137608,6,0,P|189:37|192:6,2,55.6499983016968,6|2|10,1:0|0:0|0:0,0:0:0:0:
109,132,138221,2,0,L|116:192,1,55.6499983016968,2|0,0:0|1:0,0:0:0:0:
93,232,138527,1,10,0:0:0:0:
93,232,138680,2,0,P|66:268|94:331,1,111.299996603394,2|2,0:0|0:0,0:0:0:0:
126,355,139139,1,10,0:0:0:0:
225,342,139445,2,0,P|278:345|351:360,1,111.299996603394,2|10,0:0|0:0,0:0:0:0:
427,316,140057,6,0,P|465:322|496:327,2,55.6499983016968,0|2|10,1:0|0:0|0:0,0:0:0:0:
390,281,140517,2,0,P|364:236|406:183,1,111.299996603394,0|0,1:0|1:0,0:0:0:0:
473,132,141129,2,0,P|499:87|457:34,1,111.299996603394,2|2,0:0|0:0,0:0:0:0:
431,20,141588,1,10,0:0:0:0:
431,20,141741,2,0,P|370:23|310:32,1,111.299996603394,0|0,1:0|1:0,0:0:0:0:
277,4,142200,1,10,0:0:0:0:
216,83,142506,6,0,L|226:146,2,55.6499983016968,6|2|10,1:0|0:0|0:0,0:0:0:0:
177,50,142966,1,0,1:0:0:0:
177,50,143119,2,0,L|107:60,1,55.6499983016968,2|0,0:0|1:0,0:0:0:0:
72,66,143425,1,10,0:0:0:0:
6,141,143731,2,0,L|16:211,1,55.6499983016968,0|2,1:0|0:0,0:0:0:0:
0,243,144037,2,0,L|10:313,1,55.6499983016968,10|0,0:0|1:0,0:0:0:0:
44,332,144343,1,2,0:0:0:0:
124,272,144649,1,10,0:0:0:0:
196,340,144955,6,0,L|259:351,2,55.6499983016968,0|2|10,1:0|0:0|0:0,0:0:0:0:
124,272,145568,2,0,L|114:202,1,55.6499983016968,2|0,0:0|1:0,0:0:0:0:
109,167,145874,2,0,L|99:97,1,55.6499983016968,10|2,0:0|0:0,0:0:0:0:
128,70,146180,2,0,B|179:79|180:79|237:89,1,111.299996603394,6|0,1:0|1:0,0:0:0:0:
323,37,146792,2,0,P|361:30|391:46,1,55.6499983016968,6|4,3:0|3:0,0:0:0:0:
418,61,147098,2,0,P|443:90|444:124,1,55.6499983016968,10|4,0:0|3:0,0:0:0:0:
453,150,147404,6,0,P|442:209|429:308,2,151.04999596653,6|0|10,1:0|1:0|0:0,0:0:0:0:
364,171,148629,1,0,1:0:0:0:
251,28,149241,1,0,0:0:0:0:
186,92,149547,1,10,0:0:0:0:
117,32,149853,6,0,P|70:11|16:92,2,151.04999596653,0|0|10,1:0|1:0|0:0,0:0:0:0:
186,92,151078,2,0,P|176:146|167:200,1,100.69999731102,0|10,1:0|0:0,0:0:0:0:
160,235,151537,1,0,1:0:0:0:
220,309,151843,1,0,1:0:0:0:
220,309,151996,1,10,0:0:0:0:
293,256,152302,6,0,B|344:267|344:267|373:309|373:309|429:323,2,151.04999596653,6|0|10,1:0|1:0|0:0,0:0:0:0:
220,309,153527,1,0,1:0:0:0:
75,199,154139,1,2,0:0:0:0:
21,125,154445,1,10,0:0:0:0:
82,58,154751,6,0,P|143:69|235:87,2,151.04999596653,0|0|10,1:0|1:0|0:0,0:0:0:0:
21,125,155976,2,0,L|32:192,1,50.34999865551,6|0,1:0|1:0,0:0:0:0:
11,216,156282,1,0,1:0:0:0:
86,282,156588,2,0,L|75:349,1,50.34999865551,6|4,3:0|3:0,0:0:0:0:
112,375,156894,1,10,0:0:0:0:
112,375,157047,1,6,1:3:0:0:
256,192,157200,12,2,160009,0:0:0:0:
