osu file format v14

[General]
AudioFilename: happy30 - You spin my world.mp3
AudioLeadIn: 0
PreviewTime: 19981
Countdown: 0
SampleSet: Soft
StackLeniency: 0.7
Mode: 0
LetterboxInBreaks: 0
WidescreenStoryboard: 0

[Editor]
DistanceSpacing: 1
BeatDivisor: 4
GridSize: 4
TimelineZoom: 2.799999

[Metadata]
Title:You spin my world
TitleUnicode:You spin my world
Artist:happy30
ArtistUnicode:happy30
Creator:Kyouren
Version:Extra
Source:
Tags:happythirsty happythirty Jordi van der Hulst As the wind blows EP extended play gokugohan12468 kittyadventure airincat -_ascended_- -ascended- ascended addy2607 kaedeharakazuha kaedehara kazuha renumi instrumental piano mappers' guild mpg fa featured artist electronic classical
BeatmapID:3855505
BeatmapSetID:1873680

[Difficulty]
HPDrainRate:6
CircleSize:4
OverallDifficulty:8
ApproachRate:8
SliderMultiplier:1.86
SliderTickRate:1

[Events]
//Background and Video events
0,0,"20220617_090448.jpg",0,0
//Break Periods
//Storyboard Layer 0 (Background)
//Storyboard Layer 1 (Fail)
//Storyboard Layer 2 (Pass)
//Storyboard Layer 3 (Foreground)
//Storyboard Layer 4 (Overlay)
//Storyboard Sound Samples

[TimingPoints]
466,306.122448979592,4,2,0,50,1,0
466,-166.666666666667,4,2,0,50,0,0
1537,-400,4,2,0,50,0,0
1613,-400,4,2,0,25,0,0
1920,-400,4,2,0,5,0,0
1996,-166.666666666667,4,2,0,50,0,0
3986,-400,4,2,0,50,0,0
4062,-400,4,2,0,25,0,0
4369,-400,4,2,0,5,0,0
4445,-166.666666666667,4,2,0,50,0,0
6435,-400,4,2,0,50,0,0
6511,-400,4,2,0,25,0,0
6818,-400,4,2,0,5,0,0
6894,-166.666666666667,4,2,0,50,0,0
10261,-222.222222222222,4,2,0,35,0,0
20057,-117.647058823529,4,2,0,65,0,0
20210,-117.647058823529,4,2,0,50,0,0
21052,-117.647058823529,4,2,0,5,0,0
21129,-117.647058823529,4,2,0,50,0,0
21205,-117.647058823529,4,2,0,5,0,0
21282,-117.647058823529,4,2,0,50,0,0
22200,-352.112676056338,4,2,0,50,0,0
22506,-117.647058823529,4,2,0,50,0,0
27098,-352.112676056338,4,2,0,50,0,0
27404,-117.647058823529,4,2,0,50,0,0
31996,-352.112676056338,4,2,0,50,0,0
32302,-117.647058823529,4,2,0,50,0,0
39649,-100,4,2,0,75,0,1
49369,-100,4,2,0,75,0,0
49445,-100,4,2,0,75,0,1
59241,-153.846153846153,4,2,0,45,0,0
76384,-100,4,2,0,65,0,0
77608,-83.3333333333333,4,2,0,80,0,1
78833,-100,4,2,0,70,0,0
83731,-117.647058823529,4,2,0,55,0,0
87404,-83.3333333333333,4,2,0,80,0,1
88629,-100,4,2,0,70,0,0
97200,-83.3333333333333,4,2,0,80,0,1
98425,-100,4,2,0,70,0,0
103323,-133.333333333333,4,2,0,60,0,0
106996,-83.3333333333333,4,2,0,90,0,1
108144,-83.3333333333333,4,2,0,90,0,0
108221,-100,4,2,0,80,0,1
117940,-100,4,2,0,80,0,0
118017,-100,4,2,0,80,0,1
127736,-100,4,2,0,70,0,0
127812,-100,4,2,0,70,0,1
127889,-100,4,2,0,70,0,0
132404,-133.333333333333,4,2,0,70,0,0
132710,-90.9090909090909,4,2,0,70,0,1
132787,-90.9090909090909,4,2,0,70,0,0
136384,-76.9230769230769,4,2,0,90,0,1
137532,-76.9230769230769,4,2,0,90,0,0
137608,-90.9090909090909,4,2,0,80,0,1
137685,-90.9090909090909,4,2,0,80,0,0
142200,-90.9090909090909,4,2,0,80,0,0
142506,-90.9090909090909,4,2,0,80,0,1
146103,-90.9090909090909,4,2,0,80,0,0
146180,-76.9230769230769,4,2,0,90,0,1
147328,-76.9230769230769,4,2,0,90,0,0
147404,-117.647058823529,4,2,0,80,0,1
147481,-117.647058823529,4,2,0,80,0,0
147710,-117.647058823529,4,2,0,70,0,0
155976,-83.3333333333333,4,2,0,90,0,1
157047,-100,4,2,0,70,0,0
157124,-100,4,2,0,15,0,0
160009,306.122448979592,4,2,0,15,1,0

[Colours]
Combo1 : 117,227,197
Combo2 : 173,255,95
Combo3 : 17,254,176
Combo4 : 113,173,223

[HitObjects]
55,85,466,6,0,P|64:111|71:138,1,55.7999982971192,2|0,0:0|0:0,0:0:0:0:
160,140,772,2,0,P|142:87|130:32,2,111.599996594238,2|2|2,0:0|0:0|0:0,0:0:0:0:
0,200,1537,6,0,P|26:212|54:218,1,58.125,2|0,0:0|0:0,0:0:0:0:
55,218,1996,6,0,P|43:243|37:270,1,55.7999982971192,2|0,0:0|0:0,0:0:0:0:
100,320,2302,2,0,P|124:270|133:215,1,111.599996594238,2|2,0:0|0:0,0:0:0:0:
195,310,2914,6,0,P|201:336|214:361,1,55.7999982971192,2|0,0:0|0:0,0:0:0:0:
295,355,3221,2,0,P|282:300|253:253,2,111.599996594238,2|2|2,0:0|0:0|0:0,0:0:0:0:
345,155,3986,6,0,P|331:180|327:209,1,58.125,2|0,0:0|0:0,0:0:0:0:
327,209,4445,6,0,P|351:221|379:226,1,55.7999982971192,2|0,0:0|0:0,0:0:0:0:
410,300,4751,2,0,P|462:282|503:245,1,111.599996594238,2|2,0:0|0:0,0:0:0:0:
295,75,5363,6,0,P|304:101|319:124,1,55.7999982971192,2|0,0:0|0:0,0:0:0:0:
400,115,5670,2,0,P|383:61|350:16,2,111.599996594238,2|2|2,0:0|0:0|0:0,0:0:0:0:
235,185,6435,6,0,P|261:197|289:201,1,58.125,2|0,0:0|0:0,0:0:0:0:
290,201,6894,6,0,P|277:225|272:252,1,55.7999982971192,2|0,0:0|0:0,0:0:0:0:
285,340,7200,2,0,P|231:323|176:321,1,111.599996594238,2|2,0:0|0:0,0:0:0:0:
50,350,7812,6,0,P|76:357|104:356,1,55.7999982971192,2|0,0:0|0:0,0:0:0:0:
130,255,8119,2,0,P|146:201|148:146,2,111.599996594238,2|2|2,0:0|0:0|0:0,0:0:0:0:
24,104,8884,1,0,0:0:0:0:
24,104,9037,6,0,L|79:99,1,55.7999982971192,6|2,1:0|0:0,0:0:0:0:
120,30,9267,1,2,0:0:0:0:
120,30,9343,2,0,L|175:25,1,55.7999982971192,2|2,0:0|0:0,0:0:0:0:
249,69,9573,1,2,0:0:0:0:
249,69,9649,2,0,L|234:179,2,111.599996594238,2|2|4,0:0|0:0|1:0,0:0:0:0:
300,370,10568,5,2,0:0:0:0:
330,290,10721,1,2,0:0:0:0:
410,260,10874,1,2,0:0:0:0:
490,280,11027,1,2,0:0:0:0:
410,245,11180,1,2,0:0:0:0:
488,292,11333,1,2,0:0:0:0:
234,179,11792,5,2,0:0:0:0:
185,245,11945,1,2,0:0:0:0:
100,245,12098,1,2,0:0:0:0:
35,185,12251,1,2,0:0:0:0:
40,100,12404,1,2,0:0:0:0:
100,45,12557,1,2,0:0:0:0:
180,50,12710,5,2,0:0:0:0:
100,45,13017,1,2,0:0:0:0:
40,100,13323,5,2,0:0:0:0:
35,185,13476,1,2,0:0:0:0:
100,245,13782,1,2,0:0:0:0:
185,245,14088,5,2,0:0:0:0:
234,179,14241,1,2,0:0:0:0:
190,255,14394,1,2,0:0:0:0:
215,335,14547,1,2,0:0:0:0:
290,370,14853,1,0,0:0:0:0:
500,200,15159,5,2,0:0:0:0:
425,185,15312,1,2,0:0:0:0:
350,170,15466,1,2,0:0:0:0:
342,178,15772,5,2,0:0:0:0:
290,235,16078,1,2,0:0:0:0:
220,195,16231,1,2,0:0:0:0:
165,255,16537,5,2,0:0:0:0:
95,215,16690,1,2,0:0:0:0:
38,272,16996,1,2,0:0:0:0:
110,315,17302,5,2,0:0:0:0:
165,255,17455,1,2,0:0:0:0:
95,215,17608,5,2,0:0:0:0:
90,200,17761,1,0,0:0:0:0:
150,145,17914,1,2,0:0:0:0:
95,85,18068,1,2,0:0:0:0:
145,15,18221,5,2,0:0:0:0:
160,20,18374,1,0,0:0:0:0:
225,75,18527,5,2,0:0:0:0:
305,65,18680,1,2,0:0:0:0:
389,59,18833,1,6,1:0:0:0:
390,60,19139,5,2,0:0:0:0:
465,85,19292,1,2,0:0:0:0:
440,160,19445,1,2,0:0:0:0:
441,169,19598,1,2,0:0:0:0:
365,135,19751,1,2,0:0:0:0:
358,142,19904,1,2,0:0:0:0:
50,130,20057,6,0,P|127:118|194:76,1,158.100003015518,4|2,1:0|0:0,0:0:0:0:
194,76,20517,1,2,0:0:0:0:
250,140,20670,2,0,L|244:179,1,39.5250007538796,10|0,0:0|0:0,0:0:0:0:
250,140,20976,6,0,L|244:179,1,39.5250007538796,2|0,0:0|0:0,0:0:0:0:
230,255,21129,2,0,L|224:294,1,39.5250007538796,4|0,3:0|0:0,0:0:0:0:
275,360,21282,6,0,B|358:347|331:305|414:292,1,158.100003015518,2|4,0:0|3:0,0:0:0:0:
485,330,21741,1,2,0:0:0:0:
350,185,21894,2,0,L|356:224,1,39.5250007538796,10|0,0:0|0:0,0:0:0:0:
350,185,22200,6,0,L|356:224,1,39.5250007538796,2|0,0:0|0:0,0:0:0:0:
414,292,22506,6,0,P|342:260|264:268,1,158.100003015518,0|2,1:0|0:0,0:0:0:0:
200,320,22966,1,2,0:0:0:0:
210,175,23119,2,0,L|204:214,1,39.5250007538796,10|0,0:0|0:0,0:0:0:0:
210,175,23425,6,0,L|204:214,1,39.5250007538796,2|0,0:0|0:0,0:0:0:0:
136,262,23578,1,4,3:0:0:0:
136,262,23731,6,0,P|61:253|34:183,1,158.100003015518,2|4,0:0|3:0,0:0:0:0:
34,183,24190,1,2,0:0:0:0:
140,50,24343,6,0,P|136:109|129:167,1,118.575002261639,10|0,0:0|0:0,0:0:0:0:
214,179,24649,6,0,P|217:119|224:61,1,118.575002261639,2|0,0:0|0:0,0:0:0:0:
224,61,24955,6,0,B|307:74|280:116|363:129,1,158.100003015518,4|2,1:0|0:0,0:0:0:0:
425,80,25414,1,2,0:0:0:0:
290,190,25568,2,0,L|291:229,1,39.5250007538796,10|0,0:0|0:0,0:0:0:0:
290,190,25874,6,0,L|291:229,1,39.5250007538796,2|0,0:0|0:0,0:0:0:0:
295,310,26027,2,0,L|296:349,1,39.5250007538796,4|0,3:0|0:0,0:0:0:0:
220,370,26180,6,0,B|176:362|176:362|143:310|143:310|92:301,1,158.100003015518,2|4,0:0|3:0,0:0:0:0:
25,350,26639,1,2,0:0:0:0:
35,205,26792,2,0,L|33:244,1,39.5250007538796,10|0,0:0|0:0,0:0:0:0:
35,205,27098,6,0,L|33:244,1,39.5250007538796,2|0,0:0|0:0,0:0:0:0:
12,228,27404,6,0,P|84:229|92:301,1,158.100003015518,0|2,1:0|0:0,0:0:0:0:
165,190,27863,1,2,0:0:0:0:
115,125,28017,2,0,L|76:129,1,39.5250007538796,10|0,0:0|0:0,0:0:0:0:
115,125,28323,6,0,L|76:129,1,39.5250007538796,2|0,0:0|0:0,0:0:0:0:
9,74,28476,1,4,3:0:0:0:
9,74,28629,6,0,B|40:62|48:33|48:33|95:6|140:43,1,158.100003015518,2|4,0:0|3:0,0:0:0:0:
300,65,29088,1,2,0:0:0:0:
225,15,29241,6,0,P|218:73|212:132,1,118.575002261639,10|0,0:0|0:0,0:0:0:0:
270,190,29547,6,0,P|263:248|257:307,1,118.575002261639,2|0,0:0|0:0,0:0:0:0:
194,364,29853,5,4,1:0:0:0:
195,365,30159,5,2,0:0:0:0:
330,350,30312,1,2,0:0:0:0:
465,335,30466,2,0,P|466:315|469:295,1,39.5250007538796,10|0,0:0|0:0,0:0:0:0:
465,335,30772,6,0,P|466:315|469:295,1,39.5250007538796,2|0,0:0|0:0,0:0:0:0:
512,228,30925,1,4,3:0:0:0:
379,214,31078,1,2,0:0:0:0:
380,215,31384,5,4,3:0:0:0:
245,200,31537,1,2,0:0:0:0:
110,185,31690,2,0,P|109:165|106:145,1,39.5250007538796,10|0,0:0|0:0,0:0:0:0:
110,185,31996,6,0,P|109:165|106:145,1,39.5250007538796,2|0,0:0|0:0,0:0:0:0:
34,109,32302,1,0,1:0:0:0:
35,110,32608,5,2,0:0:0:0:
170,95,32761,1,2,0:0:0:0:
305,80,32914,2,0,P|306:60|309:40,1,39.5250007538796,10|0,0:0|0:0,0:0:0:0:
305,80,33221,6,0,P|306:60|309:40,1,39.5250007538796,2|0,0:0|0:0,0:0:0:0:
380,0,33374,1,4,3:0:0:0:
444,69,33527,1,2,0:0:0:0:
445,70,33833,5,4,3:0:0:0:
305,80,33986,1,2,0:0:0:0:
170,95,34139,1,10,0:0:0:0:
34,109,34445,1,2,0:0:0:0:
35,110,34751,1,4,1:0:0:0:
240,365,35057,5,2,0:0:0:0:
255,285,35210,1,2,0:0:0:0:
232,368,35363,1,10,0:0:0:0:
215,205,35670,5,2,0:0:0:0:
340,300,35823,1,4,3:0:0:0:
375,145,35976,1,2,0:0:0:0:
270,15,36282,5,4,3:0:0:0:
255,95,36435,1,2,0:0:0:0:
278,12,36588,1,10,0:0:0:0:
295,175,36894,1,2,0:0:0:0:
175,65,37200,6,0,B|90:75|115:106|27:117,1,158.100003015518,0|2,1:0|0:0,0:0:0:0:
115,115,37659,1,2,0:0:0:0:
50,30,37812,1,10,0:0:0:0:
55,20,38119,1,2,0:0:0:0:
195,150,38272,1,4,3:0:0:0:
260,95,38425,6,0,P|322:141|398:133,1,158.100003015518,2|4,0:0|3:0,0:0:0:0:
398,133,38884,1,0,0:0:0:0:
285,220,39037,2,0,P|279:259|276:298,1,79.0500015077591,10|0,0:0|0:0,0:0:0:0:
115,115,39343,2,0,P|107:173|102:232,1,118.575002261639,2|0,0:0|0:0,0:0:0:0:
102,232,39649,5,6,1:0:0:0:
25,265,39802,1,2,0:0:0:0:
4,184,39955,1,2,0:0:0:0:
4,184,40108,1,2,0:0:0:0:
205,35,40261,5,10,0:0:0:0:
232,152,40414,1,2,0:0:0:0:
232,152,40491,1,2,0:0:0:0:
232,152,40568,1,2,0:0:0:0:
115,115,40721,1,4,3:0:0:0:
315,5,40874,5,2,0:0:0:0:
355,80,41027,1,2,0:0:0:0:
435,105,41180,1,4,3:0:0:0:
510,80,41333,1,2,0:0:0:0:
360,70,41486,5,10,0:0:0:0:
330,220,41639,1,2,0:0:0:0:
170,240,41792,1,2,0:0:0:0:
122,122,41945,5,2,0:0:0:0:
122,122,42022,1,2,0:0:0:0:
122,122,42098,1,2,1:0:0:0:
135,35,42251,1,2,0:0:0:0:
35,130,42404,1,2,0:0:0:0:
4,54,42557,1,2,0:0:0:0:
122,122,42710,5,10,0:0:0:0:
4,54,42863,1,2,0:0:0:0:
122,122,43017,1,2,0:0:0:0:
168,117,43093,1,2,0:0:0:0:
214,112,43170,1,4,3:0:0:0:
260,107,43246,1,2,0:0:0:0:
307,103,43323,1,2,0:0:0:0:
345,20,43476,5,2,0:0:0:0:
395,95,43629,1,4,3:0:0:0:
360,175,43782,1,2,0:0:0:0:
355,15,43935,5,10,0:0:0:0:
370,180,44088,5,2,0:0:0:0:
410,95,44241,1,2,0:0:0:0:
365,10,44394,1,2,0:0:0:0:
307,103,44547,5,0,1:0:0:0:
122,122,44700,1,2,0:0:0:0:
141,307,44853,1,2,0:0:0:0:
326,288,45006,1,2,0:0:0:0:
220,155,45159,5,10,0:0:0:0:
175,215,45312,1,2,0:0:0:0:
235,260,45466,1,2,0:0:0:0:
285,200,45619,1,4,3:0:0:0:
235,265,45772,5,2,0:0:0:0:
220,150,45925,1,2,0:0:0:0:
170,215,46078,1,4,3:0:0:0:
290,200,46231,1,2,0:0:0:0:
235,270,46384,5,10,0:0:0:0:
220,145,46537,1,2,0:0:0:0:
165,215,46690,1,2,0:0:0:0:
295,200,46843,1,2,0:0:0:0:
300,200,46920,1,2,0:0:0:0:
305,200,46996,1,0,1:0:0:0:
370,140,47149,5,2,0:0:0:0:
370,55,47302,1,2,0:0:0:0:
295,10,47455,1,2,0:0:0:0:
220,145,47608,5,10,0:0:0:0:
165,215,47761,1,2,0:0:0:0:
235,270,47914,1,2,0:0:0:0:
235,293,47991,1,2,0:0:0:0:
235,316,48068,1,4,3:0:0:0:
235,339,48144,1,2,0:0:0:0:
235,363,48221,1,2,0:0:0:0:
150,305,48374,5,2,0:0:0:0:
54,329,48527,1,4,3:0:0:0:
54,329,48680,1,2,0:0:0:0:
220,145,48833,5,10,0:0:0:0:
305,200,48986,1,0,0:0:0:0:
404,169,49139,1,2,0:0:0:0:
404,169,49292,1,2,0:0:0:0:
245,35,49445,5,4,1:0:0:0:
220,145,49598,1,2,0:0:0:0:
110,120,49751,1,2,0:0:0:0:
135,10,49904,1,2,0:0:0:0:
297,103,50057,5,10,0:0:0:0:
157,207,50210,1,2,0:0:0:0:
157,207,50287,1,2,0:0:0:0:
157,207,50363,1,2,0:0:0:0:
300,285,50517,1,4,3:0:0:0:
305,200,50670,5,2,0:0:0:0:
225,335,50823,1,2,0:0:0:0:
370,340,50976,1,4,3:0:0:0:
300,285,51129,1,2,0:0:0:0:
455,325,51282,5,10,0:0:0:0:
485,245,51435,1,2,0:0:0:0:
450,170,51588,1,2,0:0:0:0:
242,137,51741,5,2,0:0:0:0:
242,137,51818,1,2,0:0:0:0:
242,137,51894,1,0,1:0:0:0:
185,65,52047,1,2,0:0:0:0:
255,15,52200,1,2,0:0:0:0:
310,80,52353,1,2,0:0:0:0:
185,205,52506,5,10,0:0:0:0:
105,215,52659,1,2,0:0:0:0:
25,225,52812,1,2,0:0:0:0:
23,236,52889,1,2,0:0:0:0:
22,248,52966,1,4,3:0:0:0:
21,259,53042,1,2,0:0:0:0:
20,271,53119,1,2,0:0:0:0:
255,330,53272,5,2,0:0:0:0:
255,250,53425,1,4,3:0:0:0:
185,205,53578,1,2,0:0:0:0:
180,370,53731,5,10,0:0:0:0:
335,355,53884,1,2,0:0:0:0:
395,290,54037,5,2,0:0:0:0:
255,250,54190,1,2,0:0:0:0:
185,205,54343,5,0,1:0:0:0:
355,170,54496,1,2,0:0:0:0:
366,91,54649,1,2,0:0:0:0:
366,91,54802,5,2,0:0:0:0:
175,30,54955,1,10,0:0:0:0:
230,95,55108,1,2,0:0:0:0:
255,15,55261,1,2,0:0:0:0:
65,155,55414,5,4,3:0:0:0:
100,230,55568,1,2,0:0:0:0:
185,205,55721,1,2,0:0:0:0:
250,340,55874,5,4,3:0:0:0:
330,360,56027,1,2,0:0:0:0:
445,255,56180,5,10,0:0:0:0:
500,195,56333,1,2,0:0:0:0:
445,135,56486,1,2,0:0:0:0:
507,17,56639,5,2,0:0:0:0:
507,17,56716,1,2,0:0:0:0:
507,17,56792,1,0,1:0:0:0:
420,25,56945,1,2,0:0:0:0:
445,135,57098,1,2,0:0:0:0:
365,145,57251,1,2,0:0:0:0:
255,15,57404,5,10,0:0:0:0:
245,95,57557,1,2,0:0:0:0:
235,175,57710,1,2,0:0:0:0:
232,198,57787,1,2,0:0:0:0:
229,221,57863,1,4,3:0:0:0:
226,244,57940,1,2,0:0:0:0:
223,267,58017,1,2,0:0:0:0:
149,309,58170,5,2,0:0:0:0:
214,356,58323,1,4,3:0:0:0:
149,309,58476,1,2,0:0:0:0:
365,145,58629,5,10,0:0:0:0:
235,175,58782,1,2,0:0:0:0:
119,201,58935,1,2,0:0:0:0:
40,220,59088,1,2,0:0:0:0:
255,15,59241,5,4,1:0:0:0:
190,70,59547,2,0,P|160:62|130:58,1,60.4499972328187,2|2,0:0|0:0,0:0:0:0:
255,15,59853,2,0,P|298:54|356:46,1,120.899994465637,10|2,0:0|0:0,0:0:0:0:
235,175,60312,6,0,P|225:234|217:294,1,120.899994465637,0|0,1:0|0:0,0:0:0:0:
275,355,60772,2,0,P|302:342|320:318,1,60.4499972328187,0|2,1:0|0:0,0:0:0:0:
125,232,61078,2,0,P|182:246|217:294,1,120.899994465637,10|2,0:0|0:0,0:0:0:0:
310,110,61690,6,0,L|317:170,1,60.4499972328187,0|0,1:0|0:0,0:0:0:0:
390,0,61996,2,0,L|382:60,1,60.4499972328187,2|2,0:0|0:0,0:0:0:0:
310,110,62302,2,0,L|192:137,1,120.899994465637,10|2,0:0|0:0,0:0:0:0:
380,220,62761,6,0,P|438:216|473:168,1,120.899994465637,0|0,1:0|0:0,0:0:0:0:
460,295,63221,2,0,L|467:355,1,60.4499972328187,0|2,1:0|0:0,0:0:0:0:
305,250,63527,2,0,B|246:255|257:285|193:293,1,120.899994465637,10|2,0:0|0:0,0:0:0:0:
0,195,64139,6,0,L|60:201,1,60.4499972328187,0|0,1:0|0:0,0:0:0:0:
110,135,64445,2,0,L|104:75,1,60.4499972328187,2|2,0:0|0:0,0:0:0:0:
180,35,64751,2,0,L|191:154,1,120.899994465637,10|2,0:0|0:0,0:0:0:0:
305,250,65210,6,0,P|361:233|382:179,1,120.899994465637,0|0,1:0|0:0,0:0:0:0:
285,80,65670,2,0,P|297:107|320:125,1,60.4499972328187,0|2,1:0|0:0,0:0:0:0:
485,30,65976,2,0,P|429:49|401:101,1,120.899994465637,10|2,0:0|0:0,0:0:0:0:
305,250,66588,6,0,P|286:226|259:212,1,60.4499972328187,0|0,1:0|0:0,0:0:0:0:
190,250,66894,2,0,P|160:246|131:255,1,60.4499972328187,2|2,0:0|0:0,0:0:0:0:
90,325,67200,2,0,P|88:265|62:211,1,120.899994465637,10|2,0:0|0:0,0:0:0:0:
0,162,67659,6,0,P|59:165|120:136,1,120.899994465637,0|0,1:0|0:0,0:0:0:0:
195,160,68119,2,0,P|214:137|226:109,1,60.4499972328187,0|2,1:0|0:0,0:0:0:0:
175,45,68425,2,0,P|129:83|115:141,1,120.899994465637,10|2,0:0|0:0,0:0:0:0:
230,235,69037,6,0,P|259:229|286:215,1,60.4499972328187,0|0,1:0|0:0,0:0:0:0:
350,40,69343,2,0,P|320:45|293:59,1,60.4499972328187,2|2,0:0|0:0,0:0:0:0:
360,255,69649,2,0,P|370:195|385:136,1,120.899994465637,10|2,0:0|0:0,0:0:0:0:
460,155,70108,6,0,P|445:213|435:273,1,120.899994465637,0|0,1:0|0:0,0:0:0:0:
325,325,70568,2,0,P|298:311|283:285,1,60.4499972328187,0|2,1:0|0:0,0:0:0:0:
500,325,70874,2,0,P|458:366|399:367,1,120.899994465637,10|2,0:0|0:0,0:0:0:0:
205,285,71486,6,0,P|209:255|213:225,1,60.4499972328187,0|0,1:0|0:0,0:0:0:0:
285,185,71792,2,0,P|280:155|276:125,1,60.4499972328187,2|2,0:0|0:0,0:0:0:0:
210,75,72098,2,0,P|152:82|127:134,1,120.899994465637,10|2,0:0|0:0,0:0:0:0:
285,185,72557,6,0,B|348:179|340:155|399:149,1,120.899994465637,0|0,1:0|0:0,0:0:0:0:
465,100,73017,2,0,L|471:39,1,60.4499972328187,0|2,1:0|0:0,0:0:0:0:
400,230,73323,2,0,P|458:239|505:204,1,120.899994465637,10|2,0:0|0:0,0:0:0:0:
285,185,73935,6,0,L|291:245,1,60.4499972328187,0|0,1:0|0:0,0:0:0:0:
245,315,74241,2,0,L|251:375,1,60.4499972328187,2|0,0:0|0:0,0:0:0:0:
175,265,74547,2,0,B|110:254|110:254|81:266|87:299,1,120.899994465637,10|0,0:0|0:0,0:0:0:0:
15,180,75006,6,0,P|73:180|104:131,1,120.899994465637,0|0,1:0|0:0,0:0:0:0:
40,10,75466,2,0,L|47:69,1,60.4499972328187,0|2,1:0|0:0,0:0:0:0:
310,155,75772,5,10,0:0:0:0:
180,175,75925,1,10,0:0:0:0:
290,25,76078,1,10,0:0:0:0:
160,45,76231,1,10,0:0:0:0:
295,245,76384,6,0,B|366:244|353:204|426:204,1,139.5,4|0,1:0|0:0,0:0:0:0:
490,250,76690,1,10,0:0:0:0:
460,130,76843,1,4,3:0:0:0:
295,245,76996,2,0,P|340:254|384:268,1,93,2|4,0:0|3:0,0:0:0:0:
290,25,77302,2,0,P|250:46|245:90,1,93,10|2,0:0|0:0,0:0:0:0:
310,155,77608,5,4,1:0:0:0:
180,175,77761,1,0,1:0:0:0:
150,310,77914,1,0,1:0:0:0:
75,345,78068,5,6,3:0:0:0:
60,305,78144,1,6,3:0:0:0:
80,265,78221,1,6,3:0:0:0:
225,360,78374,1,4,3:0:0:0:
230,270,78527,5,10,0:0:0:0:
75,345,78680,1,4,3:0:0:0:
5,190,78833,1,4,1:0:0:0:
250,15,79139,5,10,0:0:0:0:
260,95,79292,1,4,3:0:0:0:
245,10,79445,1,2,0:0:0:0:
270,100,79598,1,4,3:0:0:0:
355,135,79751,1,10,0:0:0:0:
439,94,79904,1,2,0:0:0:0:
439,94,80057,1,4,3:0:0:0:
484,269,80210,5,2,3:0:0:0:
484,269,80363,1,10,0:0:0:0:
405,230,80517,1,4,3:0:0:0:
325,265,80670,1,2,0:0:0:0:
325,350,80823,1,4,3:0:0:0:
330,360,80976,2,0,L|423:369,1,93,10|2,0:0|0:0,0:0:0:0:
255,190,81282,6,0,P|205:236|136:238,1,139.5,4|0,3:0|0:0,0:0:0:0:
130,245,81588,2,0,P|87:228|60:191,1,93,10|4,0:0|3:0,0:0:0:0:
255,55,81894,1,2,3:0:0:0:
165,20,82047,2,0,P|171:65|180:111,1,93,2|10,0:0|0:0,0:0:0:0:
255,190,82353,1,2,0:0:0:0:
180,111,82506,1,4,3:0:0:0:
325,5,82659,5,2,0:0:0:0:
340,85,82812,1,10,0:0:0:0:
415,45,82966,2,0,B|451:44|474:17|474:17|505:45|515:87|496:124,1,186,4|4,3:0|3:0,0:0:0:0:
435,180,83425,2,0,L|441:272,1,93,10|2,0:0|0:0,0:0:0:0:
255,370,83731,5,6,1:0:0:0:
205,300,83884,1,2,0:0:0:0:
125,335,84037,2,0,P|86:325|48:317,1,79.0500015077591,2|4,0:0|3:0,0:0:0:0:
255,370,84343,2,0,P|294:360|333:352,1,79.0500015077591,2|4,0:0|3:0,0:0:0:0:
255,190,84649,5,2,0:0:0:0:
136,164,84802,2,0,P|97:154|58:146,1,79.0500015077591,2|4,0:0|3:0,0:0:0:0:
207,123,85108,1,2,3:0:0:0:
332,58,85261,6,0,P|323:97|315:136,1,79.0500015077591,2|4,0:0|3:0,0:0:0:0:
185,230,85568,2,0,P|193:268|201:307,1,79.0500015077591,2|4,0:0|3:0,0:0:0:0:
255,190,85874,5,2,0:0:0:0:
201,307,86027,1,2,0:0:0:0:
254,370,86180,5,4,3:0:0:0:
405,295,86333,2,0,P|443:287|482:279,2,79.0500015077591,2|2|4,0:0|0:0|3:0,0:0:0:0:
405,295,86792,1,2,3:0:0:0:
325,275,86945,5,4,3:0:0:0:
390,220,87098,2,0,P|428:212|467:203,1,79.0500015077591,2|2,0:0|0:0,0:0:0:0:
185,230,87404,5,4,1:0:0:0:
130,100,87557,1,0,1:0:0:0:
260,110,87710,1,0,1:0:0:0:
55,215,87863,5,6,3:0:0:0:
55,215,87940,1,6,3:0:0:0:
55,215,88017,1,6,3:0:0:0:
110,350,88170,1,4,3:0:0:0:
240,360,88323,1,10,0:0:0:0:
315,245,88476,1,4,3:0:0:0:
255,190,88629,5,4,1:0:0:0:
460,325,88935,5,10,0:0:0:0:
505,255,89088,2,0,P|498:209|493:162,1,93,0|2,1:0|0:0,0:0:0:0:
330,45,89394,1,0,1:0:0:0:
266,97,89547,2,0,P|262:144|255:190,1,93,10|2,0:0|0:0,0:0:0:0:
255,189,89853,5,2,1:2:0:0:
169,171,90006,1,2,3:0:0:0:
150,257,90159,1,10,0:0:0:0:
241,280,90312,1,0,1:0:0:0:
241,280,90466,2,0,P|287:273|334:268,1,93,2|0,0:0|1:0,0:0:0:0:
169,171,90772,1,10,0:0:0:0:
399,214,91078,6,0,P|412:145|407:76,1,139.5,0|0,1:0|0:0,0:0:0:0:
407,76,91384,2,0,P|444:103|490:110,1,93,10|0,0:0|1:0,0:0:0:0:
335,20,91690,2,0,P|289:27|242:32,1,93,2|0,0:0|1:0,0:0:0:0:
63,118,91996,2,0,P|130:116|169:171,1,139.5,10|0,0:0|0:0,0:0:0:0:
155,170,92302,6,0,L|143:262,1,93,0|0,1:0|0:0,0:0:0:0:
258,362,92608,1,10,0:0:0:0:
310,300,92761,2,0,L|176:339,1,139.5,0|0,1:0|0:0,0:0:0:0:
170,350,93068,1,0,1:0:0:0:
50,240,93221,2,0,L|72:330,1,93,10|2,0:0|0:0,0:0:0:0:
245,220,93527,6,0,P|268:155|254:88,1,139.5,4|0,1:0|0:0,0:0:0:0:
245,80,93833,1,10,0:0:0:0:
350,220,93986,2,0,P|349:173|363:129,1,93,0|2,1:0|0:0,0:0:0:0:
270,0,94292,1,0,1:0:0:0:
420,70,94445,2,0,L|511:53,1,93,10|2,0:0|0:0,0:0:0:0:
350,220,94751,5,0,1:0:0:0:
430,240,94904,1,2,3:0:0:0:
291,285,95057,1,10,0:0:0:0:
330,360,95210,2,0,P|272:323|204:331,1,139.5,0|0,1:0|0:0,0:0:0:0:
204,331,95517,1,0,1:0:0:0:
120,190,95670,2,0,L|132:282,1,93,10|2,0:0|0:0,0:0:0:0:
50,105,95976,6,0,P|125:155|214:139,1,186,0|10,1:0|0:0,0:0:0:0:
330,25,96435,2,0,P|284:32|248:61,1,93,0|2,1:0|0:0,0:0:0:0:
410,55,96741,1,0,1:0:0:0:
290,170,96894,2,0,P|335:162|371:133,1,93,10|2,0:0|0:0,0:0:0:0:
499,263,97200,5,4,1:0:0:0:
371,132,97353,1,0,1:0:0:0:
460,130,97506,1,0,1:0:0:0:
437,332,97659,5,6,3:0:0:0:
437,332,97736,1,6,3:0:0:0:
437,332,97812,1,6,3:0:0:0:
335,340,97966,1,4,3:0:0:0:
250,310,98119,1,10,0:0:0:0:
215,225,98272,1,4,3:0:0:0:
145,270,98425,6,0,P|181:210|187:142,1,139.5,4|0,1:0|0:0,0:0:0:0:
180,135,98731,1,10,0:0:0:0:
255,95,98884,2,0,L|263:2,2,93,0|2|0,1:0|0:0|1:0,0:0:0:0:
105,175,99343,1,10,0:0:0:0:
75,20,99496,1,2,0:0:0:0:
30,90,99649,5,0,1:0:0:0:
150,55,99802,1,2,3:0:0:0:
255,95,99955,1,10,0:0:0:0:
340,65,100108,2,0,P|384:78|429:89,1,93,0|2,1:0|0:0,0:0:0:0:
295,170,100414,1,0,1:0:0:0:
510,110,100568,1,10,0:0:0:0:
240,235,100874,6,0,P|252:303|260:372,1,139.5,0|0,1:0|0:0,0:0:0:0:
260,372,101180,1,10,0:0:0:0:
295,170,101333,2,0,P|337:188|379:207,1,93,0|2,1:0|0:0,0:0:0:0:
379,207,101639,1,0,1:0:0:0:
155,205,101792,2,0,P|132:245|111:287,1,93,10|2,0:0|0:0,0:0:0:0:
38,270,102098,6,0,P|68:207|105:148,1,139.5,0|0,1:0|0:0,0:0:0:0:
105,148,102404,2,0,P|85:106|80:60,2,93,10|0|2,0:0|1:0|0:0,0:0:0:0:
270,135,102863,1,0,1:0:0:0:
205,20,103017,2,0,P|187:62|186:108,1,93,10|0,0:0|0:0,0:0:0:0:
240,235,103323,6,0,B|323:228|303:261|376:252,1,139.500005321503,6|2,1:0|0:0,0:0:0:0:
376,252,103782,1,4,3:0:0:0:
450,305,103935,2,0,P|455:270|464:236,1,69.7500026607514,2|4,0:0|3:0,0:0:0:0:
492,158,104241,1,2,0:0:0:0:
410,175,104394,1,6,3:0:0:0:
285,35,104547,6,0,P|318:24|352:18,1,69.7500026607514,4|2,3:0|3:0,0:0:0:0:
173,82,104853,2,0,P|188:50|205:20,1,69.7500026607514,2|2,0:0|3:0,0:0:0:0:
110,190,105159,2,0,P|100:156|97:121,1,69.7500026607514,2|4,0:0|3:0,0:0:0:0:
97,121,105466,1,2,0:0:0:0:
55,345,105772,6,0,P|116:313|185:299,1,139.500005321503,4|4,3:0|3:0,0:0:0:0:
240,365,106231,1,2,0:0:0:0:
310,325,106384,1,2,0:0:0:0:
380,365,106537,2,0,P|413:353|445:342,1,69.7500026607514,4|2,3:0|0:0,0:0:0:0:
445,342,106843,1,2,3:0:0:0:
500,20,106996,6,0,P|488:45|478:71,1,55.7999982971192,6|0,1:0|0:0,0:0:0:0:
415,125,107149,2,0,P|426:150|436:176,1,55.7999982971192,8|0,0:0|0:0,0:0:0:0:
436,176,107302,1,8,0:0:0:0:
410,260,107455,5,6,3:0:0:0:
365,240,107532,1,6,3:0:0:0:
320,230,107608,1,6,3:0:0:0:
245,265,107761,5,4,3:0:0:0:
255,140,107914,1,10,0:0:0:0:
265,15,108068,1,4,3:0:0:0:
15,160,108221,5,6,1:0:0:0:
90,210,108374,1,2,0:0:0:0:
180,180,108527,1,10,0:0:0:0:
185,85,108680,1,0,1:0:0:0:
105,25,108833,1,0,1:0:0:0:
15,65,108986,1,0,1:0:0:0:
15,160,109139,1,10,0:0:0:0:
90,210,109292,1,2,0:0:0:0:
15,160,109445,5,0,1:0:0:0:
15,65,109598,1,2,0:0:0:0:
105,25,109751,1,10,0:0:0:0:
185,85,109904,1,0,1:0:0:0:
180,180,110057,1,2,0:0:0:0:
90,210,110210,1,0,1:0:0:0:
15,160,110363,1,10,0:0:0:0:
427,237,110517,5,2,0:0:0:0:
427,237,110593,1,2,0:0:0:0:
427,237,110670,1,0,1:0:0:0:
355,280,110823,1,2,0:0:0:0:
255,140,110976,1,10,0:0:0:0:
180,180,111129,1,0,1:0:0:0:
135,290,111282,1,2,0:0:0:0:
65,325,111435,1,0,1:0:0:0:
260,370,111588,5,10,0:0:0:0:
260,370,111664,1,2,0:0:0:0:
260,370,111741,1,2,0:0:0:0:
260,370,111818,1,2,0:0:0:0:
260,370,111894,1,0,1:0:0:0:
265,275,112047,1,2,0:0:0:0:
255,140,112200,5,10,0:0:0:0:
265,50,112353,1,0,1:0:0:0:
265,145,112506,1,2,0:0:0:0:
255,45,112659,1,0,1:0:0:0:
385,90,112812,6,0,L|338:96,1,46.5,10|0,0:0|0:0,0:0:0:0:
180,95,112966,2,0,L|133:101,1,46.5,2|0,0:0|0:0,0:0:0:0:
65,50,113119,5,4,1:0:0:0:
65,150,113272,1,2,0:0:0:0:
255,140,113425,1,10,0:0:0:0:
255,45,113578,1,0,1:0:0:0:
180,95,113731,5,2,0:0:0:0:
180,195,113884,1,0,1:0:0:0:
385,185,114037,1,10,0:0:0:0:
385,90,114190,1,2,0:0:0:0:
460,135,114343,5,0,1:0:0:0:
460,230,114496,1,2,0:0:0:0:
255,240,114649,1,10,0:0:0:0:
255,140,114802,1,0,1:0:0:0:
385,185,114955,5,2,0:0:0:0:
385,280,115108,1,0,1:0:0:0:
180,290,115261,1,10,0:0:0:0:
180,190,115414,1,2,0:0:0:0:
180,190,115491,1,2,0:0:0:0:
180,190,115568,5,0,1:0:0:0:
255,240,115721,1,2,0:0:0:0:
180,95,115874,1,10,0:0:0:0:
255,140,116027,1,0,1:0:0:0:
180,0,116180,1,2,0:0:0:0:
255,45,116333,1,0,1:0:0:0:
65,150,116486,5,10,0:0:0:0:
55,120,116562,1,2,0:0:0:0:
40,85,116639,1,2,0:0:0:0:
20,50,116716,1,2,0:0:0:0:
5,15,116792,5,6,1:0:0:0:
180,95,116945,1,8,0:0:0:0:
255,45,117098,1,8,0:0:0:0:
380,100,117251,5,6,3:0:0:0:
380,100,117328,1,6,3:0:0:0:
380,100,117404,1,6,3:0:0:0:
455,145,117557,1,4,3:0:0:0:
508,72,117710,1,10,0:0:0:0:
435,25,117863,1,4,3:0:0:0:
257,257,118017,5,6,1:0:0:0:
130,370,118170,1,2,0:0:0:0:
10,250,118323,1,10,0:0:0:0:
130,130,118476,1,0,1:0:0:0:
85,295,118629,5,2,0:0:0:0:
85,205,118782,1,0,1:0:0:0:
175,205,118935,1,10,0:0:0:0:
175,295,119088,1,2,0:0:0:0:
175,205,119241,5,0,1:0:0:0:
85,205,119394,1,2,0:0:0:0:
85,295,119547,1,10,0:0:0:0:
175,295,119700,1,0,1:0:0:0:
130,130,119853,5,2,0:0:0:0:
10,250,120006,1,0,1:0:0:0:
130,370,120159,1,10,0:0:0:0:
257,257,120312,1,2,0:0:0:0:
257,257,120389,1,2,0:0:0:0:
257,257,120466,5,0,1:0:0:0:
175,205,120619,1,2,0:0:0:0:
305,175,120772,1,10,0:0:0:0:
225,125,120925,1,0,1:0:0:0:
275,45,121078,5,2,0:0:0:0:
355,95,121231,1,0,1:0:0:0:
305,175,121384,1,10,0:0:0:0:
340,205,121460,1,2,0:0:0:0:
390,200,121537,1,2,0:0:0:0:
430,230,121613,1,2,0:0:0:0:
480,210,121690,5,0,1:0:0:0:
367,293,121843,1,2,0:0:0:0:
305,175,121996,1,10,0:0:0:0:
175,205,122149,1,0,1:0:0:0:
190,290,122302,1,2,0:0:0:0:
90,220,122455,1,0,1:0:0:0:
160,120,122608,1,10,0:0:0:0:
160,120,122761,1,2,0:0:0:0:
305,175,122914,5,6,1:0:0:0:
175,205,123068,1,2,0:0:0:0:
290,90,123221,1,10,0:0:0:0:
435,145,123374,1,0,1:0:0:0:
450,230,123527,1,2,0:0:0:0:
320,260,123680,1,0,1:0:0:0:
189,292,123833,1,10,0:0:0:0:
335,345,123986,1,2,0:0:0:0:
305,175,124139,5,0,1:0:0:0:
320,260,124292,1,2,0:0:0:0:
290,90,124445,1,10,0:0:0:0:
435,145,124598,5,0,1:0:0:0:
450,230,124751,1,2,0:0:0:0:
305,175,124904,5,0,1:0:0:0:
175,205,125057,5,10,0:0:0:0:
189,292,125210,1,0,0:0:0:0:
145,255,125287,1,2,0:0:0:0:
175,205,125363,1,0,1:0:0:0:
320,260,125517,1,2,0:0:0:0:
290,90,125670,5,10,0:0:0:0:
435,145,125823,1,0,1:0:0:0:
450,230,125976,1,2,0:0:0:0:
305,175,126129,1,0,1:0:0:0:
175,205,126282,5,10,0:0:0:0:
135,215,126358,1,2,0:0:0:0:
95,225,126435,1,2,0:0:0:0:
55,235,126511,1,2,0:0:0:0:
32,268,126588,5,6,1:0:0:0:
110,110,126741,1,0,1:0:0:0:
189,292,126894,1,0,1:0:0:0:
305,175,127047,5,6,3:0:0:0:
330,130,127124,1,6,3:0:0:0:
289,90,127200,1,6,3:0:0:0:
320,260,127353,5,4,3:0:0:0:
289,90,127506,1,10,0:0:0:0:
320,260,127659,1,4,3:0:0:0:
465,285,127812,6,0,B|367:294|401:347|296:355,1,186,6|10,1:0|0:0,0:0:0:0:
320,260,128272,2,0,P|387:323|460:381,1,186,0|0,1:0|1:0,0:0:0:0:
235,285,128731,2,0,B|214:291|188:285|188:285|232:297,1,93,10|2,0:0|0:0,0:0:0:0:
405,175,129037,5,0,1:0:0:0:
329,130,129190,2,0,P|283:139|237:147,1,93,2|10,3:0|0:0,0:0:0:0:
364,44,129496,2,0,P|272:62|181:77,1,186,0|0,1:0|1:0,0:0:0:0:
181,77,129955,2,0,P|143:52|142:8,1,93,10|2,0:0|0:0,0:0:0:0:
9,199,130261,5,0,1:0:0:0:
94,184,130414,1,2,0:0:0:0:
9,199,130568,1,10,0:0:0:0:
94,184,130721,1,0,1:0:0:0:
259,259,130874,5,2,0:0:0:0:
185,80,131027,1,0,1:0:0:0:
259,259,131180,1,10,0:0:0:0:
185,80,131333,1,2,0:0:0:0:
465,195,131486,5,0,1:0:0:0:
400,140,131639,2,0,P|356:155|311:167,1,93,2|10,0:0|0:0,0:0:0:0:
315,355,131945,2,0,P|347:296|414:292,1,139.5,0|0,1:0|0:0,0:0:0:0:
420,300,132251,1,0,1:0:0:0:
185,80,132404,2,0,P|210:124|201:174,1,104.625003991127,10|0,0:0|0:0,0:0:0:0:
185,185,132710,5,6,1:0:0:0:
60,170,132863,1,2,0:0:0:0:
170,310,133017,1,10,0:0:0:0:
45,295,133170,1,0,1:0:0:0:
185,185,133323,5,2,0:0:0:0:
235,177,133399,1,2,0:0:0:0:
286,170,133476,1,0,1:0:0:0:
336,163,133552,1,2,0:0:0:0:
391,160,133629,1,10,0:0:0:0:
391,160,133782,1,2,0:0:0:0:
304,84,133935,5,0,1:0:0:0:
325,255,134088,1,2,0:0:0:0:
304,84,134241,1,10,0:0:0:0:
475,155,134394,5,0,1:0:0:0:
325,255,134547,1,2,0:0:0:0:
475,155,134700,1,0,1:0:0:0:
304,84,134853,1,10,0:0:0:0:
387,156,135006,5,2,0:0:0:0:
336,163,135083,1,2,0:0:0:0:
286,170,135159,1,0,1:0:0:0:
235,177,135236,1,2,0:0:0:0:
185,185,135312,1,2,0:0:0:0:
100,200,135466,5,10,0:0:0:0:
325,255,135619,1,0,1:0:0:0:
325,255,135925,5,0,1:0:0:0:
300,335,136078,1,10,0:0:0:0:
255,325,136154,1,2,0:0:0:0:
240,280,136231,1,2,0:0:0:0:
240,280,136384,6,0,L|180:290,1,60.4499972328187,6|0,1:0|0:0,0:0:0:0:
115,345,136537,2,0,L|55:355,1,60.4499972328187,0|0,1:0|0:0,0:0:0:0:
55,355,136690,1,0,1:0:0:0:
7,187,136843,5,6,3:0:0:0:
7,187,136920,1,6,3:0:0:0:
7,187,136996,1,6,3:0:0:0:
100,200,137149,1,4,3:0:0:0:
115,105,137302,1,10,0:0:0:0:
20,90,137455,1,6,3:0:0:0:
255,20,137608,5,6,1:0:0:0:
385,115,137761,1,2,0:0:0:0:
300,95,137914,1,10,0:0:0:0:
465,80,138068,1,0,1:0:0:0:
255,20,138221,5,2,0:0:0:0:
285,55,138297,1,2,0:0:0:0:
300,95,138374,1,0,1:0:0:0:
300,140,138450,1,2,0:0:0:0:
285,180,138527,1,10,0:0:0:0:
239,249,138680,5,2,0:0:0:0:
239,249,138833,1,0,1:0:0:0:
420,350,138986,5,2,0:0:0:0:
440,270,139139,1,10,0:0:0:0:
364,294,139292,1,0,1:0:0:0:
504,334,139445,1,2,0:0:0:0:
504,334,139598,5,0,1:0:0:0:
364,294,139751,1,10,0:0:0:0:
242,362,139904,5,2,0:0:0:0:
242,362,139981,1,2,0:0:0:0:
242,362,140057,2,0,L|188:351,2,51.1500015609742,0|2|2,1:0|0:0|0:0,0:0:0:0:
440,270,140363,1,10,0:0:0:0:
285,180,140517,1,0,1:0:0:0:
370,195,140670,5,2,3:0:0:0:
239,249,140823,1,0,1:0:0:0:
255,105,140976,1,10,0:0:0:0:
285,180,141129,1,2,0:0:0:0:
305,35,141282,5,0,1:0:0:0:
175,80,141435,2,0,P|124:90|74:96,1,102.300003121948,2|10,0:0|0:0,0:0:0:0:
370,195,141741,2,0,P|420:184|470:178,1,102.300003121948,0|2,1:0|0:0,0:0:0:0:
239,249,142047,1,0,1:0:0:0:
185,310,142200,2,0,P|134:320|84:326,1,102.300003121948,10|2,0:0|0:0,0:0:0:0:
305,35,142506,5,6,1:0:0:0:
320,75,142583,1,2,0:0:0:0:
335,115,142659,1,2,0:0:0:0:
355,160,142736,1,2,0:0:0:0:
370,195,142812,1,10,0:0:0:0:
185,310,142966,5,0,1:0:0:0:
152,271,143042,1,2,0:0:0:0:
153,219,143119,1,2,0:0:0:0:
177,174,143195,1,2,0:0:0:0:
208,133,143272,1,0,1:0:0:0:
188,86,143348,1,2,0:0:0:0:
165,42,143425,1,10,0:0:0:0:
239,249,143578,5,2,0:0:0:0:
242,249,143654,1,2,0:0:0:0:
246,250,143731,5,0,1:0:0:0:
249,250,143807,1,2,0:0:0:0:
253,251,143884,1,2,0:0:0:0:
256,252,143960,1,2,0:0:0:0:
260,252,144037,5,10,0:0:0:0:
264,253,144113,1,2,0:0:0:0:
267,254,144190,1,0,1:0:0:0:
271,254,144267,1,2,0:0:0:0:
274,255,144343,5,2,0:0:0:0:
278,256,144420,1,2,0:0:0:0:
282,256,144496,1,0,1:0:0:0:
285,257,144573,1,2,0:0:0:0:
289,258,144649,6,0,L|297:309,3,51.1500015609742,10|2|2|2,0:0|0:0|0:0|0:0,0:0:0:0:
375,345,144955,5,0,1:0:0:0:
424,356,145032,1,2,0:0:0:0:
470,337,145108,1,2,0:0:0:0:
499,296,145185,1,2,0:0:0:0:
499,245,145261,6,0,L|491:194,1,51.1500015609742,10|2,0:0|0:0,0:0:0:0:
425,145,145414,1,0,1:0:0:0:
419,144,145491,1,2,0:0:0:0:
414,143,145568,5,2,0:0:0:0:
409,142,145644,1,2,0:0:0:0:
404,141,145721,1,0,1:0:0:0:
399,141,145797,1,2,0:0:0:0:
394,140,145874,5,10,0:0:0:0:
389,139,145950,1,2,0:0:0:0:
384,138,146027,1,2,0:0:0:0:
379,137,146103,1,2,0:0:0:0:
374,137,146180,6,0,L|314:127,1,60.4499972328187,6|2,1:0|0:0,0:0:0:0:
260,15,146333,2,0,L|250:74,1,60.4499972328187,0|2,1:0|0:0,0:0:0:0:
170,180,146486,2,0,L|179:120,1,60.4499972328187,0|2,1:0|0:0,0:0:0:0:
120,60,146639,5,6,3:0:0:0:
90,55,146716,1,6,3:0:0:0:
60,50,146792,2,0,L|0:40,1,60.4499972328187,6|2,3:0|0:0,0:0:0:0:
0,40,146945,1,4,3:0:0:0:
0,40,147022,1,4,3:0:0:0:
0,40,147098,5,10,0:0:0:0:
170,180,147251,1,4,3:0:0:0:
374,137,147404,1,6,1:0:0:0:
374,137,147710,5,10,0:0:0:0:
400,275,147863,2,0,P|415:238|432:203,1,79.0500015077591,0|2,1:0|0:0,0:0:0:0:
432,203,148170,1,0,1:0:0:0:
334,364,148323,2,0,P|312:308|279:259,1,118.575002261639,10|0,0:0|0:0,0:0:0:0:
279,259,148629,6,0,L|201:275,1,79.0500015077591,0|0,1:0|0:0,0:0:0:0:
15,190,148935,1,10,0:0:0:0:
70,120,149088,2,0,B|161:128|132:163|217:168,1,158.100003015518,0|0,1:0|1:0,0:0:0:0:
275,105,149547,2,0,P|280:65|287:26,1,79.0500015077591,10|2,0:0|0:0,0:0:0:0:
510,190,149853,6,0,P|455:137|380:152,1,158.100003015518,0|10,1:0|0:0,0:0:0:0:
390,350,150312,2,0,P|397:311|406:272,1,79.0500015077591,0|2,1:0|0:0,0:0:0:0:
406,272,150619,1,0,1:0:0:0:
218,168,150772,2,0,P|207:206|197:244,1,79.0500015077591,10|2,0:0|0:0,0:0:0:0:
120,285,151078,1,0,1:0:0:0:
120,285,151384,5,10,0:0:0:0:
150,365,151537,2,0,P|224:339|303:334,1,158.100003015518,0|0,1:0|1:0,0:0:0:0:
218,168,151996,2,0,P|179:177|141:186,1,79.0500015077591,10|2,0:0|0:0,0:0:0:0:
295,15,152302,6,0,L|317:171,1,158.100003015518,6|10,1:0|0:0,0:0:0:0:
400,120,152761,2,0,P|416:84|411:46,1,79.0500015077591,0|2,1:0|0:0,0:0:0:0:
218,168,153068,1,0,1:0:0:0:
141,186,153221,2,0,P|124:150|129:112,1,79.0500015077591,10|2,0:0|0:0,0:0:0:0:
55,225,153527,6,0,P|132:235|203:271,1,158.100003015518,0|10,1:0|0:0,0:0:0:0:
280,370,153986,2,0,P|287:331|303:295,1,79.0500015077591,0|2,1:0|0:0,0:0:0:0:
303,295,154292,1,0,1:0:0:0:
218,168,154445,2,0,L|294:189,1,79.0500015077591,10|2,0:0|0:0,0:0:0:0:
494,44,154751,6,0,B|449:49|449:49|408:103|408:103|362:108,1,158.100003015518,0|10,1:0|0:0,0:0:0:0:
363,108,155210,2,0,P|329:89|319:52,1,79.0500015077591,0|2,1:0|3:0,0:0:0:0:
510,190,155517,1,0,1:0:0:0:
470,260,155670,2,0,P|430:266|392:275,1,79.0500015077591,10|2,0:0|0:0,0:0:0:0:
20,190,155976,6,0,L|74:203,1,55.7999982971192,6|0,1:0|0:0,0:0:0:0:
140,150,156129,2,0,L|153:95,1,55.7999982971192,0|0,1:0|0:0,0:0:0:0:
95,35,156282,1,0,1:0:0:0:
110,280,156435,5,6,3:0:0:0:
165,275,156511,1,6,3:0:0:0:
220,270,156588,1,6,3:0:0:0:
284,204,156741,5,4,3:0:0:0:
50,340,156894,1,10,0:0:0:0:
284,204,157047,5,6,1:3:0:0:
256,192,157124,12,2,160009,0:0:0:0:
