osu file format v14

[General]
AudioFilename: happy30 - You spin my world.mp3
AudioLeadIn: 0
PreviewTime: 19981
Countdown: 0
SampleSet: Soft
StackLeniency: 0.7
Mode: 0
LetterboxInBreaks: 0
WidescreenStoryboard: 1

[Editor]
Bookmarks: 39649,59241,76384,88629,108221,127812,147404,160009
DistanceSpacing: 1
BeatDivisor: 4
GridSize: 4
TimelineZoom: 1.9

[Metadata]
Title:You spin my world
TitleUnicode:You spin my world
Artist:happy30
ArtistUnicode:happy30
Creator:Kyouren
Version:Ascended's Hard
Source:
Tags:happythirsty happythirty Jordi van der Hulst As the wind blows EP extended play gokugohan12468 kittyadventure airincat -_ascended_- -ascended- ascended addy2607 kaedeharakazuha kaedehara kazuha renumi instrumental piano mappers' guild mpg fa featured artist electronic classical
BeatmapID:3855888
BeatmapSetID:1873680

[Difficulty]
HPDrainRate:4
CircleSize:3.6
OverallDifficulty:6
ApproachRate:7.5
SliderMultiplier:1.46
SliderTickRate:1

[Events]
//Background and Video events
0,0,"20220617_090448.jpg",0,0
//Break Periods
//Storyboard Layer 0 (Background)
//Storyboard Layer 1 (Fail)
//Storyboard Layer 2 (Pass)
//Storyboard Layer 3 (Foreground)
//Storyboard Layer 4 (Overlay)
//Storyboard Sound Samples

[TimingPoints]
466,306.122448979592,4,2,0,50,1,0
466,-133.333333333333,4,2,0,50,0,0
10261,-133.333333333333,4,2,0,35,0,0
20057,-133.333333333333,4,2,0,65,0,0
20210,-133.333333333333,4,2,0,50,0,0
39649,-133.333333333333,4,2,0,75,0,1
49369,-133.333333333333,4,2,0,75,0,0
49445,-133.333333333333,4,2,0,75,0,1
59241,-133.333333333333,4,2,0,45,0,0
76384,-133.333333333333,4,2,0,65,0,0
77608,-133.333333333333,4,2,0,80,0,0
78833,-105.263157894737,4,2,0,70,0,0
83731,-105.263157894737,4,2,0,55,0,0
87404,-105.263157894737,4,2,0,80,0,0
88629,-105.263157894737,4,2,0,70,0,0
92149,-105.263157894737,4,2,0,50,0,0
92302,-105.263157894737,4,2,0,70,0,0
92915,-105.263157894737,4,2,0,50,0,0
93068,-105.263157894737,4,2,0,70,0,0
95364,-105.263157894737,4,2,0,50,0,0
95517,-105.263157894737,4,2,0,70,0,0
97200,-105.263157894737,4,2,0,80,0,0
98425,-105.263157894737,4,2,0,70,0,0
103323,-105.263157894737,4,2,0,60,0,0
106996,-105.263157894737,4,2,0,90,0,0
108221,-105.263157894737,4,2,0,80,0,1
117940,-105.263157894737,4,2,0,80,0,0
118017,-105.263157894737,4,2,0,80,0,1
127812,-117.64705882353,4,2,0,70,0,0
129649,-117.64705882353,4,2,0,50,0,0
129955,-117.64705882353,4,2,0,70,0,0
132098,-117.64705882353,4,2,0,50,0,0
132404,-117.64705882353,4,2,0,70,0,0
135772,-117.64705882353,4,2,0,50,0,0
135925,-117.64705882353,4,2,0,70,0,0
136307,-117.64705882353,4,2,0,50,0,0
136384,-117.64705882353,4,2,0,90,0,0
137608,-117.64705882353,4,2,0,80,0,0
141205,-117.64705882353,4,2,0,50,0,0
141282,-117.64705882353,4,2,0,80,0,0
146180,-117.64705882353,4,2,0,90,0,0
147404,-133.333333333333,4,2,0,80,0,0
147710,-133.333333333333,4,2,0,70,0,0
149241,-133.333333333333,4,2,0,50,0,0
149547,-133.333333333333,4,2,0,70,0,0
153680,-133.333333333333,4,2,0,50,0,0
153833,-133.333333333333,4,2,0,70,0,0
155976,-133.333333333333,4,2,0,90,0,0
157047,-133.333333333333,4,2,0,70,0,0
157124,-133.333333333333,4,2,0,15,0,0
160009,306.122448979592,4,2,0,15,1,0

[Colours]
Combo1 : 117,227,197
Combo2 : 173,255,95
Combo3 : 17,254,176
Combo4 : 113,173,223

[HitObjects]
443,62,466,6,0,P|450:24|515:4,2,109.500004177094,2|2|2,0:0|0:0|0:0,0:0:0:0:
462,219,1384,1,2,0:0:0:0:
462,219,1537,2,0,P|395:216|363:122,1,164.25000626564,2|2,0:0|0:0,0:0:0:0:
223,33,2302,2,0,P|210:97|202:150,1,109.500004177094,2|2,0:0|0:0,0:0:0:0:
100,269,2914,6,0,P|62:262|42:197,2,109.500004177094,2|2|2,0:0|0:0|0:0,0:0:0:0:
223,378,3832,1,2,0:0:0:0:
223,378,3985,2,0,P|226:311|320:279,1,164.25000626564,2|2,0:0|0:0,0:0:0:0:
444,178,4750,2,0,P|435:123|424:70,1,109.500004177094,2|2,0:0|0:0,0:0:0:0:
262,109,5363,6,0,P|270:54|281:1,2,109.500004177094,2|2|2,0:0|0:0|0:0,0:0:0:0:
224,267,6282,1,2,0:0:0:0:
224,267,6435,2,0,P|157:264|125:170,1,164.25000626564,2|2,0:0|0:0,0:0:0:0:
33,49,7200,2,0,P|86:37|140:29,1,109.500004177094,2|2,0:0|0:0,0:0:0:0:
279,112,7812,6,0,B|290:43|312:78|327:10,2,109.500004177094,2|2|2,0:0|0:0|0:0,0:0:0:0:
140,200,8731,2,0,P|134:172|129:144,1,54.7500020885468,2|0,0:0|0:0,0:0:0:0:
208,251,9037,2,0,P|219:305|228:361,2,109.500004177094,6|2|2,1:0|0:0|0:0,0:0:0:0:
99,369,9955,2,0,P|32:349|24:307,1,109.500004177094,2|4,0:0|1:0,0:0:0:0:
11,154,10568,6,0,P|7:120|3:95,1,54.7500020885468,2|2,0:0|0:0,0:0:0:0:
54,28,10874,2,0,P|88:24|113:20,1,54.7500020885468,2|2,0:0|0:0,0:0:0:0:
180,74,11180,1,2,0:0:0:0:
180,74,11333,1,2,0:0:0:0:
160,238,11792,6,0,P|156:272|152:297,1,54.7500020885468,2|2,0:0|0:0,0:0:0:0:
211,356,12098,2,0,P|238:360|265:363,1,54.7500020885468,2|2,0:0|0:0,0:0:0:0:
326,303,12404,2,0,P|329:275|333:248,1,54.7500020885468,2|2,0:0|0:0,0:0:0:0:
418,206,12710,2,0,P|400:166|329:158,2,109.500004177094,2|2|2,0:0|0:0|0:0,0:0:0:0:
414,289,13476,1,2,0:0:0:0:
250,259,13782,6,0,P|243:204|235:150,1,109.500004177094,2|2,0:0|0:0,0:0:0:0:
163,99,14241,2,0,P|166:71|170:44,2,54.7500020885468,2|2|2,0:0|0:0|0:0,0:0:0:0:
447,18,15159,6,0,P|451:45|454:72,2,54.7500020885468,2|2|2,0:0|0:0|0:0,0:0:0:0:
355,149,15772,2,0,P|346:203|340:257,1,109.500004177094,2|2,0:0|0:0,0:0:0:0:
328,346,16231,1,2,0:0:0:0:
484,310,16537,5,2,0:0:0:0:
484,310,16690,1,2,0:0:0:0:
512,143,16996,1,2,0:0:0:0:
394,250,17302,2,0,P|366:253|339:257,1,54.7500020885468,2|2,0:0|0:0,0:0:0:0:
269,201,17608,6,0,P|241:197|214:193,1,54.7500020885468,2|0,0:0|0:0,0:0:0:0:
135,232,17914,1,2,0:0:0:0:
135,232,18067,1,2,0:0:0:0:
135,232,18221,2,0,P|107:235|80:239,1,54.7500020885468,2|0,0:0|0:0,0:0:0:0:
1,191,18527,2,0,P|4:163|8:136,1,54.7500020885468,2|2,0:0|0:0,0:0:0:0:
20,53,18833,2,0,B|136:22|112:115|230:80,1,219.000008354187,6|2,1:0|0:0,0:0:0:0:
480,257,20057,6,0,B|429:238|429:238|365:271|388:332,1,164.25000626564,4|2,1:0|0:0,0:0:0:0:
316,378,20670,2,0,P|288:357|286:322,1,54.7500020885468,10|0,0:0|0:0,0:0:0:0:
287,244,20976,1,2,0:0:0:0:
287,244,21129,2,0,P|240:257|170:282,1,109.500004177094,4|0,3:0|0:0,0:0:0:0:
107,340,21588,2,0,P|101:318|90:286,1,54.7500020885468,4|2,3:0|0:0,0:0:0:0:
0,281,21894,2,0,P|12:238|34:174,1,109.500004177094,10|2,0:0|0:0,0:0:0:0:
156,67,22506,6,0,P|207:70|261:177,1,164.25000626564,0|2,1:0|0:0,0:0:0:0:
306,243,23119,2,0,P|258:261|244:322,2,109.500004177094,10|2|2,0:0|0:0|0:0,0:0:0:0:
464,331,24037,2,0,P|454:296|448:267,1,54.7500020885468,4|2,3:0|0:0,0:0:0:0:
475,196,24343,2,0,P|495:126|507:68,1,109.500004177094,10|2,0:0|0:0,0:0:0:0:
344,21,24955,6,0,B|291:36|291:36|269:93|269:93|220:110,1,164.25000626564,4|2,1:0|0:0,0:0:0:0:
155,61,25568,2,0,P|164:33|170:3,1,54.7500020885468,10|0,0:0|0:0,0:0:0:0:
80,21,25874,2,0,P|71:49|65:79,1,54.7500020885468,2|4,0:0|3:0,0:0:0:0:
131,140,26180,1,2,0:0:0:0:
251,258,26486,6,0,P|279:267|309:273,1,54.7500020885468,4|2,3:0|0:0,0:0:0:0:
387,250,26792,1,10,0:0:0:0:
264,357,27098,1,2,0:0:0:0:
104,295,27404,6,0,B|84:203|154:237|128:129,1,164.25000626564,0|2,1:0|0:0,0:0:0:0:
31,114,28017,2,0,P|34:62|82:43,1,109.500004177094,10|2,0:0|0:0,0:0:0:0:
222,145,28629,1,2,0:0:0:0:
381,108,28935,2,0,P|374:78|369:53,2,54.7500020885468,4|2|10,3:0|0:0|0:0,0:0:0:0:
264,5,29547,1,2,0:0:0:0:
222,145,29853,6,0,B|204:200|204:200|245:244,1,109.500004177094,4|2,1:0|0:0,0:0:0:0:
330,210,30312,1,2,0:0:0:0:
330,210,30466,2,0,P|381:222|445:244,1,109.500004177094,10|2,0:0|0:0,0:0:0:0:
353,384,31078,6,0,B|318:376|318:376|300:344|300:344|261:334,1,109.500004177094,2|4,0:0|3:0,0:0:0:0:
176,357,31537,1,2,0:0:0:0:
176,357,31690,2,0,P|133:336|119:274,1,109.500004177094,10|2,0:0|0:0,0:0:0:0:
4,159,32302,6,0,B|59:148|40:109|100:100,1,109.500004177094,0|2,1:0|0:0,0:0:0:0:
172,159,32761,1,2,0:0:0:0:
172,159,32914,1,10,0:0:0:0:
92,10,33221,1,2,0:0:0:0:
244,62,33527,6,0,B|299:72|280:111|340:120,1,109.500004177094,2|4,0:0|3:0,0:0:0:0:
412,62,33986,1,2,0:0:0:0:
412,62,34139,2,0,P|456:82|468:142,1,109.500004177094,10|2,0:0|0:0,0:0:0:0:
434,296,34751,6,0,B|379:278|379:278|335:319,1,109.500004177094,4|2,1:0|0:0,0:0:0:0:
260,299,35210,1,2,0:0:0:0:
260,299,35364,2,0,P|272:248|294:184,1,109.500004177094,10|2,0:0|0:0,0:0:0:0:
301,1,35976,6,0,B|266:9|266:9|248:41|248:41|209:51,1,109.500004177094,2|4,0:0|3:0,0:0:0:0:
123,10,36435,1,2,0:0:0:0:
123,10,36588,2,0,P|80:31|66:93,1,109.500004177094,10|2,0:0|0:0,0:0:0:0:
169,215,37200,6,0,B|158:270|119:251|110:311,1,109.500004177094,0|2,1:0|0:0,0:0:0:0:
169,383,37659,1,2,0:0:0:0:
169,383,37812,1,10,0:0:0:0:
20,303,38119,1,2,0:0:0:0:
98,159,38425,6,0,B|90:105|50:125|40:69,1,109.500004177094,2|4,0:0|3:0,0:0:0:0:
99,0,38884,1,0,0:0:0:0:
99,0,39037,2,0,P|143:20|155:80,1,109.500004177094,10|2,0:0|0:0,0:0:0:0:
235,222,39649,6,0,P|228:256|225:289,1,54.7500020885468,6|2,1:0|0:0,0:0:0:0:
276,349,39955,2,0,P|310:356|343:359,1,54.7500020885468,2|2,0:0|0:0,0:0:0:0:
410,328,40261,2,0,P|437:331|463:337,2,54.7500020885468,10|2|2,0:0|0:0|0:0,0:0:0:0:
358,256,40721,5,4,3:0:0:0:
358,256,40874,2,0,P|354:228|348:202,1,54.7500020885468,2|2,0:0|0:0,0:0:0:0:
380,117,41180,2,0,P|406:111|433:107,1,54.7500020885468,4|2,3:0|0:0,0:0:0:0:
459,23,41486,2,0,P|486:19|512:13,2,54.7500020885468,10|2|2,0:0|0:0|0:0,0:0:0:0:
299,6,42098,6,0,P|303:34|309:60,1,54.7500020885468,2|2,1:0|0:0,0:0:0:0:
277,145,42404,2,0,P|251:151|224:155,1,54.7500020885468,2|2,0:0|0:0,0:0:0:0:
134,161,42710,2,0,P|140:134|143:107,2,54.7500020885468,10|2|2,0:0|0:0|0:0,0:0:0:0:
183,249,43170,5,4,3:0:0:0:
183,249,43246,1,2,0:0:0:0:
183,249,43323,2,0,P|155:253|129:259,1,54.7500020885468,2|2,0:0|0:0,0:0:0:0:
43,268,43629,2,0,P|37:242|33:215,1,54.7500020885468,4|2,3:0|0:0,0:0:0:0:
53,118,43935,2,0,P|56:90|62:64,2,54.7500020885468,10|2|2,0:0|0:0|0:0,0:0:0:0:
223,155,44547,6,0,P|250:158|276:164,1,54.7500020885468,0|2,1:0|0:0,0:0:0:0:
343,227,44853,2,0,P|346:254|352:280,1,54.7500020885468,2|2,0:0|0:0,0:0:0:0:
325,371,45159,2,0,P|297:367|271:361,1,54.7500020885468,10|2,0:0|0:0,0:0:0:0:
205,299,45465,2,0,P|201:271|195:245,1,54.7500020885468,2|4,0:0|3:0,0:0:0:0:
223,155,45772,6,0,P|216:128|213:101,1,54.7500020885468,2|2,0:0|0:0,0:0:0:0:
146,39,46078,2,0,P|119:32|92:29,1,54.7500020885468,4|2,3:0|0:0,0:0:0:0:
10,68,46384,2,0,P|6:40|0:14,2,54.7500020885468,10|2|2,0:0|0:0|0:0,0:0:0:0:
3,230,46996,6,0,P|9:256|12:283,1,54.7500020885468,0|2,1:0|0:0,0:0:0:0:
96,326,47302,2,0,P|99:298|105:272,1,54.7500020885468,2|2,0:0|0:0,0:0:0:0:
191,247,47608,2,0,P|197:273|200:300,1,54.7500020885468,10|2,0:0|0:0,0:0:0:0:
276,360,47914,2,0,P|277:346|280:333,3,27.3750010442734,2|2|4|2,0:0|0:0|3:0|0:0,0:0:0:0:
322,326,48221,6,0,P|348:319|375:316,1,54.7500020885468,2|2,0:0|0:0,0:0:0:0:
418,233,48527,2,0,P|390:229|364:223,1,54.7500020885468,4|2,3:0|0:0,0:0:0:0:
339,138,48833,2,0,P|365:131|392:128,1,54.7500020885468,10|0,0:0|0:0,0:0:0:0:
480,108,49139,1,2,0:0:0:0:
308,31,49445,6,0,P|274:24|241:21,1,54.7500020885468,4|2,1:0|0:0,0:0:0:0:
181,72,49751,2,0,P|174:106|171:139,1,54.7500020885468,2|2,0:0|0:0,0:0:0:0:
202,206,50057,2,0,P|199:233|193:259,2,54.7500020885468,10|2|2,0:0|0:0|0:0,0:0:0:0:
286,164,50517,5,4,3:0:0:0:
286,164,50670,2,0,P|290:192|296:218,1,54.7500020885468,2|2,0:0|0:0,0:0:0:0:
372,265,50976,2,0,P|398:259|425:255,1,54.7500020885468,4|2,3:0|0:0,0:0:0:0:
449,341,51282,2,0,P|476:345|502:351,2,54.7500020885468,10|2|2,0:0|0:0|0:0,0:0:0:0:
290,302,51894,6,0,P|262:306|236:312,1,54.7500020885468,0|2,1:0|0:0,0:0:0:0:
151,280,52200,2,0,P|145:254|141:227,1,54.7500020885468,2|2,0:0|0:0,0:0:0:0:
61,181,52506,2,0,P|34:187|7:190,2,54.7500020885468,10|2|2,0:0|0:0|0:0,0:0:0:0:
20,90,52966,5,4,3:0:0:0:
20,90,53042,1,2,0:0:0:0:
20,90,53119,2,0,P|16:62|10:36,1,54.7500020885468,2|2,0:0|0:0,0:0:0:0:
100,19,53425,2,0,P|103:46|110:72,1,54.7500020885468,4|2,3:0|0:0,0:0:0:0:
192,34,53731,2,0,P|220:37|246:43,2,54.7500020885468,10|2|2,0:0|0:0|0:0,0:0:0:0:
224,202,54343,6,0,P|227:229|233:255,1,54.7500020885468,0|2,1:0|0:0,0:0:0:0:
247,343,54649,2,0,P|274:346|300:352,1,54.7500020885468,2|2,0:0|0:0,0:0:0:0:
397,370,54955,2,0,P|394:343|388:317,1,54.7500020885468,10|2,0:0|0:0,0:0:0:0:
374,229,55261,2,0,P|347:226|321:220,1,54.7500020885468,2|4,0:0|3:0,0:0:0:0:
224,202,55568,6,0,P|197:195|170:192,1,54.7500020885468,2|2,0:0|0:0,0:0:0:0:
156,105,55874,2,0,P|149:78|146:51,1,54.7500020885468,4|2,3:0|0:0,0:0:0:0:
242,67,56180,2,0,P|248:40|251:13,2,54.7500020885468,10|2|2,0:0|0:0|0:0,0:0:0:0:
399,32,56792,6,0,P|425:38|452:41,1,54.7500020885468,0|2,1:0|0:0,0:0:0:0:
495,125,57098,2,0,P|467:128|441:134,1,54.7500020885468,2|2,0:0|0:0,0:0:0:0:
419,222,57404,2,0,P|445:228|472:231,1,54.7500020885468,10|2,0:0|0:0,0:0:0:0:
505,321,57710,2,0,P|501:334|500:347,3,27.3750010442734,2|2|4|2,0:0|0:0|3:0|0:0,0:0:0:0:
479,366,58017,6,0,P|451:368|425:375,1,54.7500020885468,2|2,0:0|0:0,0:0:0:0:
335,341,58323,2,0,P|332:313|325:287,1,54.7500020885468,4|2,3:0|0:0,0:0:0:0:
262,216,58629,2,0,P|264:188|271:162,1,54.7500020885468,10|2,0:0|0:0,0:0:0:0:
288,72,58935,1,2,0:0:0:0:
134,4,59241,6,0,P|68:36|29:37,2,109.500004177094,4|2|10,1:0|0:0|0:0,0:0:0:0:
116,167,60159,1,2,0:0:0:0:
116,167,60312,1,0,1:0:0:0:
351,212,60772,2,0,P|319:146|318:107,2,109.500004177094,0|10|2,1:0|0:0|0:0,0:0:0:0:
451,332,61690,6,0,P|501:308|511:256,2,109.500004177094,0|2|10,1:0|0:0|0:0,0:0:0:0:
292,363,62608,1,2,0:0:0:0:
292,363,62761,1,0,1:0:0:0:
82,259,63221,2,0,P|58:209|6:199,2,109.500004177094,0|10|2,1:0|0:0|0:0,0:0:0:0:
226,183,64139,6,0,P|258:117|259:78,2,109.500004177094,0|2|10,1:0|0:0|0:0,0:0:0:0:
280,333,65057,1,2,0:0:0:0:
280,333,65210,1,0,1:0:0:0:
411,143,65670,2,0,P|465:136|512:109,2,109.500004177094,0|10|2,1:0|0:0|0:0,0:0:0:0:
288,60,66588,6,0,P|264:10|212:0,2,109.500004177094,0|2|10,1:0|0:0|0:0,0:0:0:0:
148,130,67506,1,2,0:0:0:0:
148,130,67659,1,0,1:0:0:0:
297,297,68119,2,0,P|321:247|373:237,2,109.500004177094,0|10|2,1:0|0:0|0:0,0:0:0:0:
150,380,69037,6,0,P|95:363|87:317,1,109.500004177094,0|2,1:0|0:0,0:0:0:0:
0,183,69649,2,0,P|15:138|77:120,1,109.500004177094,10|2,0:0|0:0,0:0:0:0:
134,55,70108,2,0,P|187:72|216:173,1,164.25000626564,0|0,1:0|1:0,0:0:0:0:
301,305,70874,1,10,0:0:0:0:
457,271,71180,1,2,0:0:0:0:
489,109,71486,6,0,P|495:53|507:-2,1,109.500004177094,0|2,1:0|0:0,0:0:0:0:
343,21,72098,2,0,P|289:32|235:38,1,109.500004177094,10|2,0:0|0:0,0:0:0:0:
153,4,72557,2,0,P|93:25|64:117,1,164.25000626564,0|0,1:0|1:0,0:0:0:0:
199,204,73323,1,10,0:0:0:0:
361,160,73629,1,2,0:0:0:0:
421,324,73935,6,0,P|367:312|313:306,1,109.500004177094,0|2,1:0|0:0,0:0:0:0:
148,344,74547,2,0,P|91:323|91:262,1,109.500004177094,10|0,0:0|0:0,0:0:0:0:
121,193,75006,2,0,P|103:112|95:31,1,164.25000626564,0|0,1:0|1:0,0:0:0:0:
235,123,75772,5,10,0:0:0:0:
235,123,75925,1,10,0:0:0:0:
318,81,76078,1,10,0:0:0:0:
318,81,76231,1,10,0:0:0:0:
395,129,76384,6,0,P|382:186|376:245,1,109.500004177094,4|10,1:0|0:0,0:0:0:0:
296,282,76843,1,4,3:0:0:0:
296,282,76996,2,0,P|290:254|287:226,1,54.7500020885468,2|4,0:0|3:0,0:0:0:0:
195,277,77302,2,0,P|192:304|186:330,2,54.7500020885468,10|2|4,0:0|0:0|1:0,0:0:0:0:
99,231,77761,6,0,B|99:261|99:261|109:284,1,54.7500020885468,0|0,1:0|1:0,0:0:0:0:
179,178,78068,1,6,3:0:0:0:
179,178,78144,1,6,3:0:0:0:
179,178,78221,1,6,3:0:0:0:
104,110,78374,2,0,P|77:116|50:119,2,54.7500020885468,4|10|4,3:0|0:0|3:0,0:0:0:0:
61,27,78833,5,4,1:0:0:0:
220,90,79139,2,0,P|261:85|292:80,1,69.3499981481553,10|4,0:0|3:0,0:0:0:0:
376,142,79445,2,0,P|380:183|385:214,1,69.3499981481553,2|4,0:0|3:0,0:0:0:0:
283,237,79751,1,10,0:0:0:0:
283,237,79904,2,0,P|288:202|292:168,2,69.3499981481553,2|4|2,0:0|3:0|3:0,0:0:0:0:
336,321,80363,6,0,P|377:325|408:330,1,69.3499981481553,10|4,0:0|3:0,0:0:0:0:
492,269,80670,2,0,P|496:227|501:196,1,69.3499981481553,2|4,0:0|3:0,0:0:0:0:
447,115,80976,2,0,P|405:110|374:105,1,69.3499981481553,10|2,0:0|0:0,0:0:0:0:
282,74,81282,6,0,P|287:30|376:6,2,138.699996296311,4|10|2,3:0|0:0|3:0,0:0:0:0:
300,165,82047,2,0,P|258:169|227:174,1,69.3499981481553,2|10,0:0|0:0,0:0:0:0:
159,116,82353,6,0,P|163:74|168:43,2,69.3499981481553,2|4|2,0:0|3:0|0:0,0:0:0:0:
86,182,82812,1,10,0:0:0:0:
86,182,82966,2,0,P|96:250|104:319,1,138.699996296311,4|4,3:0|3:0,0:0:0:0:
35,379,83425,1,10,0:0:0:0:
197,326,83731,6,0,P|238:330|269:335,1,69.3499981481553,6|2,1:0|0:0,0:0:0:0:
348,379,84037,2,0,P|389:374|420:369,1,69.3499981481553,2|4,0:0|3:0,0:0:0:0:
468,283,84343,2,0,P|449:231|363:215,1,138.699996296311,2|2,0:0|0:0,0:0:0:0:
273,246,84802,2,0,P|231:241|200:236,1,69.3499981481553,2|4,0:0|3:0,0:0:0:0:
140,180,85108,5,2,3:0:0:0:
140,180,85261,1,2,0:0:0:0:
19,70,85567,1,2,0:0:0:0:
170,25,85873,2,0,P|204:19|238:16,1,69.3499981481553,2|2,0:0|0:0,0:0:0:0:
311,73,86180,6,0,P|305:107|301:141,1,69.3499981481553,4|2,3:0|0:0,0:0:0:0:
231,199,86486,2,0,P|236:233|240:267,1,69.3499981481553,2|4,0:0|3:0,0:0:0:0:
187,347,86792,1,2,3:0:0:0:
339,309,87098,2,0,P|373:314|407:318,1,69.3499981481553,2|2,0:0|0:0,0:0:0:0:
508,359,87404,5,4,1:0:0:0:
508,359,87557,2,0,P|502:325|499:291,1,69.3499981481553,0|0,1:0|1:0,0:0:0:0:
431,226,87863,1,6,3:0:0:0:
431,226,87940,1,6,3:0:0:0:
431,226,88017,2,0,P|434:191|440:157,1,69.3499981481553,6|4,3:0|3:0,0:0:0:0:
490,89,88323,1,10,0:0:0:0:
336,10,88629,6,0,P|266:26|248:85,1,138.699996296311,4|10,1:0|0:0,0:0:0:0:
295,177,89088,1,0,1:0:0:0:
295,177,89241,2,0,P|291:211|285:245,1,69.3499981481553,2|0,0:0|1:0,0:0:0:0:
203,300,89547,2,0,P|197:265|193:231,1,69.3499981481553,10|2,0:0|0:0,0:0:0:0:
110,282,89853,6,0,P|45:270|38:189,1,138.699996296311,2|10,1:2|0:0,0:0:0:0:
11,118,90313,1,0,1:0:0:0:
11,118,90466,2,0,P|7:83|1:49,2,69.3499981481553,2|0|10,0:0|1:0|0:0,0:0:0:0:
165,68,91078,6,0,P|233:78|302:86,1,138.699996296311,0|10,1:0|0:0,0:0:0:0:
372,149,91537,1,0,1:0:0:0:
372,149,91690,2,0,P|375:183|381:217,1,69.3499981481553,2|0,0:0|1:0,0:0:0:0:
284,200,91996,2,0,P|289:234|293:268,1,69.3499981481553,10|0,0:0|0:0,0:0:0:0:
382,314,92302,6,0,P|452:304|474:240,1,138.699996296311,0|10,1:0|0:0,0:0:0:0:
494,157,92762,1,0,1:0:0:0:
494,157,92915,2,0,P|497:122|503:88,2,69.3499981481553,0|0|10,0:0|1:0|0:0,0:0:0:0:
385,33,93527,6,0,P|315:49|297:108,1,138.699996296311,4|10,1:0|0:0,0:0:0:0:
268,199,93986,1,0,1:0:0:0:
268,199,94139,2,0,P|233:202|199:208,1,69.3499981481553,2|0,0:0|1:0,0:0:0:0:
160,292,94445,2,0,P|125:288|91:282,1,69.3499981481553,10|2,0:0|0:0,0:0:0:0:
18,230,94751,6,0,P|10:161|0:92,1,138.699996296311,0|10,1:0|0:0,0:0:0:0:
91,78,95211,1,0,1:0:0:0:
91,78,95364,2,0,P|94:43|100:9,2,69.3499981481553,0|0|10,0:0|1:0|0:0,0:0:0:0:
258,56,95976,6,0,P|326:66|350:136,1,138.699996296311,0|10,1:0|0:0,0:0:0:0:
276,179,96435,1,0,1:0:0:0:
276,179,96588,2,0,P|241:175|207:169,1,69.3499981481553,2|0,0:0|1:0,0:0:0:0:
135,228,96894,2,0,P|138:262|144:296,1,69.3499981481553,10|2,0:0|0:0,0:0:0:0:
228,338,97200,5,4,1:0:0:0:
228,338,97353,2,0,P|262:342|296:347,1,69.3499981481553,0|0,1:0|1:0,0:0:0:0:
388,316,97660,1,6,3:0:0:0:
388,316,97736,1,6,3:0:0:0:
388,316,97813,2,0,P|391:350|397:384,2,69.3499981481553,6|4|10,3:0|3:0|0:0,0:0:0:0:
456,241,98272,5,4,3:0:0:0:
456,241,98425,2,0,B|410:226|410:226|382:189|382:189|326:173,1,138.699996296311,4|10,1:0|0:0,0:0:0:0:
286,105,98884,1,0,1:0:0:0:
285,104,99038,2,0,P|255:110|218:123,1,69.3499981481553,2|0,0:0|1:0,0:0:0:0:
169,209,99343,2,0,P|198:215|235:228,1,69.3499981481553,10|2,0:0|0:0,0:0:0:0:
318,277,99649,6,0,B|341:341|341:341|284:382,1,138.699996296311,0|10,1:0|0:0,0:0:0:0:
203,329,100109,1,0,1:0:0:0:
203,329,100261,2,0,P|174:335|137:348,1,69.3499981481553,2|0,0:0|1:0,0:0:0:0:
46,378,100568,1,10,0:0:0:0:
7,212,100874,6,0,B|38:184|38:184|96:181|107:240,1,138.699996296311,0|10,1:0|0:0,0:0:0:0:
190,189,101333,1,0,1:0:0:0:
190,189,101486,2,0,P|196:160|209:123,1,69.3499981481553,2|0,0:0|1:0,0:0:0:0:
201,32,101792,2,0,P|234:24|267:12,1,69.3499981481553,10|2,0:0|0:0,0:0:0:0:
315,93,102098,6,0,B|325:149|383:146|383:146|415:118,1,138.699996296311,0|10,1:0|0:0,0:0:0:0:
489,192,102558,1,0,1:0:0:0:
489,192,102710,2,0,P|495:221|508:258,2,69.3499981481553,2|0|10,0:0|1:0|0:0,0:0:0:0:
371,301,103323,6,0,B|306:278|306:278|251:325,1,138.699996296311,6|2,1:0|0:0,0:0:0:0:
187,253,103782,1,4,3:0:0:0:
186,252,103936,2,0,P|192:222|205:185,1,69.3499981481553,2|4,0:0|3:0,0:0:0:0:
285,136,104241,2,0,P|279:107|266:70,1,69.3499981481553,2|6,0:0|3:0,0:0:0:0:
181,16,104547,6,0,B|126:7|126:7|72:32|83:89,1,138.699996296311,4|2,3:0|0:0,0:0:0:0:
73,163,105006,1,2,3:0:0:0:
73,163,105159,2,0,P|40:151|6:143,2,69.3499981481553,2|4|2,0:0|3:0|0:0,0:0:0:0:
128,326,105772,6,0,P|193:302|260:287,1,138.699996296311,4|4,3:0|3:0,0:0:0:0:
360,283,106231,1,2,0:0:0:0:
360,283,106384,2,0,P|348:315|340:349,2,69.3499981481553,2|4|2,0:0|3:0|0:0,0:0:0:0:
370,123,106996,6,0,P|402:134|436:142,2,69.3499981481553,6|8|8,1:0|0:0|0:0,0:0:0:0:
281,174,107456,1,6,3:0:0:0:
281,174,107532,1,6,3:0:0:0:
281,174,107608,1,6,3:0:0:0:
219,98,107761,2,0,P|252:90|285:78,1,69.3499981481553,4|10,3:0|0:0,0:0:0:0:
125,16,108221,6,0,P|95:37|84:71,1,69.3499981481553,6|2,1:0|0:0,0:0:0:0:
21,145,108527,1,10,0:0:0:0:
21,145,108680,1,0,1:0:0:0:
21,145,108833,2,0,P|24:181|48:208,1,69.3499981481553,0|0,1:0|1:0,0:0:0:0:
131,253,109139,1,10,0:0:0:0:
131,253,109292,1,2,0:0:0:0:
154,347,109445,6,0,P|180:337|221:326,1,69.3499981481553,0|2,1:0|0:0,0:0:0:0:
275,249,109751,2,0,P|265:223|254:182,1,69.3499981481553,10|0,0:0|1:0,0:0:0:0:
170,146,110057,2,0,P|178:112|190:79,1,69.3499981481553,2|0,0:0|1:0,0:0:0:0:
263,27,110364,2,0,P|297:19|330:7,1,69.3499981481553,10|2,0:0|0:0,0:0:0:0:
361,20,110593,5,2,0:0:0:0:
361,20,110670,2,0,P|388:47|384:91,1,69.3499981481553,0|2,1:0|0:0,0:0:0:0:
488,92,110976,1,10,0:0:0:0:
488,92,111129,1,0,1:0:0:0:
488,92,111282,2,8,P|478:128|438:147,1,69.3499981481553,2|0,0:0|1:0,0:0:0:0:
361,163,111588,2,0,P|355:179|351:196,3,34.6749990740776,10|2|2|2,0:0|0:0|0:0|0:0,0:0:0:0:
370,225,111894,6,0,P|403:233|436:245,1,69.3499981481553,0|2,1:0|0:0,0:0:0:0:
497,321,112200,2,0,P|471:331|430:342,1,69.3499981481553,10|0,0:0|1:0,0:0:0:0:
351,384,112506,2,0,P|342:350|330:317,1,69.3499981481553,2|0,0:0|1:0,0:0:0:0:
236,292,112812,1,10,0:0:0:0:
57,314,113119,6,0,P|21:301|5:274,1,69.3499981481553,4|2,1:0|0:0,0:0:0:0:
12,178,113425,2,0,P|5:140|20:113,1,69.3499981481553,10|0,0:0|1:0,0:0:0:0:
107,72,113731,2,0,P|135:47|166:46,1,69.3499981481553,2|0,0:0|1:0,0:0:0:0:
169,139,114037,1,10,0:0:0:0:
169,139,114190,1,2,0:0:0:0:
247,98,114343,6,0,P|282:110|298:137,1,69.3499981481553,0|2,1:0|0:0,0:0:0:0:
369,193,114649,2,0,P|375:230|360:257,1,69.3499981481553,10|0,0:0|1:0,0:0:0:0:
347,346,114955,2,0,P|318:370|287:371,1,69.3499981481553,2|0,0:0|1:0,0:0:0:0:
204,340,115261,1,10,0:0:0:0:
234,250,115414,5,2,0:0:0:0:
234,250,115491,1,2,0:0:0:0:
234,250,115568,2,0,P|228:206|223:178,2,69.3499981481553,0|2|10,1:0|0:0|0:0,0:0:0:0:
143,263,116027,1,0,1:0:0:0:
143,263,116180,2,0,P|137:219|132:191,2,69.3499981481553,2|0|10,0:0|1:0|0:0,0:0:0:0:
115,353,116639,1,2,0:0:0:0:
204,340,116792,5,6,1:0:0:0:
204,340,116945,2,0,P|238:334|272:329,1,69.3499981481553,8|8,0:0|0:0,0:0:0:0:
366,371,117251,1,6,3:0:0:0:
366,371,117328,1,6,3:0:0:0:
366,371,117404,1,6,3:0:0:0:
440,320,117557,2,0,P|474:325|508:331,1,69.3499981481553,4|10,3:0|0:0,0:0:0:0:
512,167,118017,6,0,P|491:137|457:126,1,69.3499981481553,6|2,1:0|0:0,0:0:0:0:
380,84,118323,1,10,0:0:0:0:
380,84,118476,1,0,1:0:0:0:
380,84,118629,2,0,P|344:87|317:111,1,69.3499981481553,2|0,0:0|1:0,0:0:0:0:
272,194,118935,1,10,0:0:0:0:
272,194,119088,1,2,0:0:0:0:
217,272,119241,6,0,P|191:262|150:251,1,69.3499981481553,0|2,1:0|0:0,0:0:0:0:
51,258,119547,2,0,P|61:232|72:191,1,69.3499981481553,10|0,0:0|1:0,0:0:0:0:
9,117,119853,2,0,P|42:108|75:96,1,69.3499981481553,2|0,0:0|1:0,0:0:0:0:
148,36,120159,2,0,P|158:62|169:103,1,69.3499981481553,10|2,0:0|0:0,0:0:0:0:
204,119,120389,5,2,0:0:0:0:
204,119,120466,2,0,P|231:92|275:96,1,69.3499981481553,0|2,1:0|0:0,0:0:0:0:
345,50,120772,1,10,0:0:0:0:
345,50,120925,1,0,1:0:0:0:
345,50,121078,2,8,P|381:60|400:100,1,69.3499981481553,2|0,0:0|1:0,0:0:0:0:
331,158,121384,2,0,P|325:174|321:191,3,34.6749990740776,10|2|2|2,0:0|0:0|0:0|0:0,0:0:0:0:
290,208,121690,6,0,P|257:216|224:228,1,69.3499981481553,0|2,1:0|0:0,0:0:0:0:
163,297,121996,2,0,P|195:309|229:317,1,69.3499981481553,10|0,0:0|1:0,0:0:0:0:
305,384,122302,2,0,P|314:350|326:317,1,69.3499981481553,2|0,0:0|1:0,0:0:0:0:
400,377,122608,1,10,0:0:0:0:
507,249,122914,6,0,P|513:211|498:183,1,69.3499981481553,6|2,1:0|0:0,0:0:0:0:
411,143,123221,2,0,P|381:117|350:117,1,69.3499981481553,10|0,0:0|1:0,0:0:0:0:
272,172,123527,2,0,P|236:183|219:210,1,69.3499981481553,2|0,0:0|1:0,0:0:0:0:
299,259,123833,1,10,0:0:0:0:
299,259,123986,1,2,0:0:0:0:
250,337,124139,6,0,P|213:344|186:328,1,69.3499981481553,0|2,1:0|0:0,0:0:0:0:
98,316,124445,2,0,P|74:286|73:256,1,69.3499981481553,10|0,0:0|1:0,0:0:0:0:
40,173,124751,2,0,P|53:137|79:121,1,69.3499981481553,2|0,0:0|1:0,0:0:0:0:
143,64,125057,1,10,0:0:0:0:
237,84,125210,5,0,0:0:0:0:
237,84,125287,1,2,0:0:0:0:
237,84,125364,2,0,P|243:40|248:12,2,69.3499981481553,0|2|10,1:0|0:0|0:0,0:0:0:0:
287,165,125823,1,0,1:0:0:0:
287,165,125976,2,0,P|281:209|276:237,1,69.3499981481553,2|0,0:0|1:0,0:0:0:0:
200,282,126282,2,0,P|202:299|205:316,3,34.6749990740776,10|2|2|2,0:0|0:0|0:0|0:0,0:0:0:0:
209,350,126588,5,6,1:0:0:0:
299,335,126741,2,0,P|333:329|367:324,1,69.3499981481553,0|0,1:0|1:0,0:0:0:0:
460,373,127047,1,6,3:0:0:0:
460,373,127124,1,6,3:0:0:0:
460,373,127200,1,6,3:0:0:0:
477,280,127353,2,0,P|483:246|488:212,1,69.3499981481553,4|10,3:0|0:0,0:0:0:0:
503,122,127659,5,4,3:0:0:0:
503,122,127812,1,6,1:0:0:0:
378,19,128119,1,10,0:0:0:0:
378,19,128272,2,0,P|317:30|295:90,1,124.10000236702,0|0,1:0|1:0,0:0:0:0:
232,149,128731,2,0,P|198:143|168:137,1,62.0500011835098,10|2,0:0|0:0,0:0:0:0:
86,128,129037,5,0,1:0:0:0:
86,128,129190,2,0,P|80:94|75:62,2,62.0500011835098,2|10|0,3:0|0:0|1:0,0:0:0:0:
22,196,129649,2,0,P|10:264|-1:324,1,124.10000236702,0|10,0:0|0:0,0:0:0:0:
154,379,130261,6,0,P|181:360|190:328,1,62.0500011835098,0|2,1:0|0:0,0:0:0:0:
277,326,130568,2,0,P|274:293|250:269,1,62.0500011835098,10|0,0:0|1:0,3:0:0:0:
197,196,130874,2,0,P|177:172|175:141,1,62.0500011835098,2|0,0:0|1:0,3:0:0:0:
262,134,131181,2,0,P|272:105|298:88,1,62.0500011835098,10|2,0:0|0:0,0:0:0:0:
362,149,131486,5,0,1:0:0:0:
362,149,131639,2,0,P|395:160|421:173,2,62.0500011835098,2|10|0,0:0|0:0|1:0,0:0:0:0:
358,236,132098,2,0,P|385:291|404:350,1,124.10000236702,0|10,0:0|0:0,0:0:0:0:
240,321,132710,6,0,P|246:290|251:260,1,62.0500011835098,6|2,1:0|0:0,0:0:0:0:
268,172,133017,2,0,P|261:141|256:111,1,62.0500011835098,10|0,0:0|1:0,0:0:0:0:
188,49,133323,2,0,P|191:33|193:18,3,31.0250005917549,2|2|0|2,0:0|0:0|1:0|0:0,0:0:0:0:
162,13,133629,2,0,P|126:23|106:55,1,62.0500011835098,10|2,0:0|0:0,0:0:0:0:
68,123,133935,5,0,1:0:0:0:
68,123,134088,2,0,P|37:116|7:111,2,62.0500011835098,2|10|0,0:0|0:0|1:0,0:0:0:0:
26,208,134547,2,0,P|34:269|48:329,1,124.10000236702,2|10,0:0|0:0,0:0:0:0:
208,316,135159,6,0,P|211:294|215:273,2,31.0250005917549,0|2|2,1:0|0:0|0:0,0:0:0:0:
307,324,135466,2,0,P|300:293|295:263,1,62.0500011835098,10|0,0:0|1:0,0:0:0:0:
223,197,135772,1,0,0:0:0:0:
223,197,135925,2,0,P|227:166|234:136,1,62.0500011835098,0|10,1:0|0:0,0:0:0:0:
268,56,136231,6,0,P|264:34|260:13,2,31.0250005917549,2|0|6,0:0|0:0|1:0,0:0:0:0:
361,24,136537,1,0,1:0:0:0:
361,24,136690,2,0,P|391:30|421:35,1,62.0500011835098,0|6,1:0|3:0,0:0:0:0:
456,44,136920,1,6,3:0:0:0:
456,44,136996,2,0,P|460:74|467:104,1,62.0500011835098,6|4,3:0|3:0,0:0:0:0:
388,150,137302,1,10,0:0:0:0:
388,150,137455,1,6,3:0:0:0:
420,245,137608,6,0,P|389:238|359:233,1,62.0500011835098,6|2,1:0|0:0,0:0:0:0:
326,316,137915,2,0,P|295:322|265:327,1,62.0500011835098,10|0,0:0|1:0,0:0:0:0:
175,297,138221,2,0,P|159:293|144:291,3,31.0250005917549,2|2|0|2,0:0|0:0|1:0|0:0,0:0:0:0:
113,286,138527,2,0,P|119:255|124:225,1,62.0500011835098,10|2,0:0|0:0,0:0:0:0:
63,148,138833,5,0,1:0:0:0:
63,148,138986,2,0,P|32:154|2:159,2,62.0500011835098,2|10|0,0:0|0:0|1:0,0:0:0:0:
18,69,139445,2,0,P|30:25|112:4,1,124.10000236702,2|10,0:0|0:0,0:0:0:0:
219,103,140057,6,0,P|222:124|226:145,2,31.0250005917549,0|2|2,1:0|0:0|0:0,0:0:0:0:
306,103,140364,2,0,P|311:73|318:43,1,62.0500011835098,10|0,0:0|1:0,0:0:0:0:
397,96,140670,1,2,3:0:0:0:
397,96,140823,2,0,P|401:126|408:156,1,62.0500011835098,0|10,1:0|0:0,0:0:0:0:
323,192,141129,6,0,P|301:195|280:199,2,31.0250005917549,2|0|0,0:0|0:0|1:0,0:0:0:0:
352,276,141435,2,0,P|321:280|291:287,1,62.0500011835098,2|10,0:0|0:0,0:0:0:0:
342,362,141741,2,0,P|403:370|463:384,1,124.10000236702,0|0,1:0|1:0,0:0:0:0:
487,297,142200,1,10,0:0:0:0:
427,140,142506,6,0,L|434:104,4,31.0250005917549,6|2|2|2|10,1:0|0:0|0:0|0:0|0:0,0:0:0:0:
335,148,142966,1,0,1:0:0:0:
335,148,143042,1,2,0:0:0:0:
335,148,143119,2,0,L|342:184,4,31.0250005917549,2|2|0|2|10,0:0|0:0|1:0|0:0|0:0,0:0:0:0:
245,186,143578,5,2,0:0:0:0:
245,186,143654,1,2,0:0:0:0:
245,186,143731,2,0,L|209:193,3,31.0250005917549,0|2|2|2,1:0|0:0|0:0|0:0,0:0:0:0:
191,212,144037,2,0,L|155:205,3,31.0250005917549,10|2|0|2,0:0|0:0|1:0|0:0,0:0:0:0:
131,195,144343,2,0,L|95:202,3,31.0250005917549,2|2|0|2,0:0|0:0|1:0|0:0,0:0:0:0:
69,206,144649,1,10,0:0:0:0:
7,55,144955,6,0,L|12:24,4,31.0250005917549,0|2|2|2|10,1:0|0:0|0:0|0:0|0:0,0:0:0:0:
101,81,145415,1,0,1:0:0:0:
101,81,145491,1,2,0:0:0:0:
101,81,145568,2,0,L|94:45,4,31.0250005917549,2|2|0|2|10,0:0|0:0|1:0|0:0|0:0,0:0:0:0:
191,51,146027,5,2,0:0:0:0:
191,51,146103,1,2,0:0:0:0:
191,51,146180,1,6,1:0:0:0:
273,9,146333,2,0,P|306:18|336:25,1,62.0500011835098,0|0,1:0|1:0,0:0:0:0:
427,61,146639,5,6,3:0:0:0:
427,61,146715,1,6,3:0:0:0:
427,61,146792,2,0,L|461:49,3,31.0250005917549,6|2|4|4,3:0|0:0|3:0|3:0,0:0:0:0:
477,73,147098,2,0,L|464:133,1,62.0500011835098,10|4,0:0|3:0,0:0:0:0:
365,131,147404,6,0,P|319:148|297:211,1,109.500004177094,6|10,1:0|0:0,0:0:0:0:
207,176,147863,2,0,P|198:224|242:274,1,109.500004177094,0|0,1:0|1:0,0:0:0:0:
328,290,148323,1,10,0:0:0:0:
166,344,148629,2,0,L|110:363,1,54.7500020885468,0|0,1:0|0:0,0:0:0:0:
27,336,148935,2,0,L|46:272,1,54.7500020885468,10|0,0:0|1:0,0:0:0:0:
16,193,149241,2,0,P|70:177|86:122,1,109.500004177094,0|10,0:0|0:0,0:0:0:0:
188,5,149853,6,0,P|249:20|301:25,1,109.500004177094,0|10,1:0|0:0,0:0:0:0:
280,119,150312,2,0,P|219:104|167:99,1,109.500004177094,0|0,1:0|1:0,0:0:0:0:
100,44,150772,1,10,0:0:0:0:
166,192,151078,6,0,L|213:294,1,109.500004177094,0|10,1:0|0:0,0:0:0:0:
182,376,151537,1,0,1:0:0:0:
343,345,151843,2,0,L|369:288,1,54.7500020885468,0|10,1:0|0:0,0:0:0:0:
504,206,152302,6,0,P|494:149|442:125,1,109.500004177094,6|10,1:0|0:0,0:0:0:0:
386,59,152761,2,0,P|329:69|305:121,1,109.500004177094,0|0,1:0|1:0,0:0:0:0:
235,169,153221,1,10,0:0:0:0:
123,65,153527,2,0,L|79:30,1,54.7500020885468,0|0,1:0|0:0,0:0:0:0:
21,94,153833,2,0,L|47:159,1,54.7500020885468,10|0,0:0|1:0,0:0:0:0:
16,230,154139,2,0,P|67:246|88:294,1,109.500004177094,2|10,0:0|0:0,0:0:0:0:
223,384,154751,6,0,P|228:323|240:270,1,109.500004177094,0|10,1:0|0:0,0:0:0:0:
285,199,155210,2,0,P|279:138|268:85,1,109.500004177094,0|0,1:0|1:0,0:0:0:0:
247,4,155670,1,10,0:0:0:0:
414,39,155976,5,6,1:0:0:0:
474,109,156129,2,0,P|463:137|453:167,1,54.7500020885468,0|0,1:0|1:0,0:0:0:0:
367,197,156435,1,6,3:0:0:0:
367,197,156511,1,6,3:0:0:0:
367,197,156588,1,6,3:0:0:0:
439,257,156741,1,4,3:0:0:0:
439,257,156894,2,0,P|450:285|460:315,1,54.7500020885468,10|6,0:0|1:3,0:0:0:0:
256,192,157124,12,2,160009,0:0:0:0:
