osu file format v14

[General]
AudioFilename: happy30 - You spin my world.mp3
AudioLeadIn: 0
PreviewTime: 19981
Countdown: 0
SampleSet: Soft
StackLeniency: 0.7
Mode: 0
LetterboxInBreaks: 0
WidescreenStoryboard: 1

[Editor]
Bookmarks: 10261,59241,78833,88629,108221,127812,147404,157047
DistanceSpacing: 2.3
BeatDivisor: 4
GridSize: 4
TimelineZoom: 1

[Metadata]
Title:You spin my world
TitleUnicode:You spin my world
Artist:happy30
ArtistUnicode:happy30
Creator:Kyouren
Version:Airin's Insane
Source:
Tags:happythirsty happythirty Jordi van der Hulst As the wind blows EP extended play gokugohan12468 kittyadventure airincat -_ascended_- -ascended- ascended addy2607 kaedeharakazuha kaedehara kazuha renumi instrumental piano mappers' guild mpg fa featured artist electronic classical
BeatmapID:3855504
BeatmapSetID:1873680

[Difficulty]
HPDrainRate:5
CircleSize:4
OverallDifficulty:8
ApproachRate:9
SliderMultiplier:1.7
SliderTickRate:1

[Events]
//Background and Video events
0,0,"20220617_090448.jpg",0,0
//Break Periods
//Storyboard Layer 0 (Background)
//Storyboard Layer 1 (Fail)
//Storyboard Layer 2 (Pass)
//Storyboard Layer 3 (Foreground)
//Storyboard Layer 4 (Overlay)
//Storyboard Sound Samples

[TimingPoints]
466,306.122448979592,4,2,0,50,1,0
466,-166.666666666667,4,2,0,50,0,0
1537,-400,4,2,0,50,0,0
1996,-166.666666666667,4,2,0,50,0,0
3986,-400,4,2,0,50,0,0
4445,-166.666666666667,4,2,0,50,0,0
6435,-400,4,2,0,50,0,0
6894,-166.666666666667,4,2,0,50,0,0
10261,-142.857142857143,4,2,0,35,0,0
18833,-200,4,2,0,35,0,0
19981,-100,4,2,0,35,0,0
20057,-117.647058823529,4,2,0,65,0,0
20210,-117.647058823529,4,2,0,50,0,0
21052,-117.647058823529,4,2,0,5,0,0
21129,-117.647058823529,4,2,0,50,0,0
21205,-117.647058823529,4,2,0,5,0,0
21282,-117.647058823529,4,2,0,50,0,0
39649,-111.111111111111,4,2,0,75,0,0
59241,-125,4,2,0,45,0,0
76384,-125,4,2,0,65,0,0
77608,-125,4,2,0,80,0,0
78833,-125,4,2,0,70,0,0
83731,-166.666666666667,4,2,0,55,0,0
87404,-125,4,2,0,80,0,0
88629,-100,4,2,0,70,0,0
97200,-100,4,2,0,80,0,0
98425,-100,4,2,0,70,0,0
103323,-125,4,2,0,60,0,0
106996,-125,4,2,0,90,0,0
108221,-100,4,2,0,80,0,0
127736,-100,4,2,0,70,0,0
136384,-100,4,2,0,90,0,0
137608,-111.111111111111,4,2,0,80,0,0
146180,-111.111111111111,4,2,0,90,0,0
147404,-125,4,2,0,80,0,0
147710,-125,4,2,0,70,0,0
155976,-125,4,2,0,90,0,0
157047,-125,4,2,0,70,0,0
157124,-125,4,2,0,15,0,0
160009,306.122448979592,4,2,0,15,1,0

[Colours]
Combo1 : 117,227,197
Combo2 : 173,255,95
Combo3 : 17,254,176
Combo4 : 113,173,223

[HitObjects]
62,266,10261,5,4,1:0:0:0:
62,266,10568,2,0,L|39:185,1,59.4999981842042,2|2,0:0|0:0,0:0:0:0:
159,166,10874,2,0,L|182:247,1,59.4999981842042,2|2,0:0|0:0,0:0:0:0:
148,310,11180,1,2,0:0:0:0:
148,310,11333,1,2,0:0:0:0:
148,310,11792,6,0,L|212:291,1,59.4999981842042,2|2,0:0|0:0,0:0:0:0:
335,302,12098,1,2,0:0:0:0:
365,338,12251,1,2,0:0:0:0:
331,369,12404,1,2,0:0:0:0:
300,338,12557,1,2,0:0:0:0:
429,290,12710,6,0,P|457:228|464:161,1,118.999996368408,2|2,0:0|0:0,0:0:0:0:
464,178,13323,1,2,0:0:0:0:
375,148,13476,2,0,P|346:209|339:276,1,118.999996368408,2|2,0:0|0:0,0:0:0:0:
340,265,14088,1,2,0:0:0:0:
281,313,14241,2,0,P|252:308|222:300,1,59.4999981842042,2|2,0:0|0:0,0:0:0:0:
135,343,14547,2,0,P|77:328|13:318,1,118.999996368408,2|0,0:0|0:0,0:0:0:0:
18,318,15159,5,2,0:0:0:0:
55,249,15312,1,2,0:0:0:0:
0,193,15466,2,0,P|9:124|28:63,2,118.999996368408,2|2|2,0:0|0:0|0:0,0:0:0:0:
55,249,16231,1,2,0:0:0:0:
206,198,16537,1,2,0:0:0:0:
265,253,16690,2,0,P|262:308|246:370,2,118.999996368408,2|2|2,0:0|0:0|0:0,0:0:0:0:
206,198,17455,1,2,0:0:0:0:
246,128,17608,6,0,P|276:120|305:113,1,59.4999981842042,2|0,0:0|0:0,0:0:0:0:
375,145,17914,1,2,0:0:0:0:
375,145,18068,1,2,0:0:0:0:
428,84,18221,2,0,P|424:53|409:17,1,59.4999981842042,2|0,0:0|0:0,0:0:0:0:
499,0,18527,2,0,P|502:30|518:67,1,59.4999981842042,2|2,0:0|0:0,0:0:0:0:
512,57,18833,6,0,P|498:109|491:155,1,85,6|2,1:0|0:0,0:0:0:0:
383,208,19292,1,2,0:0:0:0:
375,211,19445,2,0,L|385:252,1,42.5,2|2,0:0|0:0,0:0:0:0:
485,350,19751,2,0,L|498:295,1,42.5,2|2,0:0|0:0,0:0:0:0:
308,331,20057,6,0,P|236:342|167:363,1,144.500002756119,4|2,1:0|0:0,0:0:0:0:
82,295,20517,1,2,0:0:0:0:
23,350,20670,2,0,P|-14:290|0:220,1,144.500002756119,10|2,0:0|0:0,0:0:0:0:
182,84,21129,1,4,3:0:0:0:
115,53,21282,2,0,P|97:123|85:194,1,144.500002756119,2|4,0:0|3:0,0:0:0:0:
150,261,21741,1,2,0:0:0:0:
280,187,21894,1,10,0:0:0:0:
280,187,22200,2,0,P|289:221|294:262,1,72.2500013780594,2|0,0:0|0:0,0:0:0:0:
127,384,22506,6,0,P|174:332|244:331,1,144.500002756119,0|2,1:0|0:0,0:0:0:0:
448,292,22966,1,2,0:0:0:0:
468,362,23119,2,0,P|398:367|350:317,1,144.500002756119,10|2,0:0|0:0,0:0:0:0:
393,196,23578,1,4,3:0:0:0:
469,198,23731,2,0,P|480:163|488:128,1,72.2500013780594,2|0,0:0|0:0,0:0:0:0:
402,41,24037,1,4,3:0:0:0:
402,41,24190,1,2,0:0:0:0:
324,84,24343,2,0,P|245:71|185:45,2,144.500002756119,10|2|4,0:0|0:0|1:0,0:0:0:0:
324,84,25261,6,0,P|312:113|304:156,1,72.2500013780594,2|2,0:0|0:0,0:0:0:0:
374,300,25568,2,0,P|420:247|415:176,1,144.500002756119,10|2,0:0|0:0,0:0:0:0:
222,124,26027,1,4,3:0:0:0:
184,189,26180,2,0,P|114:209|43:216,1,144.500002756119,2|4,0:0|3:0,0:0:0:0:
9,142,26639,1,2,0:0:0:0:
91,40,26792,1,10,0:0:0:0:
91,40,27098,2,0,P|98:75|105:115,1,72.2500013780594,2|0,0:0|0:0,0:0:0:0:
151,329,27404,6,0,P|164:258|183:188,1,144.500002756119,0|2,1:0|0:0,0:0:0:0:
286,96,27863,1,2,0:0:0:0:
344,146,28017,2,0,P|412:163|472:126,1,144.500002756119,10|2,0:0|0:0,0:0:0:0:
423,69,28476,1,4,3:0:0:0:
387,248,28629,2,0,P|315:256|248:283,1,144.500002756119,2|4,0:0|3:0,0:0:0:0:
186,224,29088,1,2,0:0:0:0:
102,371,29241,2,0,P|56:317|66:247,2,144.500002756119,10|2|4,0:0|0:0|1:0,0:0:0:0:
102,371,30159,5,2,0:0:0:0:
162,319,30312,1,2,0:0:0:0:
249,376,30466,2,0,P|302:358|394:341,1,144.500002756119,10|2,0:0|0:0,0:0:0:0:
438,243,30925,1,4,3:0:0:0:
503,292,31078,1,2,0:0:0:0:
503,292,31384,1,4,3:0:0:0:
465,360,31537,1,2,0:0:0:0:
335,274,31690,1,10,0:0:0:0:
335,274,31996,2,0,P|299:283|262:296,1,72.2500013780594,2|0,0:0|0:0,0:0:0:0:
349,181,32302,6,0,P|324:116|310:39,1,144.500002756119,0|2,1:0|0:0,0:0:0:0:
310,42,32761,1,2,0:0:0:0:
424,132,32914,2,0,P|416:98|402:58,1,72.2500013780594,10|0,0:0|0:0,0:0:0:0:
231,106,33221,2,0,P|238:139|253:180,1,72.2500013780594,2|4,0:0|3:0,0:0:0:0:
384,257,33527,6,0,P|441:215|512:219,1,144.500002756119,2|4,0:0|3:0,0:0:0:0:
501,296,33986,1,2,0:0:0:0:
344,358,34139,2,0,B|274:354|274:324|189:317,2,144.500002756119,10|2|4,0:0|0:0|1:0,0:0:0:0:
345,358,35057,5,2,0:0:0:0:
354,278,35210,1,2,0:0:0:0:
244,226,35363,2,0,P|178:243|93:261,1,144.500002756119,10|2,0:0|0:0,0:0:0:0:
84,359,35823,1,4,3:0:0:0:
9,345,35976,2,0,P|-17:263|27:207,1,144.500002756119,2|4,0:0|3:0,0:0:0:0:
96,172,36435,1,2,0:0:0:0:
5,68,36588,1,10,0:0:0:0:
5,68,36894,2,0,P|40:59|74:50,1,72.2500013780594,2|0,0:0|0:0,0:0:0:0:
280,158,37200,6,0,P|233:107|162:107,1,144.500002756119,0|2,1:0|0:0,0:0:0:0:
162,107,37659,1,2,0:0:0:0:
329,68,37812,2,0,P|335:34|353:-5,1,72.2500013780594,10|0,0:0|0:0,0:0:0:0:
203,190,38119,2,0,P|213:224|217:264,1,72.2500013780594,2|4,0:0|3:0,0:0:0:0:
371,188,38425,6,0,B|431:191|439:227|509:244,1,144.500002756119,2|4,0:0|3:0,0:0:0:0:
510,162,38884,1,0,0:0:0:0:
381,279,39037,2,0,P|345:283|310:293,1,72.2500013780594,10|0,0:0|0:0,0:0:0:0:
273,103,39343,2,0,P|308:98|343:88,1,72.2500013780594,2|0,0:0|0:0,0:0:0:0:
208,382,39649,6,0,P|196:345|184:309,1,76.4999976654053,6|2,1:0|0:0,0:0:0:0:
66,297,39955,2,0,P|76:260|85:223,1,76.4999976654053,2|2,0:0|0:0,0:0:0:0:
138,21,40261,2,0,P|148:57|157:94,1,76.4999976654053,10|2,0:0|0:0,0:0:0:0:
95,143,40568,1,2,0:0:0:0:
95,143,40721,1,4,3:0:0:0:
235,42,40874,5,2,0:0:0:0:
298,90,41027,1,2,0:0:0:0:
356,38,41180,2,0,P|393:30|436:18,1,76.4999976654053,4|2,3:0|0:0,0:0:0:0:
510,163,41486,5,10,0:0:0:0:
445,120,41639,1,2,0:0:0:0:
373,153,41792,1,2,0:0:0:0:
366,237,41945,1,2,0:0:0:0:
366,237,42022,1,2,0:0:0:0:
366,237,42098,2,0,P|376:271|387:321,1,76.4999976654053,2|2,1:0|0:0,0:0:0:0:
489,382,42404,2,0,P|495:348|507:302,1,76.4999976654053,2|2,0:0|0:0,0:0:0:0:
260,364,42710,6,0,P|225:371|185:382,1,76.4999976654053,10|2,0:0|0:0,0:0:0:0:
139,256,43017,1,2,0:0:0:0:
139,256,43093,1,2,0:0:0:0:
139,256,43170,1,4,3:0:0:0:
139,256,43246,1,2,0:0:0:0:
139,256,43323,6,0,P|178:246|217:234,1,76.4999976654053,2|2,0:0|0:0,0:0:0:0:
323,105,43629,2,0,P|283:94|249:84,1,76.4999976654053,4|2,3:0|0:0,0:0:0:0:
81,80,43935,1,10,0:0:0:0:
140,131,44088,1,2,0:0:0:0:
168,53,44241,1,2,0:0:0:0:
112,0,44394,1,2,0:0:0:0:
21,159,44547,6,0,P|33:195|43:232,1,76.4999976654053,0|2,1:0|0:0,0:0:0:0:
164,366,44853,1,2,0:0:0:0:
178,292,45006,1,2,0:0:0:0:
93,338,45159,2,0,L|7:358,1,76.4999976654053,10|2,0:0|0:0,0:0:0:0:
252,344,45466,2,0,L|338:324,1,76.4999976654053,2|4,0:0|3:0,0:0:0:0:
168,197,45772,5,2,0:0:0:0:
214,117,45925,1,2,0:0:0:0:
279,156,46078,1,4,3:0:0:0:
214,117,46231,1,2,0:0:0:0:
331,49,46384,2,0,L|407:63,1,76.4999976654053,10|2,0:0|0:0,0:0:0:0:
467,116,46690,1,2,0:0:0:0:
363,237,46843,1,2,0:0:0:0:
363,237,46920,1,2,0:0:0:0:
363,237,46996,6,0,P|373:200|383:159,1,76.4999976654053,0|2,1:0|0:0,0:0:0:0:
488,274,47302,2,0,P|496:236|507:200,1,76.4999976654053,2|2,0:0|0:0,0:0:0:0:
279,324,47608,2,0,P|268:290|252:245,1,76.4999976654053,10|2,0:0|0:0,0:0:0:0:
387,384,47914,1,2,0:0:0:0:
387,384,47991,1,2,0:0:0:0:
387,384,48068,1,4,3:0:0:0:
387,384,48144,1,2,0:0:0:0:
387,384,48221,6,0,P|422:371|472:362,1,76.4999976654053,2|2,0:0|0:0,0:0:0:0:
153,267,48527,2,0,P|116:276|72:288,1,76.4999976654053,4|2,3:0|0:0,0:0:0:0:
247,61,48833,1,10,0:0:0:0:
310,132,48986,1,0,0:0:0:0:
241,212,49139,1,2,0:0:0:0:
175,149,49292,1,2,0:0:0:0:
342,52,49445,6,0,P|379:61|417:71,1,76.4999976654053,4|2,1:0|0:0,0:0:0:0:
506,176,49751,2,0,P|468:184|431:194,1,76.4999976654053,2|2,0:0|0:0,0:0:0:0:
357,280,50057,2,0,P|367:321|379:366,1,76.4999976654053,10|2,0:0|0:0,0:0:0:0:
457,360,50363,1,2,0:0:0:0:
457,360,50517,1,4,3:0:0:0:
279,318,50670,5,2,0:0:0:0:
218,370,50823,1,2,0:0:0:0:
147,339,50976,2,0,P|137:303|125:257,1,76.4999976654053,4|2,3:0|0:0,0:0:0:0:
223,154,51282,5,10,0:0:0:0:
288,192,51435,1,2,0:0:0:0:
355,151,51588,1,2,0:0:0:0:
353,78,51741,1,2,0:0:0:0:
353,78,51818,1,2,0:0:0:0:
353,78,51894,2,0,P|317:72|271:61,1,76.4999976654053,0|2,1:0|0:0,0:0:0:0:
416,206,52200,2,0,P|457:198|497:185,1,76.4999976654053,2|2,0:0|0:0,0:0:0:0:
320,368,52506,6,0,P|308:336|298:288,1,76.4999976654053,10|2,0:0|0:0,0:0:0:0:
151,218,52812,1,2,0:0:0:0:
151,218,52889,1,2,0:0:0:0:
151,218,52966,1,4,3:0:0:0:
151,218,53042,1,2,0:0:0:0:
151,218,53119,6,0,P|162:249|173:298,1,76.4999976654053,2|2,0:0|0:0,0:0:0:0:
34,384,53425,1,4,3:0:0:0:
61,316,53578,1,2,0:0:0:0:
182,384,53731,2,0,P|218:369|267:362,1,76.4999976654053,10|2,0:0|0:0,0:0:0:0:
388,249,54037,2,0,P|350:241|314:227,1,76.4999976654053,2|2,0:0|0:0,0:0:0:0:
193,92,54343,5,0,1:0:0:0:
207,166,54496,1,2,0:0:0:0:
287,119,54649,1,2,0:0:0:0:
231,19,54802,1,2,0:0:0:0:
101,87,54955,2,0,P|90:122|83:174,1,76.4999976654053,10|2,0:0|0:0,0:0:0:0:
196,330,55261,2,0,P|207:284|211:252,1,76.4999976654053,2|4,0:0|3:0,0:0:0:0:
0,227,55568,5,2,0:0:0:0:
57,284,55721,1,2,0:0:0:0:
125,245,55874,1,4,3:0:0:0:
57,284,56027,1,2,0:0:0:0:
161,150,56180,2,0,P|197:159|235:166,1,76.4999976654053,10|2,0:0|0:0,0:0:0:0:
384,272,56486,1,2,0:0:0:0:
306,335,56639,1,2,0:0:0:0:
306,335,56716,1,2,0:0:0:0:
306,335,56792,6,0,L|290:260,1,76.4999976654053,0|2,1:0|0:0,0:0:0:0:
462,140,57098,2,0,P|472:174|481:224,1,76.4999976654053,2|2,0:0|0:0,0:0:0:0:
195,72,57404,2,0,P|232:66|270:58,1,76.4999976654053,10|2,0:0|0:0,0:0:0:0:
344,189,57710,1,2,0:0:0:0:
344,189,57787,1,2,0:0:0:0:
344,189,57863,1,4,3:0:0:0:
344,189,57940,1,2,0:0:0:0:
344,189,58017,6,0,P|354:146|365:108,1,76.4999976654053,2|2,0:0|0:0,0:0:0:0:
72,297,58323,2,0,P|58:257|43:222,1,76.4999976654053,4|2,3:0|0:0,0:0:0:0:
163,108,58629,1,10,0:0:0:0:
237,162,58782,1,2,0:0:0:0:
183,259,58935,1,2,0:0:0:0:
129,204,59088,1,2,0:0:0:0:
290,292,59241,6,0,P|372:315|436:337,2,136,4|2|10,1:0|0:0|0:0,0:0:0:0:
290,292,60312,1,0,1:0:0:0:
512,117,60772,2,0,P|493:182|485:249,2,136,0|10|2,1:0|0:0|0:0,0:0:0:0:
512,117,61690,5,0,1:0:0:0:
378,196,61996,2,0,P|341:186|299:173,1,68,2|2,0:0|0:0,0:0:0:0:
217,213,62302,2,0,P|180:154|201:89,1,136,10|2,0:0|0:0,0:0:0:0:
273,68,62761,1,0,1:0:0:0:
273,68,63221,2,0,P|218:56|140:35,2,136,0|10|2,1:0|0:0|0:0,0:0:0:0:
273,68,64139,5,0,1:0:0:0:
73,281,64445,2,0,P|64:250|52:213,1,68,2|2,0:0|0:0,0:0:0:0:
100,149,64751,2,0,P|165:140|213:188,1,136,10|2,0:0|0:0,0:0:0:0:
215,263,65210,1,0,1:0:0:0:
215,263,65670,2,0,P|272:246|358:238,2,136,0|10|2,1:0|0:0|0:0,0:0:0:0:
215,263,66588,5,0,1:0:0:0:
476,380,66894,2,0,P|484:347|495:306,1,68,2|2,0:0|0:0,0:0:0:0:
434,258,67200,2,0,B|422:185|400:205|382:133,1,136,10|2,0:0|0:0,0:0:0:0:
418,59,67659,1,0,1:0:0:0:
418,59,68119,2,0,P|384:51|352:40,1,68,0|2,1:0|0:0,0:0:0:0:
179,161,68425,2,0,P|225:113|296:119,2,136,10|2|0,0:0|0:0|1:0,0:0:0:0:
179,161,69343,6,0,P|189:198|200:236,1,68,2|2,0:0|0:0,0:0:0:0:
93,310,69649,2,0,P|72:243|57:176,1,136,10|2,0:0|0:0,0:0:0:0:
96,102,70108,1,0,1:0:0:0:
96,102,70568,2,0,P|131:92|169:81,1,68,0|2,1:0|0:0,0:0:0:0:
363,31,70874,2,0,P|297:12|230:0,1,136,10|2,0:0|0:0,0:0:0:0:
232,4,71486,5,0,1:0:0:0:
357,237,71792,2,0,P|362:203|373:163,1,68,2|2,0:0|0:0,0:0:0:0:
271,173,72098,2,0,P|205:173|165:225,1,136,10|2,0:0|0:0,0:0:0:0:
201,298,72557,1,0,1:0:0:0:
201,298,73017,2,0,P|234:288|277:281,1,68,0|2,1:0|0:0,0:0:0:0:
64,208,73323,2,0,P|81:269|97:350,2,136,10|2|0,0:0|0:0|1:0,0:0:0:0:
64,208,74241,6,0,P|29:218|-7:227,1,68,2|0,0:0|0:0,0:0:0:0:
170,273,74547,2,0,P|210:212|204:145,1,136,10|0,0:0|0:0,0:0:0:0:
149,88,75006,1,0,1:0:0:0:
149,88,75466,2,0,P|116:81|74:74,1,68,0|2,1:0|0:0,0:0:0:0:
257,218,75772,5,10,0:0:0:0:
334,178,75925,1,10,0:0:0:0:
410,137,76078,1,10,0:0:0:0:
480,96,76231,1,10,0:0:0:0:
410,137,76384,6,0,P|424:182|452:270,1,136,4|10,1:0|0:0,0:0:0:0:
375,360,76843,1,4,3:0:0:0:
292,351,76996,2,0,L|269:286,1,68,2|4,0:0|3:0,0:0:0:0:
321,172,77302,1,10,0:0:0:0:
321,172,77455,1,2,0:0:0:0:
181,284,77608,6,0,L|116:303,1,68,4|0,1:0|1:0,0:0:0:0:
9,153,77914,1,0,1:0:0:0:
93,202,78068,1,6,3:0:0:0:
93,202,78144,1,6,3:0:0:0:
93,202,78221,1,6,3:0:0:0:
150,143,78374,1,4,3:0:0:0:
7,238,78527,1,10,0:0:0:0:
150,143,78680,1,4,3:0:0:0:
7,238,78833,5,4,1:0:0:0:
7,238,79139,2,0,P|19:271|26:307,1,68,10|4,0:0|3:0,0:0:0:0:
233,370,79445,1,2,0:0:0:0:
144,354,79598,1,4,3:0:0:0:
178,272,79751,2,0,P|206:259|253:249,1,68,10|2,0:0|0:0,0:0:0:0:
452,341,80057,5,4,3:0:0:0:
452,341,80363,2,0,P|420:354|387:358,1,68,10|4,0:0|3:0,0:0:0:0:
353,204,80670,1,2,0:0:0:0:
353,204,80823,1,4,3:0:0:0:
437,241,80976,1,10,0:0:0:0:
475,166,81129,1,2,0:0:0:0:
381,93,81282,6,0,P|318:111|244:122,1,136,4|10,3:0|0:0,0:0:0:0:
248,121,81741,1,4,3:0:0:0:
127,23,81894,1,2,3:0:0:0:
127,23,82047,2,0,P|138:59|148:99,1,68,2|10,0:0|0:0,0:0:0:0:
7,236,82353,2,0,P|6:168|62:125,1,136,2|2,0:0|0:0,0:0:0:0:
126,177,82812,1,10,0:0:0:0:
54,126,82966,1,4,3:0:0:0:
126,177,83119,2,0,P|164:190|209:198,1,68,0|4,0:0|3:0,0:0:0:0:
347,113,83425,2,0,P|313:116|280:124,1,68,10|2,0:0|0:0,0:0:0:0:
252,304,83731,5,6,1:0:0:0:
327,233,83884,1,2,0:0:0:0:
252,304,84037,2,0,P|261:332|267:367,1,50.9999984436036,2|4,0:0|3:0,0:0:0:0:
429,314,84343,2,0,P|419:285|411:247,1,50.9999984436036,2|4,0:0|3:0,0:0:0:0:
451,83,84649,1,2,0:0:0:0:
512,133,84802,6,0,P|464:171|406:167,1,101.999996887207,2|2,0:0|3:0,0:0:0:0:
334,133,85261,2,0,P|337:93|347:60,1,50.9999984436036,2|4,0:0|3:0,0:0:0:0:
247,118,85568,2,0,P|250:78|260:45,1,50.9999984436036,2|4,0:0|3:0,0:0:0:0:
282,215,85874,1,2,0:0:0:0:
282,215,86027,1,2,0:0:0:0:
183,217,86180,6,0,P|148:208|119:201,1,50.9999984436036,4|2,3:0|0:0,0:0:0:0:
12,134,86486,1,2,0:0:0:0:
81,90,86639,1,4,3:0:0:0:
12,134,86792,2,0,L|-5:199,1,50.9999984436036,2|4,3:0|3:0,0:0:0:0:
46,345,87098,2,0,L|62:279,1,50.9999984436036,2|2,0:0|0:0,0:0:0:0:
231,207,87404,6,0,L|300:220,1,68,4|0,1:0|1:0,0:0:0:0:
387,272,87710,1,0,1:0:0:0:
313,345,87863,1,6,3:0:0:0:
313,345,87940,1,6,3:0:0:0:
313,345,88017,1,6,3:0:0:0:
383,184,88170,1,4,3:0:0:0:
487,319,88323,1,10,0:0:0:0:
383,184,88476,1,4,3:0:0:0:
222,286,88629,6,0,P|155:277|95:192,1,170,4|10,1:0|0:0,0:0:0:0:
96,199,89088,1,0,1:0:0:0:
185,4,89241,2,0,P|200:87|211:171,1,170,2|10,0:0|0:0,0:0:0:0:
292,85,89700,1,2,0:0:0:0:
102,49,89853,1,2,1:2:0:0:
102,49,90159,2,0,P|70:59|16:66,1,85,10|0,0:0|1:0,0:0:0:0:
211,171,90466,2,0,P|287:128|365:158,2,170,2|10|0,0:0|0:0|1:0,0:0:0:0:
211,171,91384,5,10,0:0:0:0:
155,274,91537,1,0,1:0:0:0:
69,223,91690,2,0,P|78:182|84:135,1,85,2|0,0:0|1:0,0:0:0:0:
248,359,91996,2,0,P|253:316|262:275,1,85,10|0,0:0|0:0,0:0:0:0:
0,384,92302,6,0,P|63:332|144:348,1,170,0|10,1:0|0:0,0:0:0:0:
144,348,92761,1,0,1:0:0:0:
262,275,92914,2,0,P|252:237|242:191,1,85,0|0,0:0|1:0,0:0:0:0:
87,148,93221,2,0,P|99:185|110:233,1,85,10|2,0:0|0:0,0:0:0:0:
343,235,93527,6,0,B|419:221|405:177|492:152,1,170,4|10,1:0|0:0,0:0:0:0:
509,231,93986,1,0,1:0:0:0:
334,137,94139,2,0,P|314:57|371:0,1,170,2|10,0:0|0:0,0:0:0:0:
416,74,94598,1,2,0:0:0:0:
228,54,94751,1,0,1:0:0:0:
228,54,95057,2,0,P|212:95|208:141,1,85,10|0,0:0|1:0,0:0:0:0:
309,240,95363,2,0,P|324:199|327:148,1,85,2|0,0:0|1:0,0:0:0:0:
100,103,95670,2,0,P|84:142|81:193,1,85,10|0,0:0|0:0,0:0:0:0:
238,384,95976,6,0,B|227:295|172:322|164:235,1,170,0|10,1:0|0:0,0:0:0:0:
164,236,96435,1,0,1:0:0:0:
125,359,96588,2,0,P|85:374|43:383,1,85,2|0,0:0|1:0,0:0:0:0:
283,234,96894,2,0,P|338:240|414:268,1,127.5,10|0,0:0|0:0,0:0:0:0:
405,263,97200,6,0,P|416:228|429:176,1,85,4|0,1:0|1:0,0:0:0:0:
377,12,97506,1,0,1:0:0:0:
338,83,97659,1,6,3:0:0:0:
338,83,97736,1,6,3:0:0:0:
338,83,97812,1,6,3:0:0:0:
426,101,97966,1,4,3:0:0:0:
306,163,98119,1,10,0:0:0:0:
426,101,98272,1,4,3:0:0:0:
306,163,98425,6,0,P|216:149|127:118,1,170,4|10,1:0|0:0,0:0:0:0:
113,47,98884,1,0,1:0:0:0:
0,154,99037,2,0,P|8:112|21:72,1,85,2|0,0:0|1:0,0:0:0:0:
99,206,99343,1,10,0:0:0:0:
99,206,99496,1,2,0:0:0:0:
0,357,99649,6,0,P|58:293|137:315,1,170,0|10,1:0|0:0,0:0:0:0:
204,368,100108,1,0,1:0:0:0:
297,282,100261,2,0,P|306:239|312:198,1,85,2|0,0:0|1:0,0:0:0:0:
125,106,100568,2,0,P|204:127|272:81,2,170,10|0|10,0:0|1:0|0:0,0:0:0:0:
161,40,101333,1,0,1:0:0:0:
229,214,101486,2,0,P|271:203|318:196,1,85,2|0,0:0|1:0,0:0:0:0:
482,106,101792,2,0,P|440:99|398:88,1,85,10|2,0:0|0:0,0:0:0:0:
361,346,102098,6,0,B|378:262|432:275|437:196,1,170,0|10,1:0|0:0,0:0:0:0:
307,65,102557,1,0,1:0:0:0:
213,104,102710,2,0,P|141:103|83:24,2,170,2|10|6,0:0|0:0|1:0,0:0:0:0:
213,104,103629,5,2,0:0:0:0:
184,185,103782,1,4,3:0:0:0:
257,232,103935,2,0,P|299:221|343:215,1,68,2|4,0:0|3:0,0:0:0:0:
420,137,104241,2,0,P|386:129|355:117,1,68,2|6,0:0|3:0,0:0:0:0:
470,310,104547,6,0,P|386:325|319:358,1,136,4|2,3:0|0:0,0:0:0:0:
271,309,105006,1,2,3:0:0:0:
171,384,105159,2,0,P|160:340|150:306,1,68,2|4,0:0|3:0,0:0:0:0:
229,147,105466,2,0,P|239:181|253:225,1,68,2|0,0:0|0:0,0:0:0:0:
4,258,105772,6,0,P|79:246|146:226,1,136,4|4,3:0|3:0,0:0:0:0:
136,229,106231,1,2,0:0:0:0:
21,160,106384,2,0,P|55:154|88:146,1,68,2|4,0:0|3:0,0:0:0:0:
123,327,106690,2,0,P|89:333|56:341,1,68,2|2,0:0|3:0,0:0:0:0:
225,101,106996,5,6,1:0:0:0:
348,217,107149,1,8,0:0:0:0:
370,102,107302,1,8,0:0:0:0:
244,208,107455,1,6,3:0:0:0:
244,208,107532,1,6,3:0:0:0:
244,208,107608,2,0,P|250:241|257:274,1,68,6|4,3:0|3:0,0:0:0:0:
397,367,107914,1,10,0:0:0:0:
458,283,108068,1,4,3:0:0:0:
397,367,108221,6,0,P|356:374|313:384,1,85,6|2,1:0|0:0,0:0:0:0:
101,343,108527,2,0,P|142:336|184:325,1,85,10|0,0:0|1:0,0:0:0:0:
224,125,108833,2,0,P|236:167|244:216,1,85,0|0,1:0|1:0,0:0:0:0:
149,204,109139,1,10,0:0:0:0:
149,204,109292,1,2,0:0:0:0:
323,246,109445,6,0,P|363:233|405:225,1,85,0|2,1:0|0:0,0:0:0:0:
430,121,109751,2,0,P|471:128|512:141,1,85,10|0,0:0|1:0,0:0:0:0:
274,384,110057,2,0,P|261:343|253:301,1,85,2|0,0:0|1:0,0:0:0:0:
169,222,110363,2,0,P|176:180|189:139,1,85,10|2,0:0|0:0,0:0:0:0:
189,139,110593,1,2,0:0:0:0:
189,139,110670,5,0,1:0:0:0:
275,193,110823,1,2,0:0:0:0:
252,60,110976,2,0,P|216:53|168:38,1,85,10|0,0:0|1:0,0:0:0:0:
13,195,111282,2,0,P|53:182|95:173,1,85,2|0,0:0|1:0,0:0:0:0:
271,353,111588,1,10,0:0:0:0:
271,353,111664,1,2,0:0:0:0:
271,353,111741,1,2,0:0:0:0:
271,353,111818,1,2,0:0:0:0:
271,353,111894,6,0,P|282:307|288:260,1,85,0|2,1:0|0:0,0:0:0:0:
111,89,112200,2,0,P|99:134|94:182,1,85,10|0,0:0|1:0,0:0:0:0:
191,250,112506,1,2,0:0:0:0:
191,250,112659,1,0,1:0:0:0:
96,341,112812,2,0,P|52:337|7:326,1,85,10|2,0:0|0:0,0:0:0:0:
242,136,113119,5,4,1:0:0:0:
354,184,113272,1,2,0:0:0:0:
406,104,113425,1,10,0:0:0:0:
317,74,113578,1,0,1:0:0:0:
269,220,113731,2,0,L|282:309,1,85,2|0,0:0|1:0,0:0:0:0:
423,384,114037,2,0,P|433:344|447:299,1,85,10|2,0:0|0:0,0:0:0:0:
174,269,114343,5,0,1:0:0:0:
120,341,114496,1,2,0:0:0:0:
13,253,114649,2,0,P|52:241|93:231,1,85,10|0,0:0|1:0,0:0:0:0:
214,52,114955,5,2,0:0:0:0:
272,110,115108,1,0,1:0:0:0:
215,178,115261,1,10,0:0:0:0:
142,159,115414,1,2,0:0:0:0:
142,159,115491,1,2,0:0:0:0:
142,159,115568,6,0,P|131:115|121:76,1,85,0|2,1:0|0:0,0:0:0:0:
338,269,115874,2,0,P|344:227|357:179,1,85,10|0,0:0|1:0,0:0:0:0:
152,345,116180,2,0,P|144:303|132:262,1,85,2|0,0:0|1:0,0:0:0:0:
374,99,116486,5,10,0:0:0:0:
374,99,116562,1,2,0:0:0:0:
374,99,116639,1,2,0:0:0:0:
374,99,116716,1,2,0:0:0:0:
374,99,116792,2,0,P|416:107|466:113,1,85,6|8,1:0|0:0,0:0:0:0:
287,252,117098,1,8,0:0:0:0:
204,121,117251,1,6,3:0:0:0:
204,121,117328,1,6,3:0:0:0:
204,121,117404,1,6,3:0:0:0:
304,153,117557,5,4,3:0:0:0:
154,231,117710,1,10,0:0:0:0:
304,153,117863,1,4,3:0:0:0:
154,231,118017,6,0,P|112:224|70:213,1,85,6|2,1:0|0:0,0:0:0:0:
231,384,118323,2,0,P|243:338|248:291,1,85,10|0,0:0|1:0,0:0:0:0:
377,229,118629,2,0,P|418:237|459:249,1,85,2|0,0:0|1:0,0:0:0:0:
459,340,118935,1,10,0:0:0:0:
459,340,119088,1,2,0:0:0:0:
247,300,119241,6,0,P|206:289|163:282,1,85,0|2,1:0|0:0,0:0:0:0:
94,209,119547,2,0,P|49:215|0:236,1,85,10|0,0:0|1:0,0:0:0:0:
95,1,119853,2,0,P|109:40|118:82,1,85,2|0,0:0|1:0,0:0:0:0:
226,114,120159,2,0,P|217:155|202:195,1,85,10|2,0:0|0:0,0:0:0:0:
202,195,120389,1,2,0:0:0:0:
202,195,120466,5,0,1:0:0:0:
111,181,120619,1,2,0:0:0:0:
203,313,120772,2,0,P|245:300|290:290,1,85,10|0,0:0|1:0,0:0:0:0:
438,151,121078,2,0,P|392:143|352:131,1,85,2|0,0:0|1:0,0:0:0:0:
419,378,121384,1,10,0:0:0:0:
419,378,121460,1,2,0:0:0:0:
419,378,121537,1,2,0:0:0:0:
419,378,121613,1,2,0:0:0:0:
419,378,121690,6,0,P|430:334|447:287,1,85,0|2,1:0|0:0,0:0:0:0:
280,224,121996,2,0,P|268:180|252:133,1,85,10|0,0:0|1:0,0:0:0:0:
195,318,122302,2,0,P|154:330|112:338,1,85,2|0,0:0|1:0,0:0:0:0:
58,163,122608,2,0,P|98:150|140:142,1,85,10|2,0:0|0:0,0:0:0:0:
407,358,122914,5,6,1:0:0:0:
491,295,123068,1,2,0:0:0:0:
401,236,123221,1,10,0:0:0:0:
491,295,123374,1,0,1:0:0:0:
401,236,123527,2,0,P|405:191|415:148,1,85,2|0,0:0|1:0,0:0:0:0:
283,302,123833,2,0,P|241:292|199:288,1,85,10|2,0:0|0:0,0:0:0:0:
269,12,124139,6,0,P|286:54|296:103,1,85,0|2,1:0|0:0,0:0:0:0:
195,80,124445,1,10,0:0:0:0:
195,80,124598,1,0,1:0:0:0:
57,181,124751,2,0,P|38:135|30:90,1,85,2|0,0:0|1:0,0:0:0:0:
187,199,125057,1,10,0:0:0:0:
163,286,125210,5,0,0:0:0:0:
163,286,125287,1,2,0:0:0:0:
163,286,125363,2,0,L|80:309,1,85,0|2,1:0|0:0,0:0:0:0:
302,91,125670,2,0,L|325:175,1,85,10|0,0:0|1:0,0:0:0:0:
490,324,125976,2,0,L|509:238,1,85,2|0,0:0|1:0,0:0:0:0:
238,358,126282,5,10,0:0:0:0:
238,358,126358,1,2,0:0:0:0:
238,358,126435,1,2,0:0:0:0:
238,358,126511,1,2,0:0:0:0:
238,358,126588,2,0,L|219:272,1,85,6|0,1:0|1:0,0:0:0:0:
314,154,126894,1,0,1:0:0:0:
405,226,127047,1,6,3:0:0:0:
405,226,127124,1,6,3:0:0:0:
405,226,127200,1,6,3:0:0:0:
411,140,127353,5,4,3:0:0:0:
302,257,127506,1,10,0:0:0:0:
411,140,127659,1,4,3:0:0:0:
192,205,127812,6,0,P|143:134|165:52,1,170,6|10,1:0|0:0,0:0:0:0:
247,0,128272,2,0,P|293:12|344:21,1,85,0|0,1:0|0:0,0:0:0:0:
494,121,128578,2,0,P|452:130|411:139,1,85,0|10,1:0|0:0,0:0:0:0:
319,339,128884,2,0,P|312:295|301:255,2,85,2|0|2,0:0|1:0|3:0,0:0:0:0:
389,253,129343,1,10,0:0:0:0:
225,340,129496,2,0,P|143:328|104:254,1,170,0|0,1:0|1:0,0:0:0:0:
23,195,129955,2,0,P|52:165|94:161,1,85,10|2,0:0|0:0,0:0:0:0:
294,50,130261,2,0,P|264:79|222:83,1,85,0|2,1:0|0:0,0:0:0:0:
147,39,130568,5,10,0:0:0:0:
147,39,130721,1,0,1:0:0:0:
234,171,130874,2,0,P|226:203|216:256,1,85,2|0,0:0|1:0,0:0:0:0:
86,330,131180,1,10,0:0:0:0:
18,278,131333,6,0,P|11:238|-5:182,1,85,2|0,0:0|1:0,0:0:0:0:
153,130,131639,2,0,P|113:124|70:112,1,85,2|10,0:0|0:0,0:0:0:0:
216,254,131945,2,0,P|304:217|377:205,1,170,0|0,1:0|1:0,0:0:0:0:
455,236,132404,1,10,0:0:0:0:
455,236,132710,6,0,P|466:195|472:153,1,85,6|2,1:0|0:0,0:0:0:0:
261,27,133017,2,0,P|249:67|243:109,1,85,10|0,0:0|1:0,0:0:0:0:
276,328,133323,1,2,0:0:0:0:
276,328,133399,1,2,0:0:0:0:
276,328,133476,1,0,1:0:0:0:
276,328,133552,1,2,0:0:0:0:
276,328,133629,6,0,P|324:320|364:305,1,85,10|2,0:0|0:0,0:0:0:0:
244,213,133935,1,0,1:0:0:0:
146,332,134088,1,2,0:0:0:0:
50,281,134241,2,0,P|40:236|25:196,1,85,10|0,0:0|1:0,0:0:0:0:
96,36,134547,2,0,P|177:40|217:111,1,170,2|10,0:0|0:0,0:0:0:0:
130,178,135006,1,2,0:0:0:0:
130,178,135083,1,2,0:0:0:0:
130,178,135159,2,0,L|117:134,2,42.5,0|2|2,1:0|0:0|0:0,0:0:0:0:
279,40,135466,5,10,0:0:0:0:
217,111,135619,2,0,P|289:149|363:113,1,170,0|0,1:0|1:0,0:0:0:0:
453,38,136078,2,0,P|410:31|358:14,1,85,10|2,0:0|0:0,0:0:0:0:
323,246,136384,2,0,P|367:256|427:277,1,85,6|0,1:0|1:0,0:0:0:0:
503,125,136690,1,0,1:0:0:0:
425,180,136843,1,6,3:0:0:0:
425,180,136920,1,6,3:0:0:0:
425,180,136996,1,6,3:0:0:0:
509,214,137149,5,4,3:0:0:0:
415,91,137302,1,10,0:0:0:0:
509,214,137455,1,6,3:0:0:0:
404,268,137608,6,0,P|366:277|330:289,1,76.4999976654053,6|2,1:0|0:0,0:0:0:0:
263,155,137914,2,0,P|300:148|336:134,1,76.4999976654053,10|0,0:0|1:0,0:0:0:0:
199,7,138221,2,0,L|187:47,3,38.2499988327027,2|2|0|2,0:0|0:0|1:0|0:0,0:0:0:0:
191,52,138527,5,10,0:0:0:0:
91,108,138680,2,0,P|18:78|11:2,1,152.999995330811,2|2,0:0|0:0,0:0:0:0:
172,144,139139,2,0,L|187:232,1,76.4999976654053,10|0,0:0|1:0,0:0:0:0:
3,361,139445,2,0,P|54:308|127:318,1,152.999995330811,2|10,0:0|0:0,0:0:0:0:
127,318,140057,5,0,1:0:0:0:
127,318,140134,1,2,0:0:0:0:
127,318,140210,1,2,0:0:0:0:
315,287,140363,1,10,0:0:0:0:
287,367,140517,2,0,P|232:302|250:229,1,152.999995330811,0|0,1:0|1:0,0:0:0:0:
300,178,140976,1,10,0:0:0:0:
432,237,141129,6,0,P|465:226|517:220,1,76.4999976654053,2|0,0:0|1:0,0:0:0:0:
405,133,141435,2,0,P|394:100|389:58,1,76.4999976654053,2|10,0:0|0:0,0:0:0:0:
255,253,141741,2,0,P|187:221|117:246,1,152.999995330811,0|0,1:0|1:0,0:0:0:0:
130,374,142200,2,0,P|168:358|210:348,1,76.4999976654053,10|2,0:0|0:0,0:0:0:0:
43,128,142506,5,6,1:0:0:0:
35,139,142583,1,2,0:0:0:0:
29,149,142659,1,2,0:0:0:0:
23,159,142736,1,2,0:0:0:0:
18,169,142812,2,0,L|36:243,1,76.4999976654053,10|0,0:0|1:0,0:0:0:0:
29,259,143042,1,2,0:0:0:0:
22,274,143119,2,0,L|36:322,4,38.2499988327027,2|2|0|2|10,0:0|0:0|1:0|0:0|0:0,0:0:0:0:
151,175,143578,5,2,0:0:0:0:
156,167,143654,1,2,0:0:0:0:
164,159,143731,2,0,L|207:171,3,38.2499988327027,0|2|2|2,1:0|0:0|0:0|0:0,0:0:0:0:
265,239,144037,2,0,L|314:227,3,38.2499988327027,10|2|0|2,0:0|0:0|1:0|0:0,0:0:0:0:
365,158,144343,2,0,L|406:169,3,38.2499988327027,2|2|0|2,0:0|0:0|1:0|0:0,0:0:0:0:
473,233,144649,1,10,0:0:0:0:
473,233,144955,5,0,1:0:0:0:
478,215,145032,1,2,0:0:0:0:
484,196,145108,1,2,0:0:0:0:
489,180,145185,1,2,0:0:0:0:
495,160,145261,1,10,0:0:0:0:
402,37,145414,2,0,L|410:80,5,38.2499988327027,0|2|2|2|0|2,1:0|0:0|0:0|0:0|1:0|0:0,0:0:0:0:
350,144,145874,2,0,L|304:157,3,38.2499988327027,10|2|2|2,0:0|0:0|0:0|0:0,0:0:0:0:
233,115,146180,6,0,L|193:111,1,38.2499988327027,6|2,1:0|0:0,0:0:0:0:
174,202,146333,2,0,L|132:216,1,38.2499988327027,0|2,1:0|0:0,0:0:0:0:
78,140,146486,2,0,L|31:131,1,38.2499988327027,0|2,1:0|0:0,0:0:0:0:
0,218,146639,5,6,3:0:0:0:
0,218,146716,1,6,3:0:0:0:
0,218,146792,2,0,L|15:269,3,38.2499988327027,6|2|4|4,3:0|0:0|3:0|3:0,0:0:0:0:
83,322,147098,2,0,P|42:332|9:351,1,76.4999976654053,10|4,0:0|3:0,0:0:0:0:
202,119,147404,6,0,P|266:130|299:187,1,136,6|10,1:0|0:0,0:0:0:0:
228,271,147863,2,0,P|163:259|130:202,1,136,0|0,1:0|1:0,0:0:0:0:
97,116,148323,2,0,P|32:125|0:182,2,136,10|0|10,0:0|1:0|0:0,0:0:0:0:
180,33,149088,1,0,1:0:0:0:
180,33,149241,2,0,L|198:98,1,68,0|0,0:0|1:0,0:0:0:0:
97,116,149547,1,10,0:0:0:0:
141,380,149853,6,0,P|94:333|100:268,1,136,0|10,1:0|0:0,0:0:0:0:
22,229,150312,2,0,P|68:182|133:188,1,136,0|0,1:0|1:0,0:0:0:0:
217,184,150772,2,0,P|257:129|233:55,2,136,10|0|10,0:0|1:0|0:0,0:0:0:0:
261,266,151537,1,0,1:0:0:0:
261,266,151843,1,0,1:0:0:0:
206,337,151996,2,0,L|139:352,1,68,10|2,0:0|0:0,0:0:0:0:
299,159,152302,6,0,L|432:184,1,136,6|10,1:0|0:0,0:0:0:0:
512,48,152761,2,0,L|379:77,1,136,0|0,1:0|1:0,0:0:0:0:
432,184,153221,2,0,L|407:322,2,136,10|0|10,0:0|1:0|0:0,0:0:0:0:
244,131,153986,1,0,1:0:0:0:
244,131,154139,2,0,L|259:197,1,68,2|0,0:0|1:0,0:0:0:0:
340,136,154445,1,10,0:0:0:0:
75,323,154751,6,0,P|120:276|187:278,1,136,0|10,1:0|0:0,0:0:0:0:
126,139,155210,2,0,P|81:186|15:185,1,136,0|0,1:0|1:0,0:0:0:0:
23,34,155670,2,0,L|48:115,1,68,10|2,0:0|0:0,0:0:0:0:
218,193,155976,6,0,L|297:166,1,68,6|0,1:0|1:0,0:0:0:0:
367,70,156282,1,0,1:0:0:0:
291,29,156435,1,6,3:0:0:0:
291,29,156511,1,6,3:0:0:0:
291,29,156588,1,6,3:0:0:0:
206,102,156741,1,4,3:0:0:0:
124,29,156894,1,10,0:0:0:0:
206,102,157047,1,6,1:3:0:0:
256,192,157124,12,0,160009,0:0:0:0:
