osu file format v14

[General]
AudioFilename: happy30 - You spin my world.mp3
AudioLeadIn: 0
PreviewTime: 19981
Countdown: 0
SampleSet: Soft
StackLeniency: 0.7
Mode: 2
LetterboxInBreaks: 0
WidescreenStoryboard: 1

[Editor]
Bookmarks: 138871
DistanceSpacing: 1.1
BeatDivisor: 8
GridSize: 4
TimelineZoom: 2.799999

[Metadata]
Title:You spin my world
TitleUnicode:You spin my world
Artist:happy30
ArtistUnicode:happy30
Creator:Juansy-
Version:Platter
Source:
Tags:Kyouren gokugohan12468 KittyAdventure happythirsty happythirty Jordi van der Hulst As the wind blows EP extended play instrumental piano mappers' guild mpg fa featured artist electronic classical
BeatmapID:4295687
BeatmapSetID:2038439

[Difficulty]
HPDrainRate:4
CircleSize:3.5
OverallDifficulty:8
ApproachRate:8
SliderMultiplier:1.56
SliderTickRate:1

[Events]
//Background and Video events
0,0,"20220617_090448.jpg",0,0
//Break Periods
//Storyboard Layer 0 (Background)
//Storyboard Layer 1 (Fail)
//Storyboard Layer 2 (Pass)
//Storyboard Layer 3 (Foreground)
//Storyboard Layer 4 (Overlay)
//Storyboard Sound Samples

[TimingPoints]
464,306.122448979592,4,2,1,50,1,0
1535,-100,4,2,1,50,0,0
1611,-100,4,2,1,25,0,0
1918,-100,4,2,1,5,0,0
1994,-100,4,2,1,50,0,0
3984,-100,4,2,1,50,0,0
4060,-100,4,2,1,25,0,0
4367,-100,4,2,1,5,0,0
4443,-100,4,2,1,50,0,0
6433,-100,4,2,1,50,0,0
6509,-100,4,2,1,25,0,0
6816,-100,4,2,1,5,0,0
6892,-100,4,2,1,50,0,0
10259,-100,4,2,1,35,0,0
20055,-100,4,2,1,65,0,0
20208,-100,4,2,1,50,0,0
21050,-100,4,2,1,5,0,0
21127,-100,4,2,1,50,0,0
21203,-100,4,2,1,5,0,0
21280,-100,4,2,1,50,0,0
22198,-100,4,2,1,50,0,0
22504,-100,4,2,1,50,0,0
27096,-100,4,2,1,50,0,0
27402,-100,4,2,1,50,0,0
31994,-100,4,2,1,50,0,0
32300,-100,4,2,1,50,0,0
39647,-100,4,2,1,75,0,1
49367,-100,4,2,1,75,0,0
49443,-100,4,2,1,75,0,1
59239,-100,4,2,1,45,0,0
76994,-100,4,2,1,65,0,0
77606,-100,4,2,1,80,0,1
78831,-100,4,2,1,70,0,0
83729,-100,4,2,1,55,0,0
87402,-100,4,2,1,80,0,1
88627,-100,4,2,1,70,0,0
89545,-100,4,2,1,70,0,0
90770,-100,4,2,1,70,0,0
91688,-62.5,4,2,1,70,0,0
92300,-100,4,2,1,70,0,0
97198,-100,4,2,1,80,0,1
98423,-100,4,2,1,70,0,0
103321,-100,4,2,1,60,0,0
105387,-100,4,2,1,5,0,0
105464,-100,4,2,1,60,0,0
106994,-100,4,2,1,90,0,1
108142,-100,4,2,1,90,0,0
108219,-100,4,2,1,80,0,1
110055,-100,4,2,1,80,0,1
114953,-100,4,2,1,80,0,1
117938,-100,4,2,1,80,0,0
118015,-100,4,2,1,80,0,1
127734,-100,4,2,1,70,0,0
127810,-100,4,2,1,70,0,1
127887,-100,4,2,1,70,0,0
132402,-100,4,2,1,70,0,0
132708,-100,4,2,1,70,0,1
132785,-100,4,2,1,70,0,0
136382,-100,4,2,1,90,0,1
137530,-100,4,2,1,90,0,0
137606,-100,4,2,1,80,0,1
137683,-100,4,2,1,80,0,0
137759,-100,4,2,1,80,0,0
137951,-100,4,2,1,5,0,1
138066,-100,4,2,1,80,0,0
139443,-45.4545454545455,4,2,1,80,0,0
139749,-100,4,2,1,80,0,0
142198,-100,4,2,1,80,0,0
142504,-100,4,2,1,80,0,1
146101,-100,4,2,1,80,0,0
146178,-100,4,2,1,90,0,1
147326,-100,4,2,1,90,0,0
147402,-100,4,2,1,80,0,1
147479,-100,4,2,1,80,0,0
147708,-100,4,2,1,70,0,0
155974,-100,4,2,1,90,0,1
157045,-100,4,2,1,70,0,0
157122,-100,4,2,1,15,0,0
160007,306.122448979592,4,2,1,15,1,0

[Colours]
Combo1 : 113,173,223
Combo2 : 173,255,95
Combo3 : 17,254,176

[HitObjects]
122,211,464,5,0,0:0:0:0:
277,212,770,1,2,0:0:0:0:
122,211,1076,2,0,L|122:42,1,156,2|0,0:0|0:0,0:0:0:0:
272,307,1535,6,0,P|348:248|254:193,1,234,2|2,0:0|0:0,0:0:0:0:
106,176,2300,1,2,0:0:0:0:
261,170,2606,1,0,0:0:0:0:
415,318,2912,6,0,L|258:322,2,156,0|2|2,0:0|0:0|0:0,0:0:0:0:
415,318,3831,1,0,0:0:0:0:
265,55,3984,6,0,P|217:61|285:162,1,234,2|2,0:0|0:0,0:0:0:0:
428,162,4749,1,2,0:0:0:0:
272,159,5055,1,0,0:0:0:0:
428,162,5361,6,0,L|429:326,1,156,0|2,0:0|0:0,0:0:0:0:
272,328,5974,2,0,L|445:320,1,156,2|0,0:0|0:0,0:0:0:0:
277,71,6433,6,0,P|235:71|291:176,1,234,2|2,0:0|0:0,0:0:0:0:
434,200,7198,1,2,0:0:0:0:
279,180,7504,1,0,0:0:0:0:
123,185,7810,6,0,L|284:191,2,156,0|2|2,0:0|0:0|0:0,0:0:0:0:
123,185,8729,1,0,0:0:0:0:
274,57,8882,2,0,L|184:44,1,78,2|0,0:0|0:0,0:0:0:0:
41,315,9341,6,0,L|210:314,2,156,2|2|0,0:0|0:0|0:0,0:0:0:0:
290,295,10259,6,0,L|294:126,1,156,4|0,0:0|0:0,0:0:0:0:
215,135,10719,1,0,0:0:0:0:
292,125,10872,2,0,L|386:123,2,78,2|0|0,0:0|0:0|0:0,0:0:0:0:
141,302,11331,6,0,P|106:260|221:221,1,234,2|2,0:0|0:0,0:0:0:0:
299,220,11943,1,0,0:0:0:0:
221,113,12096,2,0,L|140:106,1,78,0|2,0:0|0:0,0:0:0:0:
294,155,12402,2,0,L|381:155,1,78,0|0,0:0|0:0,0:0:0:0:
223,260,12708,6,0,L|63:259,1,156,2|0,0:0|0:0,0:0:0:0:
224,72,13321,1,2,0:0:0:0:
302,122,13474,2,0,L|136:129,1,156,0|2,0:0|0:0,0:0:0:0:
302,275,14086,5,0,0:0:0:0:
379,275,14239,1,2,0:0:0:0:
456,270,14392,1,2,0:0:0:0:
70,306,15157,6,0,L|163:308,2,78,2|0|2,0:0|0:0|0:0,0:0:0:0:
226,296,15770,2,0,L|228:139,1,156,0|2,0:0|0:0,0:0:0:0:
305,142,16229,1,0,0:0:0:0:
460,147,16535,5,0,0:0:0:0:
382,144,16688,1,2,0:0:0:0:
226,141,16994,2,0,P|226:193|323:238,1,156,2|2,0:0|0:0,0:0:0:0:
384,252,17453,1,0,0:0:0:0:
306,247,17606,6,0,L|255:314,2,78,2|0|2,0:0|0:0|0:0,0:0:0:0:
384,248,18066,1,2,0:0:0:0:
461,257,18219,1,2,0:0:0:0:
309,129,18525,2,0,L|229:138,1,78,2|0,0:0|0:0,0:0:0:0:
379,337,18831,6,0,P|405:327|353:253,1,156,0|2,0:0|0:0,0:0:0:0:
283,257,19290,1,0,0:0:0:0:
360,249,19443,2,0,L|421:196,2,78,2|0|2,0:0|0:0|0:0,0:0:0:0:
282,251,19902,1,2,0:0:0:0:
63,129,20055,6,0,P|34:153|79:248,1,156,6|0,1:2|0:0,0:0:0:0:
165,277,20515,1,0,0:0:0:0:
317,55,20668,2,0,L|313:217,1,156,10|0,0:0|0:0,0:0:0:0:
235,217,21127,1,0,1:0:0:0:
312,213,21280,6,0,L|470:199,1,156,2|0,0:0|1:0,0:0:0:0:
392,176,21739,1,0,0:0:0:0:
241,51,21892,1,10,0:0:0:0:
85,64,22198,1,2,0:0:0:0:
321,333,22504,6,0,P|366:297|300:244,1,156,2|0,1:2|0:0,0:0:0:0:
232,247,22964,1,0,0:0:0:0:
84,191,23117,2,0,L|239:181,2,156,10|2|2,0:0|0:0|0:2,0:0:0:0:
87,35,24035,6,0,L|168:33,1,78,0|0,1:0|0:0,0:0:0:0:
311,138,24341,2,0,L|155:143,1,156,10|2,0:0|0:0,0:0:0:0:
375,331,24953,6,0,P|416:302|352:242,1,156,2|0,1:2|0:0,0:0:0:0:
284,246,25412,1,0,0:0:0:0:
136,261,25566,2,0,L|146:105,1,156,10|0,0:0|0:0,0:0:0:0:
68,98,26025,1,0,1:0:0:0:
145,105,26178,6,0,L|309:105,1,156,0|2,0:0|1:2,0:0:0:0:
378,106,26637,1,2,0:0:0:0:
228,188,26790,2,0,P|221:229|317:268,1,156,8|0,0:0|1:0,0:0:0:0:
386,278,27249,1,0,0:0:0:0:
151,280,27402,6,0,P|117:279|181:186,1,234,2|0,1:2|0:0,0:0:0:0:
321,91,28015,2,0,L|158:80,2,156,10|2|2,0:0|0:0|1:2,0:0:0:0:
470,134,28933,6,0,L|381:143,1,78,0|0,1:0|0:0,0:0:0:0:
241,317,29239,2,0,L|245:157,1,156,10|2,0:0|0:0,0:0:0:0:
32,141,29851,5,2,1:2:0:0:
32,141,30157,2,0,L|117:137,1,78,0|0,0:0|0:0,0:0:0:0:
261,82,30464,1,10,0:0:0:0:
261,82,30770,2,0,L|170:84,1,78,2|2,0:0|1:2,0:0:0:0:
261,82,31076,6,0,L|261:255,1,156,0|0,0:0|0:0,0:0:0:0:
338,235,31535,1,0,0:0:0:0:
485,180,31688,1,10,0:0:0:0:
329,163,31994,1,2,0:0:0:0:
94,316,32300,6,0,P|56:313|101:247,1,156,2|0,1:2|0:0,0:0:0:0:
169,240,32759,1,0,0:0:0:0:
246,236,32912,2,0,L|86:237,1,156,10|2,0:0|0:0,0:0:0:0:
320,269,33525,6,0,P|381:248|298:157,1,234,2|2,0:0|0:0,0:0:0:0:
148,218,34137,2,0,L|317:202,1,156,10|2,0:0|0:0,0:0:0:0:
61,127,34749,5,2,1:2:0:0:
61,127,35055,2,0,L|154:121,1,78,0|0,0:0|0:0,0:0:0:0:
291,266,35361,1,8,0:0:0:0:
291,266,35668,2,0,L|201:273,1,78,2|2,0:0|1:2,0:0:0:0:
135,269,35974,6,0,L|302:246,1,156,0|0,0:0|1:0,0:0:0:0:
367,242,36433,1,0,0:0:0:0:
219,177,36586,2,0,L|57:176,1,156,8|0,0:0|0:0,0:0:0:0:
140,174,37045,1,0,0:0:0:0:
360,299,37198,6,0,P|383:271|268:177,1,234,2|0,1:2|0:0,0:0:0:0:
196,189,37810,1,8,0:0:0:0:
345,159,38117,1,2,0:0:0:0:
92,333,38423,6,0,P|53:319|111:267,1,156,2|0,0:0|1:0,0:0:0:0:
185,250,38882,1,0,0:0:0:0:
335,124,39035,2,0,L|173:122,1,156,10|2,0:0|0:0,0:0:0:0:
153,124,39494,1,0,0:0:0:0:
393,314,39647,6,0,L|474:314,1,78,6|0,1:2|0:0,0:0:0:0:
388,230,39953,2,0,L|342:294,2,78,2|0|10,0:0|0:0|0:0,0:0:0:0:
465,227,40412,1,0,0:0:0:0:
246,281,40566,2,0,L|167:284,1,78,0|0,0:0|1:0,0:0:0:0:
316,197,40872,6,0,L|402:189,3,78,2|2|2|0,0:0|0:0|1:2|0:0,0:0:0:0:
270,86,41484,2,0,L|257:166,1,78,10|2,0:0|0:0,0:0:0:0:
335,156,41790,2,0,L|347:237,1,78,2|0,0:0|0:0,0:0:0:0:
129,324,42096,5,2,1:2:0:0:
56,294,42249,1,2,0:0:0:0:
22,223,42402,1,2,0:0:0:0:
56,294,42555,1,0,0:0:0:0:
206,198,42708,2,0,L|301:190,1,78,10|0,0:0|0:0,0:0:0:0:
208,167,43015,2,0,L|158:163,1,39,0|2,0:0|0:0,0:0:0:0:
129,161,43168,1,0,1:0:0:0:
285,58,43321,6,0,L|336:132,2,78,2|0|2,0:0|0:0|1:2,0:0:0:0:
207,55,43780,1,0,0:0:0:0:
356,245,43933,2,0,L|439:246,2,78,10|0|2,0:0|0:0|0:0,0:0:0:0:
278,240,44392,1,2,0:0:0:0:
57,118,44545,6,0,L|94:196,3,78,2|0|2|2,1:2|0:0|0:0|0:0,0:0:0:0:
242,111,45157,2,0,L|208:181,3,78,10|0|2|0,0:0|0:0|0:0|1:0,0:0:0:0:
359,294,45770,6,0,L|442:294,1,78,2|2,0:0|0:0,0:0:0:0:
286,235,46076,2,0,L|199:228,1,78,0|0,1:0|0:0,0:0:0:0:
286,230,46382,1,10,0:0:0:0:
340,286,46535,1,2,0:0:0:0:
286,230,46688,1,0,0:0:0:0:
208,222,46841,1,0,0:0:0:0:
425,105,46994,6,0,L|425:186,1,78,2|0,1:2|0:0,0:0:0:0:
347,187,47300,2,0,L|430:188,1,78,2|0,0:0|0:0,0:0:0:0:
272,97,47606,2,0,L|194:97,1,78,10|0,0:0|0:0,0:0:0:0:
276,59,47912,1,0,0:0:0:0:
315,55,47989,1,2,0:0:0:0:
354,51,48066,1,0,1:0:0:0:
134,300,48219,6,0,L|49:301,1,78,2|2,0:2|0:0,0:0:0:0:
142,247,48525,2,0,L|152:167,1,78,2|0,1:2|0:0,0:0:0:0:
302,114,48831,2,0,L|219:102,1,78,10|0,0:0|0:0,0:0:0:0:
83,48,49137,2,0,L|168:47,1,78,2|2,0:0|0:0,0:0:0:0:
379,302,49443,5,6,1:2:0:0:
436,354,49596,1,0,0:0:0:0:
379,302,49749,1,2,0:0:0:0:
301,295,49902,1,0,0:0:0:0:
378,282,50055,2,0,L|471:275,1,78,10|0,0:0|0:0,0:0:0:0:
239,186,50361,2,0,L|161:189,1,78,2|2,0:0|1:2,0:0:0:0:
312,111,50668,5,0,0:2:0:0:
387,131,50821,1,2,0:0:0:0:
387,131,50974,1,2,1:2:0:0:
312,111,51127,1,0,0:0:0:0:
159,308,51280,2,0,L|239:293,1,78,8|2,0:0|0:0,0:0:0:0:
154,229,51586,2,0,L|107:242,2,39,2|0|0,0:0|0:0|0:0,0:0:0:0:
370,95,51892,6,0,L|457:84,1,78,2|0,1:2|0:0,0:0:0:0:
367,72,52198,2,0,L|324:146,2,78,2|0|10,0:0|0:0|0:0,0:0:0:0:
444,62,52657,1,0,0:0:0:0:
295,271,52810,2,0,L|248:250,1,39,0|2,0:0|0:0,0:0:0:0:
216,273,52964,1,0,1:0:0:0:
365,259,53117,6,0,L|370:177,1,78,2|2,0:0|0:0,0:0:0:0:
292,174,53423,2,0,L|214:171,1,78,0|0,1:2|0:0,0:0:0:0:
367,66,53729,2,0,L|365:148,1,78,10|0,0:0|0:0,0:0:0:0:
287,152,54035,2,0,L|366:157,1,78,2|0,0:0|0:0,0:0:0:0:
145,310,54341,6,0,L|106:236,3,78,2|0|2|2,1:2|0:0|0:0|0:0,0:0:0:0:
259,215,54953,2,0,L|296:131,3,78,10|0|2|0,0:0|0:0|0:0|1:0,0:0:0:0:
66,222,55566,5,2,0:0:0:0:
113,160,55719,1,2,0:0:0:0:
189,146,55872,1,0,1:0:0:0:
266,143,56025,1,0,0:0:0:0:
416,277,56178,1,10,0:0:0:0:
338,265,56331,1,2,0:0:0:0:
263,250,56484,1,0,0:0:0:0:
185,239,56637,1,0,0:0:0:0:
410,68,56790,6,0,L|411:153,1,78,2|0,1:2|0:0,0:0:0:0:
333,151,57096,2,0,L|413:145,1,78
262,234,57402,2,0,L|173:239,1,78,10|0,0:0|0:0,0:0:0:0:
163,87,57708,2,0,L|201:61,1,39,0|2,0:0|0:0,0:0:0:0:
237,60,57861,1,0,1:0:0:0:
458,282,58015,6,0,L|460:205,1,78,2|0,0:0|0:0,0:0:0:0:
377,317,58321,2,0,L|378:232,1,78,0|0,1:0|0:0,0:0:0:0:
225,234,58627,2,0,L|227:152,1,78,10|0,0:0|0:0,0:0:0:0:
140,58,58933,2,0,L|140:140,1,78,2|2,0:0|0:0,0:0:0:0:
370,329,59239,6,0,P|412:310|359:246,1,156,4|2,1:2|1:2,0:0:0:0:
214,237,59851,2,0,L|384:207,1,156,8|0,0:0|0:0,0:0:0:0:
290,198,60310,6,0,P|247:194|317:107,1,234,2|2,1:2|1:2,0:0:0:0:
464,111,61076,1,10,0:0:0:0:
214,305,61382,1,0,0:0:0:0:
455,311,61688,6,0,P|442:266|346:222,1,156,0|2,1:0|1:2,0:0:0:0:
196,189,62300,2,0,P|218:141|317:124,1,156,8|0,0:0|0:0,0:0:0:0:
236,102,62759,6,0,P|140:99|198:177,1,234,2|2,1:2|1:2,0:0:0:0:
345,207,63525,5,10,0:0:0:0:
96,323,63831,1,0,0:0:0:0:
361,84,64137,6,0,L|357:244,1,156,0|2,1:0|1:2,0:0:0:0:
211,210,64749,2,0,L|371:200,1,156,8|0,0:0|0:0,0:0:0:0:
289,186,65208,6,0,B|140:168|140:168|156:74,1,234,2|2,1:2|1:2,0:0:0:0:
310,80,65974,1,10,0:2:0:0:
60,276,66280,1,0,0:0:0:0:
316,277,66586,6,0,P|303:242|184:211,1,156,0|2,1:0|0:0,0:0:0:0:
52,132,67198,2,0,L|224:123,1,156,10|0,0:0|0:0,0:0:0:0:
283,112,67657,6,0,L|43:77,1,234,2|2,1:2|1:2,0:0:0:0:
305,288,68423,1,10,0:0:0:0:
152,209,68729,1,0,0:0:0:0:
406,190,69035,6,0,P|440:168|374:113,1,156,0|2,1:0|0:0,0:0:0:0:
231,100,69647,2,0,L|242:268,1,156,10|2,0:0|0:0,0:0:0:0:
326,256,70106,6,0,L|158:253,1,156,0|0,1:0|0:0,0:0:0:0:
321,181,70566,2,0,L|484:180,2,156,2|10|2,1:2|0:0|0:0,0:0:0:0:
151,152,71484,5,0,1:0:0:0:
296,184,71790,1,2,0:0:0:0:
61,324,72096,2,0,P|40:291|123:242,1,156,10|0,0:0|0:0,0:0:0:0:
201,242,72555,6,0,L|217:83,1,156,2|0,1:2|0:0,0:0:0:0:
367,73,73015,2,0,L|208:55,1,156,2|10,1:2|0:0,0:0:0:0:
61,37,73627,1,0,0:0:0:0:
310,308,73933,6,0,P|352:277|300:209,1,156,0|2,1:0|0:0,0:0:0:0:
153,127,74545,2,0,L|321:114,1,156,10|2,0:0|0:0,0:0:0:0:
159,262,75004,5,0,1:0:0:0:
383,167,75464,2,0,L|220:156,1,156,0|8,0:0|0:0,0:0:0:0:
304,100,75923,1,8,0:0:0:0:
448,76,76076,2,0,L|352:80,1,78,8|8,0:0|0:0,0:0:0:0:
156,180,76382,6,0,P|177:207|289:262,2,156,4|8|0,1:2|0:0|0:0,0:0:0:0:
247,98,77300,1,8,0:0:0:0:
161,94,77453,1,0,0:0:0:0:
380,284,77606,6,0,L|456:308,2,78,4|8|8,1:2|0:0|0:0,0:0:0:0:
296,208,78066,2,0,L|348:184,1,39,8|8,0:0|0:0,0:0:0:0:
376,184,78219,1,8,0:0:0:0:
460,180,78372,1,8,1:2:0:0:
312,92,78525,2,0,L|228:84,1,78,8|4,0:0|0:3,0:0:0:0:
448,344,78831,5,4,0:2:0:0:
448,344,79137,6,0,L|360:328,1,78,2|0,0:0|1:0,0:0:0:0:
320,236,79443,1,2,0:0:0:0:
368,328,79596,1,0,1:0:0:0:
448,344,79749,1,10,0:0:0:0:
300,108,79902,6,0,L|288:280,1,156,2|0,1:2|0:0,0:0:0:0:
364,276,80361,1,10,0:0:0:0:
200,268,80668,1,0,0:0:0:0:
276,228,80821,1,2,1:2:0:0:
268,136,80974,1,8,0:0:0:0:
172,128,81127,1,0,0:0:0:0:
316,92,81280,6,0,L|472:88,1,156,2|10,1:2|0:0,0:0:0:0:
316,280,81892,1,2,0:0:0:0:
395,248,82045,6,0,L|238:235,1,156,2|2,1:2|1:2,0:0:0:0:
396,167,82657,6,0,L|451:236,2,78,2|8|0,0:2|0:0|1:0,0:0:0:0:
250,84,83117,2,0,L|255:252,1,156,2|8,0:0|0:0,0:0:0:0:
333,273,83576,1,0,1:0:0:0:
469,159,83729,6,0,L|379:166,2,78,6|0|2,1:2|0:0|0:0,0:0:0:0:
216,160,84341,2,0,L|376:144,1,156,2|0,0:0|1:2,0:0:0:0:
224,76,84800,6,0,L|228:248,1,156,2|2,0:0|0:0,0:0:0:0:
372,256,85259,2,0,L|216:300,2,156,2|2|2,0:0|0:0|0:0,0:0:0:0:
332,180,86025,1,2,0:0:0:0:
188,208,86178,5,2,1:2:0:0:
232,128,86331,1,0,0:0:0:0:
304,104,86484,1,2,0:0:0:0:
380,104,86637,1,2,1:2:0:0:
308,52,86790,2,0,L|220:48,1,78,2|0,0:0|0:0,0:0:0:0:
376,240,87096,2,0,L|472:248,1,78,2|2,1:2|0:0,0:0:0:0:
228,156,87402,6,0,L|136:172,1,78,4|8,1:2|0:0,0:0:0:0:
293,226,87708,1,10,0:0:0:0:
372,194,87861,2,0,L|326:180,1,39,8|8,0:0|0:0,0:0:0:0:
313,144,88015,1,10,0:0:0:0:
342,63,88168,1,8,1:2:0:0:
427,58,88321,1,4,0:3:0:0:
351,99,88474,1,12,0:3:0:0:
124,108,88627,6,0,P|84:112|128:176,1,156,6|8,1:2|0:0,0:0:0:0:
275,289,89086,1,0,1:0:0:0:
197,255,89239,2,0,P|165:246|209:168,1,156,2|8,0:3|0:0,0:0:0:0:
272,84,89698,1,0,0:0:0:0:
416,296,89851,1,2,1:2:0:0:
260,226,90157,6,0,L|344:213,1,78,8|0,0:0|1:0,0:0:0:0:
184,308,90464,2,0,L|176:148,1,156,2|10,0:3|0:0,0:0:0:0:
96,144,90923,1,0,0:0:0:0:
324,76,91076,6,0,P|360:80|320:156,1,156,2|8,1:2|0:0,0:0:0:0:
252,164,91535,1,0,1:0:0:0:
140,108,91688,2,0,B|270:322|270:322|22:355,1,499.2,2|2,0:3|1:2,0:0:0:0:
180,64,92606,6,0,L|272:72,1,78,8|0,0:0|1:0,0:0:0:0:
120,92,92912,2,0,L|120:184,1,78,2|0,0:3|0:0,0:0:0:0:
204,180,93219,2,0,L|200:276,1,78,10|0,0:0|0:0,0:0:0:0:
416,316,93525,6,0,P|452:296|392:228,1,156,6|8,1:2|0:0,0:0:0:0:
258,184,93984,1,0,1:0:0:0:
333,103,94137,2,0,P|367:115|323:202,1,156,2|8,0:3|0:0,0:0:0:0:
260,88,94596,1,2,0:0:0:0:
112,260,94749,1,2,1:2:0:0:
266,144,95055,6,0,L|343:139,1,78,8|0,0:0|1:0,0:0:0:0:
198,95,95361,2,0,L|37:89,1,156,2|8,0:3|0:0,0:0:0:0:
92,180,95821,1,0,0:0:0:0:
332,60,95974,6,0,P|368:60|336:144,1,156,2|8,1:2|0:0,0:0:0:0:
276,152,96433,1,0,1:0:0:0:
136,96,96586,2,0,L|136:184,1,78,2|0,0:3|0:0,0:0:0:0:
216,240,96892,2,0,L|136:248,1,78,10|0,0:0|0:0,0:0:0:0:
355,171,97198,6,0,L|439:170,2,78,12|8|8,0:0|0:0|0:0,0:0:0:0:
215,317,97657,2,0,L|258:292,1,39,10|8,0:0|0:0,0:0:0:0:
288,278,97810,1,10,0:0:0:0:
359,177,97964,1,4,1:3:0:0:
216,108,98117,2,0,L|122:108,1,78,10|12,0:0|0:3,0:0:0:0:
375,96,98423,1,6,1:2:0:0:
375,96,98729,6,0,L|285:87,1,78,10|2,0:0|1:2,0:0:0:0:
148,295,99035,2,0,P|169:262|277:226,1,156,2|10,0:3|0:0,0:0:0:0:
352,186,99494,1,0,0:0:0:0:
204,128,99647,1,2,1:2:0:0:
51,52,99953,6,0,L|129:62,1,78,10|2,0:0|1:2,0:0:0:0:
275,327,100259,2,0,L|271:163,1,156,2|10,0:3|0:0,0:0:0:0:
33,137,100872,1,2,1:2:0:0:
195,78,101178,6,0,L|117:77,1,78,8|0,0:0|1:0,0:0:0:0:
260,226,101484,2,0,L|264:316,1,78,2|0,0:3|1:0,0:0:0:0:
186,304,101790,2,0,L|183:226,1,78,10|0,0:0|0:0,0:0:0:0:
331,80,102096,6,0,P|297:131|207:138,1,156,2|10,1:2|0:0,0:0:0:0:
131,174,102555,1,2,1:2:0:0:
277,248,102708,2,0,L|364:260,1,78,2|0,0:3|1:0,0:0:0:0:
207,87,103015,2,0,L|126:81,1,78,10|0,0:0|0:0,0:0:0:0:
389,328,103321,1,6,1:2:0:0:
389,328,103627,6,0,L|300:327,1,78,0|0,0:0|1:0,0:0:0:0:
167,213,103933,1,2,0:3:0:0:
167,213,104239,2,0,L|258:208,1,78,0|2,0:0|0:0,0:0:0:0:
98,95,104545,1,0,1:0:0:0:
98,95,104851,6,0,L|185:91,1,78,0|0,0:0|1:0,0:0:0:0:
326,216,105157,2,0,L|155:229,1,156,2|0,0:3|0:0,0:0:0:0:
112,181,105617,1,0,0:0:0:0:
333,121,105770,6,0,P|381:155|307:277,1,234,2|0,1:2|1:0,0:0:0:0:
169,176,106382,2,0,L|335:160,1,156,2|2,0:3|0:0,0:0:0:0:
402,125,106841,1,0,0:0:0:0:
183,115,106994,6,0,L|101:118,2,78,6|8|8,1:2|0:0|0:0,0:0:0:0:
328,231,107453,2,0,L|367:268,2,39,10|8|10,0:0|0:0|0:0,0:0:0:0:
250,195,107759,1,4,0:3:0:0:
323,139,107912,1,10,0:0:0:0:
346,222,108066,1,4,0:3:0:0:
119,314,108219,6,0,L|38:314,1,78,6|0,1:2|0:0,0:0:0:0:
124,230,108525,2,0,L|170:294,2,78,10|2|2,0:0|1:2|0:0,0:0:0:0:
47,227,108984,1,0,0:0:0:0:
266,281,109138,2,0,L|345:284,1,78,10|0,0:0|0:0,0:0:0:0:
197,172,109443,6,0,L|155:253,2,78,2|2|8,1:2|0:0|0:0,0:0:0:0:
282,169,109902,1,0,1:0:0:0:
435,103,110055,1,2,0:0:0:0:
385,172,110208,1,0,0:0:0:0:
301,191,110361,1,8,0:0:0:0:
214,192,110515,1,0,0:0:0:0:
361,273,110668,6,0,L|438:260,3,78,2|0|10|0,1:2|0:0|0:0|1:0,0:0:0:0:
290,291,111280,2,0,P|265:285|308:213,1,156,2|10,0:0|0:0,0:0:0:0:
342,236,111662,1,0,0:0:0:0:
382,222,111739,1,2,0:0:0:0:
163,159,111892,5,2,1:2:0:0:
160,244,112045,1,0,0:0:0:0:
240,272,112198,2,0,L|248:185,1,78,10|0,0:0|1:0,0:0:0:0:
97,293,112504,2,0,L|96:206,1,78,2|0,0:0|1:0,0:0:0:0:
175,182,112810,1,10,0:0:0:0:
97,220,112964,1,0,0:0:0:0:
321,99,113117,6,0,L|371:169,3,78,6|0|10|2,1:2|0:0|0:0|1:2,0:0:0:0:
221,97,113729,2,0,L|183:184,3,78,0|0|10|0,0:0|0:0|0:0|0:0,0:0:0:0:
323,300,114342,6,0,L|406:300,1,78,2|2,1:2|0:0,0:0:0:0:
250,241,114648,2,0,L|163:234,1,78,8|0,0:0|1:0,0:0:0:0:
250,236,114954,1,2,0:0:0:0:
304,292,115107,1,0,0:0:0:0:
250,236,115260,1,8,0:0:0:0:
172,228,115413,1,0,0:0:0:0:
392,88,115566,6,0,L|487:80,3,78,2|0|10|0,1:2|0:0|0:0|1:2,0:0:0:0:
337,165,116178,2,0,P|292:175|351:225,1,156,2|10,0:0|0:0,0:0:0:0:
381,118,116561,1,0,0:0:0:0:
337,165,116638,1,2,0:0:0:0:
117,300,116790,6,0,L|34:296,2,78,6|8|10,1:2|0:0|0:0,0:0:0:0:
262,95,117249,2,0,L|214:113,1,39,8|8,0:0|0:0,0:0:0:0:
187,128,117402,1,10,0:0:0:0:
241,194,117555,1,0,1:0:0:0:
385,220,117708,2,0,L|385:131,1,78,10|4,0:0|0:3,0:0:0:0:
150,221,118015,6,0,L|237:220,1,78,6|0,1:2|0:0,0:0:0:0:
283,285,118321,1,8,0:0:0:0:
227,219,118474,1,0,1:2:0:0:
149,334,118627,2,0,L|236:333,1,78,2|0,0:0|0:0,0:0:0:0:
372,126,118933,2,0,L|293:126,1,78,8|0,0:0|0:0,0:0:0:0:
146,128,119240,5,2,1:2:0:0:
71,148,119393,1,2,0:0:0:0:
71,148,119546,1,8,0:0:0:0:
146,128,119699,1,0,1:2:0:0:
296,349,119851,2,0,L|210:342,1,78,2|0,0:0|0:0,0:0:0:0:
133,326,120157,2,0,L|106:284,2,39,8|0|0,0:0|0:0|0:0,0:0:0:0:
365,107,120464,6,0,L|417:188,2,78,2|0|8,1:2|0:0|0:0,0:0:0:0:
288,70,120923,1,0,1:2:0:0:
142,217,121076,2,0,P|164:183|274:144,1,156,2|10,0:0|0:0,0:0:0:0:
304,121,121458,1,0,0:0:0:0:
346,130,121535,1,2,0:0:0:0:
201,203,121689,6,0,L|122:192,1,78,2|0,1:2|0:0,0:0:0:0:
207,152,121995,2,0,L|285:149,1,78,10|0,0:0|0:0,0:0:0:0:
135,67,122301,2,0,L|137:149,1,78,2|0,0:0|1:2,0:0:0:0:
215,153,122607,2,0,L|136:158,1,78,10|0,0:0|0:0,0:0:0:0:
367,310,122912,6,0,L|386:227,3,78,6|0|10|2,1:2|0:0|0:0|1:2,0:0:0:0:
249,214,123525,2,0,L|194:139,3,78,0|0|10|0,0:0|0:0|0:0|0:0,0:0:0:0:
446,222,124138,5,2,1:2:0:0:
399,160,124291,1,2,0:0:0:0:
323,146,124444,1,8,0:0:0:0:
246,143,124597,1,0,1:2:0:0:
96,277,124750,1,2,0:0:0:0:
174,265,124903,1,0,0:0:0:0:
249,250,125056,1,8,0:0:0:0:
327,239,125209,1,0,0:0:0:0:
102,68,125362,6,0,L|92:155,1,78,2|0,1:2|0:0,0:0:0:0:
171,149,125668,1,10,0:0:0:0:
91,146,125821,1,0,1:2:0:0:
338,136,125974,2,0,P|388:145|333:194,1,156,2|10,0:0|0:0,0:0:0:0:
300,212,126356,1,0,0:0:0:0:
257,210,126433,1,2,0:0:0:0:
38,330,126587,6,0,L|39:253,1,78,6|0,1:2|0:0,0:0:0:0:
192,238,126893,2,0,L|194:152,1,78,10|0,0:0|0:0,0:0:0:0:
116,162,127199,2,0,L|111:84,1,78,10|0,0:0|0:0,0:0:0:0:
257,75,127505,2,0,L|344:75,1,78,10|8,0:0|0:3,0:0:0:0:
117,338,127810,6,0,P|88:328|145:266,1,156,6|8,1:2|0:0,0:0:0:0:
207,200,128270,2,0,L|367:151,2,156,2|2|2,1:2|1:2|0:0,0:0:0:0:
376,166,129188,6,0,L|283:175,2,78,2|10|0,0:0|0:0|1:2,0:0:0:0:
154,256,129953,1,10,0:0:0:0:
392,69,130259,5,2,1:2:0:0:
315,106,130412,1,0,0:0:0:0:
268,178,130566,1,10,0:0:0:0:
315,106,130719,1,0,1:2:0:0:
392,69,130872,2,0,L|308:63,2,78,2|2|8,0:0|1:2|0:0,0:0:0:0:
462,117,131331,6,0,L|310:177,2,156,2|2|2,0:0|0:0|1:2,0:0:0:0:
462,117,132402,1,10,0:0:0:0:
87,290,132708,6,0,L|90:197,1,78,6|0,1:2|0:0,0:0:0:0:
235,277,133015,2,0,L|237:191,1,78,10|0,0:0|1:2,0:0:0:0:
158,134,133321,1,0,0:0:0:0:
119,118,133397,1,2,0:0:0:0:
119,118,133474,1,2,1:2:0:0:
160,132,133550,1,0,0:0:0:0:
258,245,133627,1,10,0:0:0:0:
258,245,133780,1,2,0:0:0:0:
97,93,134086,5,0,0:0:0:0:
240,168,134239,2,0,P|298:171|339:251,2,156,10|2|10,0:0|0:0|0:0,0:0:0:0:
169,119,135004,1,0,0:0:0:0:
311,111,135157,6,0,L|330:145,2,39,2|2|2,1:2|0:0|0:0,0:0:0:0:
226,94,135464,1,8,0:0:0:0:
311,104,135617,1,2,1:2:0:0:
379,115,135923,1,2,1:2:0:0:
232,203,136229,1,2,0:0:0:0:
379,280,136382,6,0,L|430:344,2,78,4|10|8,1:2|0:0|0:0,0:0:0:0:
231,282,136841,2,0,L|197:310,1,39,2|0,1:2|0:0,0:0:0:0:
234,279,136994,2,0,L|320:268,1,78,8|2,0:0|1:2,0:0:0:0:
161,70,137300,2,0,L|163:166,1,78,2|4,1:2|0:3,0:0:0:0:
377,332,137606,5,6,1:2:0:0:
357,264,137759,1,0,0:0:0:0:
215,250,137912,1,10,0:0:0:0:
229,188,138066,1,0,1:2:0:0:
308,151,138219,2,0,L|347:151,1,39,2|0,0:0|0:0,0:0:0:0:
347,151,138372,2,0,L|308:151,1,39,2|0,1:2|0:0,0:0:0:0:
206,114,138525,1,10,0:0:0:0:
206,114,138678,1,2,0:0:0:0:
364,263,138984,5,0,0:0:0:0:
219,266,139137,2,0,P|157:277|114:367,2,156,10|2|10,0:0|0:0|0:0,0:0:0:0:
292,222,139902,1,0,0:0:0:0:
147,182,140055,6,0,L|101:199,2,39,0|2|0,1:2|0:0|0:0,0:0:0:0:
231,166,140361,1,10,0:0:0:0:
145,153,140515,1,0,1:2:0:0:
301,81,140821,1,2,1:2:0:0:
410,175,141127,1,2,0:0:0:0:
318,265,141433,5,2,0:0:0:0:
147,283,141739,1,2,1:2:0:0:
312,237,142045,1,2,1:2:0:0:
167,97,142198,2,0,L|162:180,1,78,10|0,1:2|0:0,0:0:0:0:
385,333,142504,5,6,1:2:0:0:
463,298,142657,2,0,P|448:273|325:255,1,156,0|2,0:0|1:2,0:0:0:0:
413,218,143117,2,0,L|465:207,2,39,0|0|2,0:0|0:0|1:2,0:0:0:0:
334,183,143423,2,0,L|418:160,1,78,10|2,0:0|0:0,0:0:0:0:
186,303,143729,6,0,L|143:316,2,39,0|2|2,1:0|0:0|0:0,0:0:0:0:
265,213,144035,2,0,L|246:250,2,39,10|0|0,0:0|0:0|1:0,0:0:0:0:
344,160,144341,2,0,L|383:181,2,39,2|2|0,0:0|0:0|1:0,0:0:0:0:
188,121,144647,2,0,L|185:204,1,78,10|0,0:0|0:0,0:0:0:0:
410,328,144953,5,2,1:2:0:0:
477,275,145106,2,0,P|428:241|321:232,1,156,2|2,0:0|1:2,0:0:0:0:
410,189,145566,2,0,L|458:179,2,39,0|0|2,0:0|0:0|1:2,0:0:0:0:
330,157,145872,2,0,L|319:237,1,78,10|0,0:0|0:0,0:0:0:0:
99,341,146178,6,0,L|104:264,1,78,2|10,1:2|0:0,0:0:0:0:
254,245,146484,1,8,0:0:0:0:
184,194,146637,2,0,L|219:153,1,39,10|8,0:0|0:0,0:0:0:0:
250,151,146790,1,10,0:0:0:0:
324,193,146943,1,2,1:2:0:0:
182,101,147096,2,0,L|101:100,1,78,8|4,0:0|0:3,0:0:0:0:
332,338,147402,6,0,P|359:320|313:231,1,156,6|8,1:2|0:0,0:0:0:0:
239,193,147861,2,0,P|209:164|272:92,1,156,2|0,0:0|0:0,0:0:0:0:
418,76,148321,1,10,0:0:0:0:
278,289,148627,5,0,0:0:0:0:
138,189,148933,1,0,0:0:0:0:
208,139,149086,1,0,0:0:0:0:
293,128,149239,2,0,L|132:118,1,156,0|8,0:0|0:0,0:0:0:0:
374,317,149851,6,0,P|418:288|356:227,1,156,2|8,1:2|0:0,0:0:0:0:
289,186,150310,2,0,L|283:22,1,156,2|0,1:2|1:0,0:0:0:0:
139,123,150770,1,10,0:0:0:0:
280,220,151076,5,0,0:0:0:0:
421,317,151382,1,0,0:0:0:0:
351,266,151535,1,0,0:0:0:0:
195,193,151841,1,0,0:0:0:0:
258,135,151994,1,0,0:0:0:0:
343,141,152147,1,0,0:0:0:0:
200,64,152300,6,0,P|158:77|201:153,1,156,6|8,1:2|0:0,0:0:0:0:
275,171,152759,2,0,P|313:190|260:268,1,156,2|0,1:2|1:0,0:0:0:0:
127,283,153219,1,10,0:0:0:0:
267,184,153525,5,0,0:0:0:0:
407,282,153831,1,0,0:0:0:0:
336,232,153984,1,0,0:0:0:0:
251,218,154137,2,0,L|419:201,1,156,0|8,0:0|0:0,0:0:0:0:
160,67,154749,6,0,P|131:77|172:157,1,156,2|8,1:2|0:0,0:0:0:0:
252,185,155208,2,0,L|256:343,1,156,2|0,1:2|1:0,0:0:0:0:
403,328,155668,1,10,0:0:0:0:
157,164,155974,6,0,L|242:164,2,78,4|8|8,1:2|0:0|0:0,0:0:0:0:
79,127,156433,2,0,L|129:108,1,39,8|8,0:0|0:0,0:0:0:0:
158,108,156586,1,8,0:0:0:0:
236,142,156739,1,0,1:2:0:0:
313,178,156892,1,8,0:0:0:0:
79,334,157045,5,4,0:3:0:0:
256,192,157198,12,0,160007,0:0:0:0:
