osu file format v14

[General]
AudioFilename: audio.mp3
AudioLeadIn: 0
PreviewTime: 60362
Countdown: 0
SampleSet: Soft
StackLeniency: 0.8
Mode: 0
LetterboxInBreaks: 0
WidescreenStoryboard: 1

[Editor]
DistanceSpacing: 1
BeatDivisor: 2
GridSize: 4
TimelineZoom: 3.199999

[Metadata]
Title:What I feel for you
TitleUnicode:What I feel for you
Artist:happy30
ArtistUnicode:happy30
Creator:Zekk
Version:Normal
Source:東方永夜抄 ~ Imperishable Night.
Tags:kyubey evilelvis natteke desu jounzan deetz diodex ac8129464363 happy30 enneya instrumental touhou project 2hu zun reach for the moon immortal smoke 月まで届け、不死の煙 th8 fujiwara no mokou 藤原 妹紅 theme broken pieces of truth folk
BeatmapID:4231599
BeatmapSetID:2030543

[Difficulty]
HPDrainRate:4
CircleSize:3.7
OverallDifficulty:4
ApproachRate:5
SliderMultiplier:1
SliderTickRate:2

[Events]
//Background and Video events
0,0,"49860843_p0-min.jpg",0,0
//Break Periods
//Storyboard Layer 0 (Background)
//Storyboard Layer 1 (Fail)
//Storyboard Layer 2 (Pass)
//Storyboard Layer 3 (Foreground)
//Storyboard Layer 4 (Overlay)
//Storyboard Sound Samples

[TimingPoints]
-7020,468.75,4,2,1,20,1,0
480,-111.111111111111,4,2,1,40,0,0
13617,-111.111111111111,4,2,1,40,0,0
15480,-100,4,2,1,40,0,0
21820,-100,4,2,1,30,0,0
21937,-100,4,2,1,40,0,0
30480,-111.111111111111,4,2,1,40,0,0
60480,-90.9090909090909,4,2,1,60,0,1
90480,-111.111111111111,4,2,1,20,0,0
118605,-111.111111111111,4,2,1,40,0,0
120480,-111.111111111111,4,2,1,40,0,0
135480,-111.111111111111,4,2,1,40,0,0
137355,-111.111111111111,4,2,1,30,0,0
139230,-111.111111111111,4,2,1,5,0,0

[Colours]
Combo1 : 255,94,55
Combo2 : 173,255,95
Combo3 : 17,254,176
Combo4 : 255,88,100

[HitObjects]
126,52,11,5,0,2:2:0:0:
126,52,245,1,0,2:2:0:0:
126,52,480,2,0,P|199:69|243:74,1,89.9999972534181,0|0,2:2|2:2,0:0:0:0:
233,111,1183,1,0,2:2:0:0:
233,111,1417,2,0,L|311:125,2,44.999998626709,0|0|0,2:2|2:2|2:2,0:0:0:0:
153,154,2355,2,0,P|163:182|151:295,1,134.999995880127,2|0,2:2|2:2,0:0:0:0:
116,306,3292,1,2,2:1:0:0:
244,346,3995,5,0,2:2:0:0:
244,346,4230,2,0,L|346:331,1,89.9999972534181,2|0,2:2|2:2,0:0:0:0:
312,245,5167,2,0,L|418:230,1,89.9999972534181,0|0,2:2|2:2,0:0:0:0:
440,151,6105,2,0,P|446:116|419:51,1,89.9999972534181,2|0,2:2|2:2,0:0:0:0:
390,42,6808,1,0,2:2:0:0:
390,42,7042,1,2,2:1:0:0:
315,91,7511,1,0,2:2:0:0:
272,105,7745,1,0,2:2:0:0:
228,92,7980,6,0,B|176:82|195:106|108:77,1,89.9999972534181,2|0,2:2|2:2,0:0:0:0:
76,20,8917,1,0,2:2:0:0:
18,88,9386,1,0,2:2:0:0:
27,177,9855,2,0,P|54:213|124:229,1,89.9999972534181,0|0,2:2|2:2,0:0:0:0:
125,262,10558,1,0,2:2:0:0:
125,262,10792,1,2,2:1:0:0:
231,345,11495,5,0,2:2:0:0:
268,319,11730,2,0,L|256:214,1,89.9999972534181,0|0,2:2|2:2,0:0:0:0:
343,180,12667,2,0,L|331:88,1,89.9999972534181,0|0,2:2|2:2,0:0:0:0:
250,49,13605,5,4,1:1:0:0:
250,49,13839,2,0,P|233:99|246:158,1,89.9999972534181,0|0,2:2|1:1,0:0:0:0:
255,176,14542,1,0,2:2:0:0:
193,241,15011,1,0,1:1:0:0:
285,280,15480,6,0,P|374:308|413:356,1,150,4|0,1:2|1:1,0:0:0:0:
458,356,16417,2,0,L|467:298,1,50,2|0,2:2|1:1,0:0:0:0:
481,258,16886,1,0,3:3:0:0:
482,157,17355,2,0,P|433:166|383:172,1,100,4|0,2:2|3:3,0:0:0:0:
335,155,18058,1,0,1:1:0:0:
335,155,18292,2,0,P|268:169|216:185,1,100,2|0,2:2|2:2,0:0:0:0:
152,230,19230,6,0,P|136:191|139:119,1,100,4|0,2:2|3:3,0:0:0:0:
234,122,20167,2,0,P|234:72|217:25,1,100,2|4,2:2|2:2,0:0:0:0:
117,13,21105,1,4,1:1:0:0:
60,95,21573,1,0,3:3:0:0:
60,95,21808,1,4,1:1:0:0:
60,95,22042,2,0,L|49:158,2,50,2|0|4,2:2|1:1|1:2,0:0:0:0:
149,140,22980,6,0,P|201:142|256:153,1,100,4|0,1:2|3:3,0:0:0:0:
290,177,23683,1,0,1:1:0:0:
290,177,23917,1,2,2:2:0:0:
385,146,24386,1,0,3:3:0:0:
362,243,24855,2,0,P|406:259|473:286,1,100,4|0,1:2|3:3,0:0:0:0:
481,321,25558,1,0,1:1:0:0:
503,276,25792,1,2,2:2:0:0:
451,135,26495,5,2,2:2:0:0:
451,135,26730,2,0,P|404:113|376:64,1,100,4|0,2:2|3:3,0:0:0:0:
299,134,27667,2,0,P|291:83|317:25,1,100,2|4,2:2|2:2,0:0:0:0:
211,8,28605,1,4,1:1:0:0:
169,35,28839,2,0,P|121:47|70:58,1,100,0|4,0:0|1:1,0:0:0:0:
36,94,29542,1,0,2:2:0:0:
90,177,30011,1,4,1:1:0:0:
167,130,30480,6,0,B|276:115|252:176|363:136,1,179.999994506836,4|2,2:2|2:2,0:0:0:0:
425,105,31886,1,2,2:2:0:0:
426,195,32355,2,0,P|433:270|424:311,1,89.9999972534181,2|0,2:1|0:0,0:0:0:0:
348,322,33292,2,0,P|289:336|211:355,1,134.999995880127,2|2,2:2|2:2,0:0:0:0:
175,372,34230,1,4,2:2:0:0:
103,309,34698,1,2,2:2:0:0:
118,220,35167,1,2,2:1:0:0:
204,194,35636,1,2,2:1:0:0:
166,103,36105,5,4,2:2:0:0:
254,90,36573,1,2,2:1:0:0:
287,6,37042,1,2,2:2:0:0:
357,62,37511,2,0,P|419:83|470:91,1,89.9999972534181,6|4,2:2|2:2,0:0:0:0:
431,267,38917,1,2,2:2:0:0:
347,233,39386,1,2,2:2:0:0:
266,272,39855,2,0,B|196:257|221:296|116:265,1,134.999995880127,2|0,2:1|0:0,0:0:0:0:
95,294,40792,1,2,2:2:0:0:
36,225,41261,1,2,2:1:0:0:
96,158,41730,6,0,P|140:143|181:108,1,89.9999972534181,2|2,2:1|2:2,0:0:0:0:
258,146,42667,2,0,P|263:99|252:48,1,89.9999972534181,4|2,2:2|2:1,0:0:0:0:
339,25,43605,1,4,2:2:0:0:
413,75,44073,1,2,2:1:0:0:
367,152,44542,1,2,2:2:0:0:
410,231,45011,1,4,2:2:0:0:
410,231,45245,1,2,2:2:0:0:
410,231,45480,6,0,P|296:264|245:312,1,179.999994506836,8|0,2:3|2:2,0:0:0:0:
177,354,46886,1,0,1:1:0:0:
134,367,47120,1,0,3:3:0:0:
103,334,47355,2,0,P|110:289|109:240,1,89.9999972534181,8|4,2:3|2:2,0:0:0:0:
48,177,48292,1,2,2:2:0:0:
120,123,48761,2,0,L|181:136,1,44.999998626709,0|0,1:1|0:0,0:0:0:0:
202,156,49230,6,0,P|239:107|295:77,1,89.9999972534181,8|4,2:3|2:2,0:0:0:0:
333,36,50167,2,0,P|352:72|410:111,1,89.9999972534181,2|0,2:2|1:1,0:0:0:0:
434,100,50870,1,0,1:0:0:0:
476,77,51105,1,4,2:2:0:0:
506,161,51573,1,0,1:1:0:0:
438,220,52042,2,0,P|446:255|467:324,1,89.9999972534181,4|4,2:2|2:2,0:0:0:0:
435,344,52745,1,0,1:1:0:0:
390,351,52980,2,0,P|351:314|255:298,1,134.999995880127,8|0,2:3|0:0,0:0:0:0:
233,315,53917,1,0,2:2:0:0:
151,352,54386,2,0,L|81:337,1,44.999998626709,0|0,1:1|3:3,0:0:0:0:
62,346,54855,6,0,B|40:303|56:253|56:253,1,89.9999972534181,8|4,2:3|2:2,0:0:0:0:
27,172,55792,1,2,2:2:0:0:
94,112,56261,2,0,P|123:106|149:98,1,44.999998626709,0|0,1:1|3:3,0:0:0:0:
176,77,56730,1,4,1:2:0:0:
207,109,56964,1,0,2:2:0:0:
200,153,57198,2,0,P|211:187|225:258,1,89.9999972534181,2|0,2:1|2:2,0:0:0:0:
301,282,58136,1,0,2:2:0:0:
338,256,58370,1,0,1:1:0:0:
380,270,58605,5,4,1:2:0:0:
456,223,59073,1,4,2:2:0:0:
436,135,59542,1,4,2:2:0:0:
349,111,60011,2,0,L|281:127,1,44.999998626709,4|2,2:2|1:1,0:0:0:0:
252,136,60480,6,0,B|209:183|235:246,1,110.000003356934,4|0,1:1|3:3,0:0:0:0:
271,277,61183,1,2,1:1:0:0:
271,277,61417,2,0,L|257:354,1,55.0000016784668,0|0,3:3|2:2,0:0:0:0:
217,364,61886,1,0,3:3:0:0:
165,344,62120,1,4,2:2:0:0:
113,363,62355,5,0,3:3:0:0:
63,264,62823,2,0,B|91:262|147:243,1,55.0000016784668,0|2,3:3|1:1,0:0:0:0:
148,207,63292,2,0,P|189:172|212:102,1,110.000003356934,0|0,1:1|3:3,0:0:0:0:
254,88,63995,1,4,2:2:0:0:
254,88,64230,2,0,L|321:103,2,55.0000016784668,4|0|0,1:2|2:2|3:3,0:0:0:0:
173,12,65167,1,4,1:2:0:0:
77,65,65636,5,0,1:1:0:0:
53,114,65870,1,4,1:2:0:0:
75,164,66105,2,0,B|113:204|88:284,1,110.000003356934,4|0,1:2|3:3,0:0:0:0:
180,333,67042,2,0,L|249:352,2,55.0000016784668,0|2|4,1:0|1:0|1:2,0:0:0:0:
169,278,67745,1,0,1:0:0:0:
215,247,67980,6,0,P|282:263|345:274,1,110.000003356934,4|0,1:0|3:0,0:0:0:0:
305,163,68917,2,0,L|331:82,1,55.0000016784668,0|0,3:3|2:2,0:0:0:0:
356,67,69386,1,0,3:3:0:0:
410,59,69620,1,4,1:2:0:0:
449,98,69855,2,0,P|475:149|506:205,1,110.000003356934,0|0,3:3|3:3,0:0:0:0:
456,296,70792,1,0,1:1:0:0:
351,260,71261,2,0,L|271:238,1,55.0000016784668,4|2,1:2|1:1,0:0:0:0:
252,213,71730,6,0,L|111:253,1,110.000003356934,4|0,1:2|3:3,0:0:0:0:
116,289,72433,1,2,1:1:0:0:
116,289,72667,2,0,P|71:278|26:216,1,110.000003356934,4|0,1:2|3:3,0:0:0:0:
45,122,73605,1,4,1:2:0:0:
99,122,73839,1,2,1:1:0:0:
145,92,74073,1,4,1:2:0:0:
231,23,74542,2,0,P|268:38|304:54,1,55.0000016784668,4|0,1:2|2:2,0:0:0:0:
336,39,75011,6,0,P|358:68|359:161,2,110.000003356934,4|4|0,1:2|1:1|2:2,0:0:0:0:
256,114,76417,2,0,P|236:158|211:242,1,110.000003356934,0|0,2:2|3:3,0:0:0:0:
253,257,77120,1,2,2:2:0:0:
232,308,77355,2,0,L|250:368,2,55.0000016784668,4|0|0,2:2|2:2|3:3,0:0:0:0:
313,233,78292,1,0,2:2:0:0:
414,275,78761,1,4,1:2:0:0:
447,231,78995,1,2,2:2:0:0:
422,181,79230,6,0,P|409:126|386:58,1,110.000003356934,4|0,1:2|3:3,0:0:0:0:
393,19,79933,1,2,3:2:0:0:
338,18,80167,2,0,P|304:29|266:37,1,55.0000016784668,4|0,2:2|2:2,0:0:0:0:
245,71,80636,1,0,3:3:0:0:
250,180,81105,1,4,1:2:0:0:
150,226,81573,1,4,2:2:0:0:
44,193,82042,5,4,2:2:0:0:
46,310,82511,2,0,P|76:318|141:334,1,55.0000016784668,4|0,2:2|0:0,0:0:0:0:
151,305,82980,2,0,P|191:317|304:352,1,110.000003356934,4|0,1:1|3:3,0:0:0:0:
299,364,83683,1,2,2:2:0:0:
348,339,83917,1,0,2:2:0:0:
308,236,84386,5,0,3:3:0:0:
357,212,84620,1,2,2:2:0:0:
388,166,84855,2,0,L|362:85,2,55.0000016784668,4|0|0,2:2|2:2|1:1,0:0:0:0:
388,276,85792,2,0,B|345:304|345:304|268:299,1,110.000003356934,4|4,1:2|2:2,0:0:0:0:
247,339,86495,1,2,2:2:0:0:
247,339,86730,6,0,P|201:324|135:306,1,110.000003356934,4|0,2:2|3:3,0:0:0:0:
108,263,87433,1,0,3:3:0:0:
151,229,87667,2,0,P|163:199|176:148,1,55.0000016784668,2|0,2:1|2:2,0:0:0:0:
224,170,88136,2,0,P|249:140|265:103,1,55.0000016784668,0|0,3:3|3:3,0:0:0:0:
283,77,88605,1,4,2:2:0:0:
384,35,89073,1,0,3:3:0:0:
456,117,89542,1,4,2:2:0:0:
460,171,89776,1,2,2:1:0:0:
426,215,90011,2,0,P|395:220|353:233,1,55.0000016784668,4|2,2:2|2:1,0:0:0:0:
334,261,90480,6,0,B|265:185|162:225|162:225,1,179.999994506836,4|0,2:2|2:2,0:0:0:0:
73,69,92355,2,0,B|144:157|245:105|245:105,1,179.999994506836,4|0,2:2|2:2,0:0:0:0:
384,7,94230,2,0,P|393:50|414:123,1,89.9999972534181,4|0,2:2|2:2,0:0:0:0:
383,134,94933,1,0,2:2:0:0:
383,134,95167,1,0,2:2:0:0:
390,313,96105,6,0,P|322:315|262:328,1,89.9999972534181,4|2,2:2|2:2,0:0:0:0:
255,320,96808,1,2,2:2:0:0:
255,320,97042,2,0,L|247:247,2,44.999998626709,2|2|2,2:2|2:2|2:2,0:0:0:0:
219,347,97745,1,0,2:2:0:0:
176,331,97980,6,0,P|167:295|183:210,1,89.9999972534181,4|0,2:2|2:2,0:0:0:0:
211,223,98683,1,0,2:2:0:0:
211,223,98917,1,0,2:2:0:0:
115,70,99855,2,0,P|181:69|236:62,1,89.9999972534181,4|0,2:2|2:2,0:0:0:0:
243,43,100558,1,0,2:2:0:0:
243,43,100792,1,0,2:2:0:0:
338,195,101730,6,0,P|405:205|451:220,1,89.9999972534181,4|0,2:2|2:2,0:0:0:0:
470,202,102433,1,0,2:2:0:0:
470,202,102667,2,0,P|466:247|485:314,1,89.9999972534181,0|0,2:2|2:2,0:0:0:0:
394,332,103605,2,0,B|296:354|336:293|175:317,1,179.999994506836,4|0,2:2|2:2,0:0:0:0:
141,265,105011,1,0,2:2:0:0:
109,232,105245,1,0,2:2:0:0:
121,188,105480,6,0,P|130:137|145:88,1,89.9999972534181,2|2,2:1|2:2,0:0:0:0:
213,47,106417,2,0,L|267:35,2,44.999998626709,2|2|2,2:2|2:2|2:1,0:0:0:0:
246,130,107355,2,0,P|293:140|341:186,1,89.9999972534181,4|2,2:2|2:2,0:0:0:0:
325,209,108058,1,2,2:2:0:0:
325,209,108292,1,2,2:1:0:0:
298,341,108995,5,2,2:2:0:0:
298,341,109230,2,0,P|249:340|175:347,1,89.9999972534181,2|2,2:1|2:1,0:0:0:0:
168,261,110167,2,0,P|123:263|78:262,1,89.9999972534181,4|2,2:2|2:1,0:0:0:0:
32,184,111105,6,0,P|48:180|90:167,2,44.999998626709,4|0|2,2:2|0:0|2:2,0:0:0:0:
11,224,111808,1,2,2:1:0:0:
11,224,112042,2,0,P|33:251|29:321,1,89.9999972534181,4|2,2:2|2:2,0:0:0:0:
19,346,112745,1,2,2:2:0:0:
61,360,112980,6,0,P|93:363|162:381,1,89.9999972534181,2|2,2:1|2:2,0:0:0:0:
228,322,113917,1,2,2:1:0:0:
172,251,114386,1,2,2:2:0:0:
246,200,114855,6,0,P|258:157|254:91,1,89.9999972534181,4|2,2:2|2:2,0:0:0:0:
230,76,115558,1,2,2:2:0:0:
230,76,115792,1,2,2:1:0:0:
353,21,116495,1,2,2:2:0:0:
353,21,116730,2,0,P|405:36|458:45,1,89.9999972534181,4|2,2:2|2:1,0:0:0:0:
409,127,117667,2,0,P|453:135|496:148,1,89.9999972534181,2|2,2:1|2:1,0:0:0:0:
446,223,118605,5,4,1:1:0:0:
415,255,118839,1,0,2:2:0:0:
376,277,119073,2,0,P|325:265|296:260,1,44.999998626709,0|2,2:2|2:1,0:0:0:0:
290,250,119542,1,0,2:2:0:0:
320,165,120011,1,2,2:2:0:0:
252,105,120480,6,0,B|178:175|62:122,1,179.999994506836,4|0,2:2|0:0,0:0:0:0:
23,197,121886,1,2,2:2:0:0:
103,237,122355,2,0,P|153:244|218:258,1,89.9999972534181,2|0,2:1|0:0,0:0:0:0:
253,183,123292,2,0,P|297:191|341:197,1,89.9999972534181,2|2,2:2|2:1,0:0:0:0:
408,258,124230,5,4,2:2:0:0:
463,187,124698,1,2,2:1:0:0:
463,187,124933,1,2,2:2:0:0:
463,187,125167,1,2,2:1:0:0:
406,116,125636,1,2,2:2:0:0:
419,26,126105,2,0,P|373:28|308:43,1,89.9999972534181,4|2,2:2|2:1,0:0:0:0:
287,25,126808,1,2,2:2:0:0:
259,60,127042,2,0,L|240:172,1,89.9999972534181,2|2,2:2|2:1,0:0:0:0:
285,228,127980,6,0,P|281:273|282:332,1,89.9999972534181,4|0,2:2|0:0,0:0:0:0:
250,350,128683,1,0,0:0:0:0:
250,350,128917,1,2,2:2:0:0:
160,336,129386,1,2,2:2:0:0:
106,263,129855,5,2,2:1:0:0:
152,186,130323,1,0,0:0:0:0:
152,186,130558,1,0,0:0:0:0:
152,186,130792,1,2,2:2:0:0:
240,203,131261,1,2,2:1:0:0:
318,247,131730,2,0,P|335:200|340:142,1,89.9999972534181,4|2,2:2|2:2,0:0:0:0:
401,94,132667,2,0,P|375:40|347:0,1,89.9999972534181,4|2,2:2|2:2,0:0:0:0:
275,49,133605,6,0,L|213:66,1,44.999998626709,4|0,1:1|2:2,0:0:0:0:
189,45,134073,2,0,L|173:110,1,44.999998626709,0|0,2:2|2:2,0:0:0:0:
147,121,134542,2,0,L|185:175,1,44.999998626709,0|0,2:2|2:2,0:0:0:0:
159,200,135011,1,0,2:2:0:0:
244,227,135480,6,0,P|259:189|268:161,1,44.999998626709,4|0,2:2|2:2,0:0:0:0:
281,145,135948,1,2,2:2:0:0:
281,145,136183,2,0,P|361:167|432:178,1,134.999995880127,2|0,2:2|2:2,0:0:0:0:
464,249,137355,1,2,2:2:0:0:
