osu file format v14

[General]
AudioFilename: audio.mp3
AudioLeadIn: 0
PreviewTime: 39920
Countdown: 1
SampleSet: None
StackLeniency: 0.3
Mode: 0
LetterboxInBreaks: 0
WidescreenStoryboard: 0

[Editor]
Bookmarks: 26691,40025,66691,80025
DistanceSpacing: 0.5
BeatDivisor: 3
GridSize: 16
TimelineZoom: 1

[Metadata]
Title:Kappa March
TitleUnicode:Kappa March
Artist:happy30
ArtistUnicode:happy30
Creator:Nyanaro
Version:Hard
Source:
Tags:
BeatmapID:1287136
BeatmapSetID:609490

[Difficulty]
HPDrainRate:6
CircleSize:4
OverallDifficulty:7
ApproachRate:8.7
SliderMultiplier:1.4
SliderTickRate:1

[Events]
//Background and Video events
0,0,"imagevv.jpg",0,0
//Break Periods
//Storyboard Layer 0 (Background)
//Storyboard Layer 1 (Fail)
//Storyboard Layer 2 (Pass)
//Storyboard Layer 3 (Foreground)
//Storyboard Sound Samples

[TimingPoints]
25,416.666666666667,4,3,0,20,1,0
30025,-76.9230769230769,4,3,0,20,0,0
40025,-100,4,3,0,20,0,0
70025,-76.9230769230769,4,3,0,20,0,0

[Colours]
Combo1 : 175,185,218
Combo2 : 199,252,232
Combo3 : 252,171,218
Combo4 : 210,208,185

[HitObjects]
98,78,25,6,0,L|159:200,1,93.3333333333333
149,90,441,2,0,L|176:224,1,93.3333333333333
194,114,858,2,0,L|185:250,1,93.3333333333333
231,148,1275,2,0,L|187:278,1,93.3333333333333
243,325,1691,6,0,P|308:292|356:304,1,93.3333333333333
273,257,2108,2,0,P|338:224|386:236,1,93.3333333333333
303,189,2525,2,0,P|368:156|416:168,1,93.3333333333333
333,121,2941,2,0,P|398:88|446:100,1,93.3333333333333
333,121,3358,6,0,L|233:83,1,93.3333333333333
303,189,3775,2,0,L|196:178,1,93.3333333333333
273,257,4191,2,0,L|167:274,1,93.3333333333333
243,325,4608,2,0,L|145:368,1,93.3333333333333
92,305,5025,6,0,B|61:271|52:198,1,93.3333333333333
110,274,5441,2,0,B|79:240|70:167,1,93.3333333333333
128,243,5858,2,0,B|97:209|88:136,1,93.3333333333333
146,212,6275,2,0,B|115:178|106:105,1,93.3333333333333
51,66,6691,6,0,P|118:41|166:73,1,93.3333333333333
226,48,7108,2,0,P|297:41|335:84,1,93.3333333333333
265,112,7525,2,0,L|243:220,1,93.3333333333333
266,152,7941,2,0,L|272:262,1,93.3333333333333
254,333,8358,6,0,P|311:322|346:285,1,93.3333333333333
349,333,8775,2,0,P|401:307|425:262,1,93.3333333333333
437,192,9191,2,0,P|380:203|345:240,1,93.3333333333333
342,192,9608,2,0,P|289:217|265:262,1,93.3333333333333
342,192,10025,6,0,L|365:57,1,93.3333333333333
368,47,10441,2,0,L|233:71,1,93.3333333333333
184,53,10858,2,0,L|49:77,1,93.3333333333333
111,114,11275,2,0,L|88:249,1,93.3333333333333
160,251,11691,6,0,L|175:266,14,17.5
172,263,12525,2,0,P|190:316|243:345,1,93.3333333333333
229,342,12941,2,0,L|364:318,1,93.3333333333333
400,289,13358,6,0,L|446:160,1,93.3333333333333
383,244,13775,2,0,L|394:107,1,93.3333333333333
354,204,14191,2,0,L|329:69,1,93.3333333333333
315,172,14608,2,0,L|256:47,1,93.3333333333333
177,56,15025,6,0,L|234:180,1,93.3333333333333
163,101,15441,2,0,L|185:236,1,93.3333333333333
138,143,15858,2,0,L|124:279,1,93.3333333333333
102,178,16275,2,0,L|54:307,1,93.3333333333333
126,330,16691,6,0,L|257:297,1,93.3333333333333
212,341,17108,2,0,L|343:308,1,93.3333333333333
298,352,17525,2,0,L|429:319,1,93.3333333333333
384,363,17941,2,0,L|515:330,1,93.3333333333333
462,252,18358,6,0,P|455:297|474:340,1,93.3333333333333
388,329,18775,2,0,P|368:287|374:241,1,93.3333333333333
288,230,19191,2,0,P|282:276|302:318,1,93.3333333333333
216,307,19608,2,0,P|196:251|224:190,1,93.3333333333333
201,130,20025,6,0,P|188:174|202:219,1,93.3333333333333
288,208,20441,2,0,P|275:157|295:110,1,93.3333333333333
373,108,20858,2,0,P|360:152|374:197,1,93.3333333333333
460,185,21275,2,0,P|447:134|467:87,1,93.3333333333333
460,185,21691,6,0,L|388:107,1,93.3333333333333
374,197,22108,2,0,L|302:119,1,93.3333333333333
288,208,22525,2,0,L|216:130,1,93.3333333333333
202,219,22941,2,0,L|130:141,1,93.3333333333333
155,79,23358,6,0,P|106:83|63:139,1,93.3333333333333
138,150,23775,2,0,P|102:187|51:192,1,93.3333333333333
209,133,24191,6,0,P|205:182|149:225,1,93.3333333333333
138,150,24608,2,0,P|100:185|95:236,1,93.3333333333333
177,214,25025,6,0,L|251:288,1,93.3333333333333
325,272,25441,2,0,P|321:321|265:364,1,93.3333333333333
357,294,25858,2,0,P|382:248|431:276,1,93.3333333333333
325,272,26275,2,0,L|454:247,1,93.3333333333333
313,169,26691,5,0,0:0:0:0:
313,169,26830,1,0,0:0:0:0:
313,169,26969,1,0,0:0:0:0:
313,169,27108,2,0,P|363:143|402:159,1,93.3333333333333
456,96,27525,2,0,P|414:57|372:63,1,93.3333333333333
313,169,27941,1,0,0:0:0:0:
302,84,28219,1,0,0:0:0:0:
233,136,28358,5,0,0:0:0:0:
233,136,28497,1,0,0:0:0:0:
233,136,28636,1,0,0:0:0:0:
233,136,28775,2,0,P|183:110|144:126,1,93.3333333333333
90,63,29191,2,0,P|131:24|173:30,1,93.3333333333333
233,136,29608,1,0,0:0:0:0:
150,120,29886,5,0,0:0:0:0:
46,156,30025,2,0,L|27:300,1,121.333327779134
129,228,30441,2,0,L|144:348,1,121.333327779134
46,156,30858,5,0,0:0:0:0:
155,177,31275,1,0,0:0:0:0:
233,104,31552,5,0,0:0:0:0:
337,140,31691,2,0,L|356:284,1,121.333327779134
254,212,32108,2,0,L|238:332,1,121.333327779134
352,260,32525,5,0,0:0:0:0:
237,332,32941,1,0,0:0:0:0:
352,260,33219,5,0,0:0:0:0:
437,206,33358,1,0,0:0:0:0:
337,140,33775,6,0,L|441:54,1,121.333327779134
430,62,34191,1,0,0:0:0:0:
334,100,34608,5,0,0:0:0:0:
251,55,34886,2,0,P|203:50|186:50,1,60.6666638895672
99,76,35302,1,0,0:0:0:0:
38,112,35441,1,0,0:0:0:0:
190,50,35719,2,0,P|205:100|205:116,1,60.6666638895672
182,199,36275,5,0,0:0:0:0:
111,261,36691,1,0,0:0:0:0:
26,302,37108,1,0,0:0:0:0:
111,261,37525,1,0,0:3:0:0:
196,298,37941,1,0,0:3:0:0:
269,358,38358,1,0,0:3:0:0:
269,358,38775,6,0,B|330:313|399:308|399:308|410:263,1,181.999991668702
408,267,39608,1,0,0:0:0:0:
408,267,40025,6,0,L|437:161,1,93.3333333333333
388,224,40441,2,0,L|388:114,1,93.3333333333333
357,187,40858,2,0,L|329:80,1,93.3333333333333
317,159,41275,2,0,L|262:63,1,93.3333333333333
205,35,41691,6,0,P|190:80|213:128,1,93.3333333333333
270,77,42108,2,0,P|285:122|262:170,1,93.3333333333333
203,204,42525,2,0,P|188:249|211:297,1,93.3333333333333
161,277,42941,2,0,P|129:312|76:316,1,93.3333333333333
93,243,43358,6,0,L|137:152,1,93.3333333333333
145,208,43775,2,0,L|172:110,1,93.3333333333333
190,164,44191,2,0,L|200:63,1,93.3333333333333
226,112,44608,2,0,L|218:11,1,93.3333333333333
305,61,45025,6,0,P|369:63|395:87,1,93.3333333333333
333,132,45441,2,0,P|372:155|418:150,1,93.3333333333333
334,174,45858,2,0,P|324:237|343:267,1,93.3333333333333
400,213,46275,2,0,P|416:255|403:299,1,93.3333333333333
331,338,46691,6,0,L|210:359,1,93.3333333333333
263,318,47108,2,0,L|142:339,1,93.3333333333333
195,298,47525,2,0,L|74:319,1,93.3333333333333
127,278,47941,2,0,L|6:299,1,93.3333333333333
95,252,48358,6,0,P|129:200|116:137,1,93.3333333333333
54,188,48775,2,0,P|66:127|120:91,1,93.3333333333333
129,170,49191,2,0,P|191:173|239:130,1,93.3333333333333
163,101,49608,2,0,P|222:81|279:110,1,93.3333333333333
319,41,50025,6,0,L|414:96,1,93.3333333333333
435,157,50441,2,0,L|453:265,1,93.3333333333333
447,339,50858,2,0,L|352:284,1,93.3333333333333
331,223,51275,2,0,L|312:114,1,93.3333333333333
250,88,51691,6,0,L|235:103,14,17.5
237,100,52525,2,0,P|170:85|139:108,1,93.3333333333333
77,64,52941,2,0,L|29:171,1,93.3333333333333
122,169,53358,6,0,P|91:216|28:230,1,93.3333333333333
137,214,53775,2,0,P|153:267|123:324,1,93.3333333333333
181,231,54191,2,0,P|232:252|257:312,1,93.3333333333333
222,208,54608,2,0,P|271:182|333:201,1,93.3333333333333
328,261,55025,6,0,P|381:270|450:254,1,93.3333333333333
422,186,55441,2,0,P|436:134|479:78,1,93.3333333333333
399,44,55858,2,0,P|346:53|277:37,1,93.3333333333333
229,18,56275,2,0,P|176:9|107:25,1,93.3333333333333
59,54,56691,6,0,L|29:170,1,93.3333333333333
112,141,57108,2,0,L|142:257,1,93.3333333333333
59,228,57525,2,0,L|29:344,1,93.3333333333333
112,321,57941,2,0,L|142:205,1,93.3333333333333
187,323,58358,6,0,L|211:233,1,93.3333333333333
287,235,58775,2,0,L|264:326,1,93.3333333333333
340,328,59191,2,0,L|363:237,1,93.3333333333333
439,239,59608,2,0,L|416:330,1,93.3333333333333
362,237,60025,6,0,P|396:176|440:164,1,93.3333333333333
360,165,60441,2,0,P|326:104|282:92,1,93.3333333333333
230,100,60858,2,0,P|169:134|157:178,1,93.3333333333333
158,98,61275,2,0,P|97:64|85:20,1,93.3333333333333
160,152,61691,6,0,L|49:188,1,93.3333333333333
147,189,62108,2,0,L|30:195,1,93.3333333333333
124,221,62525,2,0,L|9:196,1,93.3333333333333
93,245,62941,2,0,L|-10:191,1,93.3333333333333
124,221,63358,6,0,P|133:286|87:332,1,93.3333333333333
181,349,63775,2,0,P|210:313|254:302,1,93.3333333333333
263,235,64191,2,0,P|217:227|185:194,1,93.3333333333333
254,160,64608,2,0,L|277:60,1,93.3333333333333
263,235,65025,6,0,L|338:304,1,93.3333333333333
325,249,65441,2,0,L|426:236,1,93.3333333333333
375,210,65858,2,0,L|430:123,1,93.3333333333333
377,146,66275,2,0,L|346:47,1,93.3333333333333
274,69,66691,5,0,0:0:0:0:
274,69,66830,1,0,0:0:0:0:
274,69,66969,1,0,0:0:0:0:
274,69,67108,2,0,P|217:71|191:104,1,93.3333333333333
174,187,67525,2,0,P|230:184|256:151,1,93.3333333333333
194,96,67941,1,0,0:0:0:0:
89,198,68219,1,0,0:0:0:0:
141,267,68358,5,0,0:0:0:0:
141,267,68497,1,0,0:0:0:0:
141,267,68636,1,0,0:0:0:0:
141,267,68775,2,0,P|197:269|223:302,1,93.3333333333333
266,364,69191,2,0,P|322:361|348:328,1,93.3333333333333
297,270,69608,1,0,0:0:0:0:
297,270,69886,1,0,0:0:0:0:
399,255,70025,6,0,L|443:117,1,121.333327779134
333,153,70441,2,0,L|289:15,1,121.333327779134
397,60,70858,5,0,0:0:0:0:
333,153,71275,1,0,0:0:0:0:
214,126,71552,5,0,0:0:0:0:
112,141,71691,2,0,L|68:279,1,121.333327779134
178,243,72107,2,0,L|222:381,1,121.333327779134
114,336,72524,5,0,0:0:0:0:
214,358,72941,1,0,0:0:0:0:
329,332,73219,5,0,0:0:0:0:
429,310,73358,1,0,0:0:0:0:
347,237,73775,6,0,L|468:172,1,121.333327779134
454,180,74191,1,0,0:0:0:0:
399,171,74608,5,0,0:0:0:0:
336,100,74886,2,0,P|292:78|276:73,1,60.6666638895672
186,68,75302,1,0,0:0:0:0:
116,81,75441,1,0,0:0:0:0:
280,74,75719,2,0,P|276:126|271:141,1,60.6666638895672
222,212,76275,5,0,0:0:0:0:
134,246,76691,1,0,0:0:0:0:
40,255,77108,1,0,0:0:0:0:
134,246,77525,1,0,0:3:0:0:
225,259,77941,1,0,0:3:0:0:
311,298,78358,1,0,0:3:0:0:
405,305,78775,6,0,L|454:183,1,121.333327779134
450,192,79191,1,0,0:0:0:0:
448,66,79608,1,0,0:0:0:0:
