osu file format v14

[General]
AudioFilename: windblows192.mp3
AudioLeadIn: 0
PreviewTime: 11123
Countdown: 0
SampleSet: Soft
StackLeniency: 0.7
Mode: 0
LetterboxInBreaks: 0
WidescreenStoryboard: 1

[Editor]
Bookmarks: 54269,86629
DistanceSpacing: 1.2
BeatDivisor: 4
GridSize: 4
TimelineZoom: 1

[Metadata]
Title:As the wind blows
TitleUnicode:As the wind blows
Artist:happy30
ArtistUnicode:happy30
Creator:happy30
Version:Normal
Source:
Tags:Mikii
BeatmapID:855014
BeatmapSetID:355073

[Difficulty]
HPDrainRate:3
CircleSize:3.5
OverallDifficulty:4
ApproachRate:5
SliderMultiplier:0.799999999999999
SliderTickRate:1

[Events]
//Background and Video events
0,0,"windblowsbg.jpg",0,0
//Break Periods
2,86870,90863
2,119229,128616
//Storyboard Layer 0 (Background)
//Storyboard Layer 1 (Fail)
//Storyboard Layer 2 (Pass)
//Storyboard Layer 3 (Foreground)
//Storyboard Sound Samples

[TimingPoints]
377,337.078651685393,4,2,0,45,1,0
65096,-100,4,2,0,45,0,1
65264,-100,4,2,0,45,0,0
140601,-100,4,2,0,45,0,1
162174,-100,4,2,0,45,0,0

[Colours]
Combo1 : 255,255,128
Combo2 : 128,255,128
Combo3 : 0,128,255
Combo4 : 255,128,128

[HitObjects]
64,304,5771,5,0,3:0:0:0:
256,332,6445,1,0,3:0:0:0:
444,300,7119,2,0,L|464:140,1,160,0|0,3:0|3:0,0:0:0:0:
376,180,8130,1,0,1:0:0:0:
356,272,8467,6,0,P|300:320|228:288,1,160,0|0,0:0|0:0,0:0:0:0:
164,216,9479,1,0,1:0:0:0:
172,120,9816,2,0,P|228:72|300:104,1,160,0|0,1:0|3:0,0:0:0:0:
328,196,10827,1,0,1:0:0:0:
328,196,11164,6,0,L|424:216,1,79.9999999999999,4|0,1:0|1:0,0:0:0:0:
420,308,11838,1,0,3:0:0:0:
328,288,12175,1,0,1:0:0:0:
232,272,12512,2,0,L|104:292,1,120,0|0,1:2|1:0,0:0:0:0:
56,212,13355,1,0,3:0:0:0:
84,120,13692,5,0,1:0:0:0:
84,120,13861,2,0,L|72:36,1,79.9999999999999,0|0,1:0|1:0,0:0:0:0:
160,80,14535,2,0,L|148:-4,1,79.9999999999999,0|0,3:0|1:0,0:0:0:0:
240,28,15209,2,0,L|252:112,2,79.9999999999999,0|0|0,3:0|1:0|3:0,0:0:0:0:
334,45,16219,1,0,1:0:0:0:
340,143,16557,6,0,L|356:240,1,79.9999999999999,4|0,1:0|1:0,0:0:0:0:
368,315,17231,1,0,3:0:0:0:
276,292,17568,1,0,1:0:0:0:
180,276,17905,2,0,L|52:296,1,120,0|0,1:2|1:0,0:0:0:0:
76,200,18748,1,0,3:0:0:0:
168,180,19085,5,0,1:0:0:0:
168,180,19254,2,0,L|180:96,1,79.9999999999999,0|0,1:0|1:0,0:0:0:0:
272,116,19928,2,0,L|284:32,1,79.9999999999999,0|0,3:0|1:0,0:0:0:0:
368,84,20602,2,0,L|356:168,2,79.9999999999999,0|0|0,1:0|1:0|1:0,0:0:0:0:
457,117,21612,1,0,1:0:0:0:
440,212,21951,5,4,1:0:0:0:
468,304,22288,1,0,1:0:0:0:
392,364,22625,1,0,3:0:0:0:
312,308,22962,1,0,1:0:0:0:
336,216,23299,2,0,P|280:196|208:208,1,120,0|0,1:0|1:0,0:0:0:0:
132,244,24142,1,0,3:0:0:0:
60,180,24479,5,0,3:0:0:0:
60,180,24647,2,0,P|60:120|68:96,1,79.9999999999999,4|0,3:1|1:0,0:0:0:0:
160,80,25321,2,0,L|152:164,1,79.9999999999999,0|0,3:0|1:0,0:0:0:0:
240,196,25995,2,0,P|248:157|245:117,1,79.9999999999999,0|0,3:0|1:0,0:0:0:0:
152,159,26670,2,0,P|143:197|146:237,1,79.9999999999999,0|0,3:0|1:0,0:0:0:0:
192,320,27344,5,4,1:0:0:0:
288,336,27681,1,0,1:0:0:0:
360,272,28018,1,0,3:0:0:0:
344,176,28355,1,0,1:0:0:0:
270,113,28692,2,0,L|99:102,1,160,0|0,3:0|0:0,0:0:0:0:
14,96,29703,1,0,1:0:0:0:
39,188,30040,6,0,P|130:200|186:243,1,160,4|0,3:1|3:0,0:0:0:0:
224,328,31052,1,0,1:0:0:0:
318,341,31389,2,0,P|383:296|462:289,1,160,0|0,2:0|1:0,0:0:0:0:
486,196,32400,1,0,1:0:0:0:
486,196,32737,6,0,P|394:140|282:260,1,280,4|0,1:0|3:0,0:0:0:0:
278,256,34085,2,0,P|232:151|118:168,1,240,0|0,0:0|1:0,0:0:0:0:
45,219,35433,2,0,P|37:131|37:123,2,79.9999999999999,0|0|0,3:0|3:0|0:0,0:0:0:0:
136,246,36444,2,0,P|144:334|144:342,1,79.9999999999999,0|0,3:0|3:0,0:0:0:0:
240,323,37119,1,2,1:2:0:0:
336,332,37456,1,2,0:0:0:0:
432,320,37793,1,2,1:2:0:0:
472,232,38130,6,0,P|386:132|267:186,1,280,4|0,1:0|3:0,0:0:0:0:
268,200,39478,2,0,P|222:305|108:288,1,240,0|0,0:0|1:0,0:0:0:0:
39,233,40826,2,0,P|31:145|31:137,1,79.9999999999999,0|0,3:0|1:0,0:0:0:0:
124,130,41500,2,0,P|132:42|132:34,1,79.9999999999999,0|0,3:0|1:0,0:0:0:0:
225,14,42175,1,2,0:0:0:0:
310,55,42512,1,2,1:2:0:0:
325,149,42849,1,2,0:0:0:0:
238,188,43186,1,2,1:2:0:0:
223,282,43524,6,0,P|342:335|427:236,1,280,4|0,1:0|3:0,0:0:0:0:
432,220,44872,2,0,L|455:51,1,160
360,36,45883,1,0,1:0:0:0:
349,132,46220,6,0,P|261:193|165:121,1,240,0|0,0:0|1:0,0:0:0:0:
192,31,47569,1,2,0:0:0:0:
257,100,47906,1,2,1:2:0:0:
242,194,48243,1,2,0:0:0:0:
158,240,48580,1,2,1:2:0:0:
70,278,48917,6,0,P|158:348|294:268,1,280,4|0,1:0|3:0,0:0:0:0:
297,265,50265,2,0,P|378:340|470:276,1,240,0|0,0:0|1:0,0:0:0:0:
481,181,51613,5,0,0:0:0:0:
295,123,52288,1,0,0:0:0:0:
116,192,52962,1,2,0:0:0:0:
256,348,53636,1,0,1:0:0:0:
256,348,53973,1,0,1:0:0:0:
284,256,54310,6,0,L|304:160,1,79.9999999999999,4|0,1:0|1:0,0:0:0:0:
396,176,54984,1,0,3:0:0:0:
372,268,55321,1,0,3:0:0:0:
464,248,55658,2,0,L|493:121,1,120,0|0,1:2|1:0,0:0:0:0:
440,48,56501,1,0,3:0:0:0:
360,100,56838,5,0,1:0:0:0:
360,100,57007,2,0,L|276:112,1,79.9999999999999,4|0,1:0|1:0,0:0:0:0:
244,200,57681,2,0,L|232:284,1,79.9999999999999,0|0,3:0|1:0,0:0:0:0:
136,284,58355,2,0,L|124:368,2,79.9999999999999,0|0|0,3:0|1:0|3:0,0:0:0:0:
48,308,59365,1,0,1:0:0:0:
66,214,59703,6,0,L|82:118,1,79.9999999999999,4|0,1:0|1:0,0:0:0:0:
168,99,60377,1,0,3:0:0:0:
160,188,60714,1,0,1:0:0:0:
248,152,61051,2,0,P|304:149|376:172,1,120,0|0,1:2|1:0,0:0:0:0:
384,260,61894,1,0,3:0:0:0:
304,312,62231,5,0,1:0:0:0:
304,312,62400,2,0,L|292:228,1,79.9999999999999,4|0,1:0|1:0,0:0:0:0:
196,224,63074,2,0,L|208:140,1,79.9999999999999,0|0,3:0|1:0,0:0:0:0:
116,172,63748,2,0,L|96:300,1,120,0|0,1:0|0:0,0:0:0:0:
96,308,64422,1,0,1:0:0:0:
184,348,64760,1,0,1:0:0:0:
272,312,65097,5,4,1:0:0:0:
240,220,65434,1,0,1:0:0:0:
292,140,65771,2,0,P|344:112|416:124,1,120,0|0,3:0|1:3,0:0:0:0:
416,128,66445,2,0,L|407:211,1,79.9999999999999,0|0,1:0|1:0,0:0:0:0:
399,303,67119,6,0,L|431:371,2,59.9999999999999,0|0|0,3:0|1:0|1:0,0:0:0:0:
390,289,67793,2,0,P|310:257|250:289,1,160,4|0,1:0|1:0,0:0:0:0:
163,332,68804,1,0,1:0:0:0:
70,303,69142,2,0,P|39:222|72:163,1,160,0|0,1:0|1:0,0:0:0:0:
71,66,70153,1,0,1:0:0:0:
159,103,70490,5,4,1:0:0:0:
250,74,70827,1,0,1:0:0:0:
333,121,71164,1,0,3:0:0:0:
370,209,71501,1,0,1:0:0:0:
340,300,71838,2,0,L|246:299,1,79.9999999999999,0|0,3:0|1:0,0:0:0:0:
164,302,72512,2,0,L|96:322,2,59.9999999999999,0|0|0,3:0|1:0|1:0,0:0:0:0:
162,285,73186,6,0,L|155:189,1,79.9999999999999,4|0,1:0|1:0,0:0:0:0:
243,163,73861,2,0,L|339:170,1,79.9999999999999,0|0,3:0|1:0,0:0:0:0:
341,262,74534,2,0,L|334:358,1,79.9999999999999,0|0,1:0|1:0,0:0:0:0:
239,331,75208,2,0,L|143:324,1,79.9999999999999,0|0,1:0|1:0,0:0:0:0:
61,317,75883,5,4,1:0:0:0:
12,240,76220,1,0,1:0:0:0:
56,156,76557,1,0,3:0:0:0:
152,144,76894,1,0,1:3:0:0:
216,216,77231,2,0,P|242:237|295:228,1,79.9999999999999,0|0,3:0|1:0,0:0:0:0:
381,217,77906,2,0,L|457:225,2,59.9999999999999,0|0|0,3:0|1:0|1:0,0:0:0:0:
367,207,78580,5,4,1:0:0:0:
355,111,78917,1,0,1:0:0:0:
443,148,79254,1,0,1:0:0:0:
219,227,79928,1,0,1:0:0:0:
183,139,80265,1,0,1:0:0:0:
127,215,80602,1,0,1:0:0:0:
163,303,80939,1,0,1:0:0:0:
219,227,81276,6,0,P|271:247|296:239,1,79.9999999999999,4|0,1:0|1:0,0:0:0:0:
372,188,81951,2,0,L|496:204,1,120,0|0,1:0|3:0,0:0:0:0:
511,203,82625,1,0,1:0:0:0:
462,120,82961,1,0,1:0:0:0:
366,106,83299,2,0,L|358:42,2,59.9999999999999,0|0|0,3:0|1:0|1:0,0:0:0:0:
351,119,83973,6,0,P|323:167|303:243,1,120,4|0,1:0|3:0,0:0:0:0:
302,246,84647,2,0,P|262:198|206:174,1,120,0|0,1:0|1:0,0:0:0:0:
194,172,85321,1,0,1:0:0:0:
174,266,85658,1,0,1:0:0:0:
82,237,85995,1,0,1:0:0:0:
101,142,86333,1,0,1:0:0:0:
194,172,86670,1,4,1:0:0:0:
256,192,92063,5,0,1:0:0:0:
256,192,92231,1,0,3:0:0:0:
352,208,92569,1,0,3:0:0:0:
448,192,92906,1,0,3:0:0:0:
360,306,93411,2,0,P|300:314|200:350,1,160,0|0,1:0|1:0,0:0:0:0:
119,307,94421,5,0,1:0:0:0:
96,213,94759,2,0,P|127:178|201:154,1,120,0|0,1:0|1:0,2:0:0:0:
292,184,95602,1,0,1:0:0:0:
328,272,95939,1,0,1:0:0:0:
344,264,96108,2,0,P|380:224|392:112,1,160,0|0,1:0|1:0,0:0:0:0:
364,32,97119,1,0,1:0:0:0:
296,96,97456,5,0,1:0:0:0:
296,96,97625,1,0,3:0:0:0:
212,144,97962,1,0,3:0:0:0:
120,120,98299,1,0,3:0:0:0:
116,264,98804,2,0,P|176:256|276:220,1,160,0|0,1:0|1:0,0:0:0:0:
348,168,99815,1,0,1:0:0:0:
350,263,100152,6,0,P|336:314|330:353,1,79.9999999999999,0|0,1:0|1:0,0:0:0:0:
335,360,100658,1,0,1:0:0:0:
424,325,100995,1,0,1:0:0:0:
484,256,101332,1,0,1:0:0:0:
492,244,101501,2,0,P|478:178|420:100,1,160,0|0,1:0|1:0,0:0:0:0:
332,80,102512,1,0,1:0:0:0:
308,172,102849,5,4,1:0:0:0:
400,204,103186,1,0,1:0:0:0:
428,112,103524,1,0,0:0:0:0:
332,80,103861,1,0,1:0:0:0:
240,112,104198,2,0,L|104:124,1,120,0|0,1:0|0:0,0:0:0:0:
104,124,104872,1,0,1:0:0:0:
84,216,105209,1,0,1:0:0:0:
96,312,105546,5,0,1:0:0:0:
284,268,106220,1,0,1:0:0:0:
304,176,106557,1,0,1:0:0:0:
292,80,106894,1,0,3:0:0:0:
304,76,107063,2,0,L|440:60,1,120,0|0,0:0|1:0,0:0:0:0:
480,140,107906,1,0,1:0:0:0:
448,228,108243,5,4,1:0:0:0:
352,240,108580,1,0,1:0:0:0:
268,196,108917,1,0,0:0:0:0:
180,156,109254,1,0,1:0:0:0:
92,196,109591,2,0,P|48:252|32:300,1,120,0|0,1:0|0:0,0:0:0:0:
28,312,110265,1,0,1:0:0:0:
112,360,110602,1,0,1:0:0:0:
176,288,110939,6,0,L|200:128,1,160,0|0,1:0|0:0,0:0:0:0:
292,100,111951,1,0,1:0:0:0:
276,196,112288,2,0,P|312:264|456:232,1,240,0|0,3:0|1:0,0:0:0:0:
416,152,113636,5,4,1:0:0:0:
272,24,114310,1,0,3:0:0:0:
204,204,114984,1,0,1:0:0:0:
296,232,115321,1,0,1:0:0:0:
276,140,115658,1,0,1:0:0:0:
204,204,115995,1,0,1:0:0:0:
220,296,116333,5,4,1:0:0:0:
404,348,117007,1,0,1:0:0:0:
480,172,117681,1,4,1:0:0:0:
296,116,118355,1,4,1:0:0:0:
296,116,118692,1,4,1:0:0:0:
312,212,119029,1,4,0:0:0:0:
32,246,129816,6,0,P|88:270|140:246,1,120,0|0,1:0|3:0,0:0:0:0:
147,257,130490,2,0,P|203:281|255:257,1,120,0|0,1:0|3:0,0:0:0:0:
264,248,131164,2,0,P|320:224|372:248,1,120,0|0,1:0|3:0,0:0:0:0:
383,258,131838,1,0,1:0:0:0:
440,180,132175,1,0,1:0:0:0:
472,272,132512,5,0,1:0:0:0:
326,146,133186,2,0,L|322:98,1,40,0|0,1:0|0:0,0:0:0:0:
221,209,133861,2,0,L|217:257,1,40,0|0,1:0|0:0,0:0:0:0:
136,128,134535,2,0,L|132:80,1,40,0|0,1:0|3:0,0:0:0:0:
132,72,134872,1,0,1:0:0:0:
40,92,135209,6,0,P|16:148|40:200,1,120,4|0,1:0|3:0,0:0:0:0:
48,216,135883,2,0,P|104:240|156:216,1,120,0|0,1:0|3:0,0:0:0:0:
168,208,136557,2,0,P|221:185|274:209,1,120,0|0,1:0|3:0,0:0:0:0:
288,225,137231,1,0,1:0:0:0:
280,320,137568,1,0,1:0:0:0:
364,276,137906,6,0,L|376:188,1,79.9999999999999,4|0,1:0|1:0,0:0:0:0:
468,212,138580,2,0,L|480:124,1,79.9999999999999,0|0,1:0|1:0,0:0:0:0:
488,36,139254,1,4,1:0:0:0:
392,20,139591,1,0,1:0:0:0:
344,104,139928,1,0,1:0:0:0:
400,184,140265,1,0,1:0:0:0:
416,280,140602,5,4,1:0:0:0:
344,344,140939,1,0,1:0:0:0:
252,316,141276,2,0,P|200:344|128:332,1,120,0|0,1:0|1:0,0:0:0:0:
128,328,141950,2,0,L|135:243,1,79.9999999999999,0|0,1:0|1:0,0:0:0:0:
147,153,142624,2,0,L|115:85,2,59.9999999999999,0|0|0,1:0|1:0|1:0,0:0:0:0:
154,168,143298,6,0,P|234:200|294:168,1,160,4|0,1:0|1:0,0:0:0:0:
390,163,144309,1,0,1:0:0:0:
409,257,144647,2,0,P|329:289|267:328,1,160,0|0,1:0|1:0,0:0:0:0:
177,363,145658,1,0,1:0:0:0:
94,313,145995,5,4,1:0:0:0:
177,265,146332,1,0,1:0:0:0:
134,178,146669,1,0,1:0:0:0:
229,170,147006,1,0,1:0:0:0:
232,85,147343,2,0,P|284:45|311:39,1,79.9999999999999,0|0,1:0|1:0,0:0:0:0:
388,71,148017,2,0,L|456:51,2,59.9999999999999,0|0|0,1:0|1:0|1:0,0:0:0:0:
371,78,148692,6,0,L|378:174,1,79.9999999999999,4|0,1:0|1:0,0:0:0:0:
286,190,149366,2,0,L|190:183,1,79.9999999999999,0|0,1:0|1:0,0:0:0:0:
205,88,150040,2,0,L|212:-8,1,79.9999999999999,0|0,1:0|1:0,0:0:0:0:
302,36,150714,2,0,L|398:43,1,79.9999999999999,0|0,1:0|1:0,0:0:0:0:
475,62,151388,5,4,1:0:0:0:
506,154,151725,1,0,1:0:0:0:
452,233,152062,1,0,1:0:0:0:
356,241,152399,1,0,1:0:0:0:
296,168,152736,2,0,P|244:136|214:138,1,79.9999999999999,0|0,1:0|1:0,0:0:0:0:
135,167,153411,2,0,L|59:159,2,59.9999999999999,0|0|0,1:0|1:0|1:0,0:0:0:0:
152,171,154085,5,4,1:0:0:0:
95,248,154422,1,0,1:0:0:0:
188,269,154759,1,0,1:0:0:0:
328,164,155433,1,0,1:0:0:0:
364,252,155770,1,0,1:0:0:0:
420,176,156107,1,0,1:0:0:0:
384,88,156444,1,0,1:0:0:0:
328,164,156781,6,0,P|276:144|244:144,1,79.9999999999999,4|0,1:0|1:0,0:0:0:0:
165,185,157456,2,0,L|41:169,1,120,0|0,1:0|1:0,0:0:0:0:
26,170,158130,1,0,1:0:0:0:
66,256,158466,1,0,1:0:0:0:
153,296,158804,2,0,L|161:360,2,59.9999999999999,0|0|0,1:0|1:0|1:0,0:0:0:0:
162,282,159478,6,0,P|190:234|210:158,1,120,4|0,1:0|0:0,0:0:0:0:
206,158,160152,2,0,P|246:206|302:230,1,120,0|0,1:0|1:0,0:0:0:0:
256,192,160826,12,4,162174,1:0:0:0:
