osu file format v14

[General]
AudioFilename: windblows192.mp3
AudioLeadIn: 0
PreviewTime: 11123
Countdown: 0
SampleSet: Soft
StackLeniency: 0.7
Mode: 0
LetterboxInBreaks: 0
WidescreenStoryboard: 1

[Editor]
Bookmarks: 54269,86629
DistanceSpacing: 1.4
BeatDivisor: 4
GridSize: 8
TimelineZoom: 1

[Metadata]
Title:As the wind blows
TitleUnicode:As the wind blows
Artist:happy30
ArtistUnicode:happy30
Creator:happy30
Version:Insane
Source:
Tags:Mikii
BeatmapID:877816
BeatmapSetID:355073

[Difficulty]
HPDrainRate:6
CircleSize:4
OverallDifficulty:7
ApproachRate:8.5
SliderMultiplier:1.6
SliderTickRate:1

[Events]
//Background and Video events
0,0,"windblowsbg.jpg",0,0
//Break Periods
2,86869,91387
//Storyboard Layer 0 (Background)
//Storyboard Layer 1 (Fail)
//Storyboard Layer 2 (Pass)
//Storyboard Layer 3 (Foreground)
//Storyboard Sound Samples

[TimingPoints]
377,337.078651685393,4,2,0,45,1,0
65096,-100,4,2,0,45,0,1
65180,-100,4,2,0,45,0,0
92062,-133.333333333333,4,2,0,45,0,0
137905,-100,4,2,0,45,0,0
140601,-100,4,2,0,45,0,1
162174,-100,4,2,0,45,0,0

[Colours]
Combo1 : 255,255,128
Combo2 : 128,255,128
Combo3 : 0,128,255
Combo4 : 255,128,128

[HitObjects]
256,192,3073,12,0,5433,2:0:0:0:
282,174,5770,5,0,3:0:0:0:
144,96,6107,1,0,1:0:0:0:
8,176,6444,1,0,3:0:0:0:
168,200,6781,1,0,1:0:0:0:
224,264,6950,1,0,3:0:0:0:
256,336,7118,5,0,3:0:0:0:
416,312,7455,1,0,1:0:0:0:
280,192,7792,2,0,P|279:132|341:68,1,120,0|0,3:0|0:0,0:0:0:0:
326,78,8129,1,0,1:0:0:0:
368,160,8298,1,0,3:0:0:0:
176,160,8466,6,0,L|88:168,1,80,0|0,0:0|0:0,0:0:0:0:
16,176,8803,1,0,1:0:0:0:
16,176,8972,1,0,0:0:0:0:
128,320,9141,2,0,L|216:328,1,80,0|0,0:0|0:0,0:0:0:0:
288,336,9478,1,0,1:0:0:0:
312,160,9647,5,0,0:0:0:0:
312,160,9730,1,0,3:0:0:0:
312,160,9815,2,0,P|368:200|432:176,1,120,0|0,1:0|3:0,0:0:0:0:
425,178,10152,1,0,1:0:0:0:
280,56,10320,1,0,1:0:0:0:
184,104,10489,1,0,3:0:0:0:
232,192,10657,1,0,0:0:0:0:
152,240,10826,1,0,1:0:0:0:
145,258,10910,1,0,1:0:0:0:
138,276,10994,1,0,1:0:0:0:
131,295,11079,1,0,1:0:0:0:
124,313,11163,5,4,1:0:0:0:
48,296,11332,1,0,0:0:0:0:
24,216,11500,1,0,1:0:0:0:
64,144,11669,1,2,0:0:0:0:
160,112,11837,2,0,P|168:64|168:32,1,80,0|0,3:0|0:0,0:0:0:0:
8,256,12174,2,0,P|0:304|0:336,1,80,0|2,1:0|3:2,0:0:0:0:
88,328,12511,6,0,L|184:312,1,80,0|0,1:2|0:0,0:0:0:0:
176,296,12764,2,0,P|256:296|272:312,1,80,0|0,1:0|0:0,0:0:0:0:
264,304,13017,1,2,1:2:0:0:
224,384,13185,1,0,3:0:0:0:
113,235,13354,1,0,3:0:0:0:
113,235,13438,1,0,3:0:0:0:
113,235,13523,1,0,1:0:0:0:
273,312,13691,1,2,1:2:0:0:
249,136,13860,5,4,1:0:0:0:
177,176,14028,1,0,0:0:0:0:
137,248,14197,1,0,1:0:0:0:
153,328,14365,1,2,0:2:0:0:
297,208,14534,2,0,P|281:160|257:136,1,80,0|0,3:0|0:0,0:0:0:0:
193,96,14871,1,0,1:0:0:0:
113,112,15039,1,2,3:2:0:0:
65,176,15208,5,0,3:0:0:0:
273,312,15376,2,0,L|289:224,1,80,2|0,0:0|1:0,0:0:0:0:
409,176,15714,2,0,L|393:264,1,80,2|0,0:0|3:0,0:0:0:0:
241,128,16051,2,0,P|241:82|257:40,1,80,2|0,0:0|1:0,0:0:0:0:
321,16,16388,1,2,3:2:0:0:
456,184,16556,5,4,1:1:0:0:
384,216,16725,1,0,0:0:0:0:
304,208,16893,1,0,1:0:0:0:
224,184,17062,1,2,0:2:0:0:
144,208,17230,2,0,P|136:256|136:288,1,80,0|0,3:0|0:0,0:0:0:0:
328,368,17567,2,0,P|336:320|336:288,1,80,0|2,1:0|0:2,0:0:0:0:
320,168,17904,6,0,L|224:184,1,80,0|0,1:2|0:0,0:0:0:0:
224,184,18157,2,0,P|224:104|240:88,1,80,0|0,1:0|0:0,0:0:0:0:
228,99,18410,1,2,1:2:0:0:
399,219,18579,1,0,3:0:0:0:
187,282,18747,1,0,3:0:0:0:
187,282,18832,1,0,3:0:0:0:
187,282,18916,1,0,1:0:0:0:
176,376,19084,1,2,1:2:0:0:
248,224,19253,5,0,3:0:0:0:
296,288,19421,1,0,0:0:0:0:
256,360,19590,1,0,1:0:0:0:
176,376,19758,1,2,0:2:0:0:
160,224,19927,2,0,P|176:176|200:152,1,80,0|0,3:0|0:0,0:0:0:0:
264,112,20264,1,0,1:0:0:0:
344,128,20432,1,2,0:2:0:0:
392,192,20601,5,0,1:0:0:0:
184,328,20769,2,0,L|168:240,1,80,2|0,0:0|1:0,0:0:0:0:
48,192,21107,2,0,L|64:280,1,80,2|0,0:0|1:0,0:0:0:0:
216,144,21444,2,0,P|215:98|200:56,1,80,2|0,0:0|1:0,0:0:0:0:
136,32,21781,1,2,0:0:0:0:
168,240,21950,5,4,1:0:0:0:
248,224,22118,1,0,0:0:0:0:
304,168,22287,1,0,1:0:0:0:
304,88,22455,1,2,0:2:0:0:
247,233,22624,2,0,L|256:328,1,80,0|0,3:0|0:0,0:0:0:0:
432,352,22961,2,0,L|423:257,1,80,0|2,1:0|3:2,0:0:0:0:
392,118,23298,6,0,P|328:126|288:126,1,80,0|0,3:0|0:2,0:0:0:0:
299,126,23551,2,0,P|291:62|296:13,1,80,0|0,1:0|0:0,0:0:0:0:
296,32,23803,1,2,1:2:0:0:
200,152,23972,1,0,0:0:0:0:
136,32,24141,1,0,3:0:0:0:
136,32,24225,1,0,0:0:0:0:
136,32,24309,1,0,1:0:0:0:
208,72,24478,1,2,3:2:0:0:
200,152,24646,6,0,P|180:191|176:256,1,80,4|0,3:1|0:0,0:0:0:0:
416,264,24983,2,0,P|435:224|440:160,1,80,0|2,1:0|0:2,0:0:0:0:
512,232,25320,2,0,P|504:271|486:306,1,80,0|0,3:0|0:0,0:0:0:0:
328,352,25657,2,0,P|328:312|320:272,1,80,0|2,1:0|0:2,0:0:0:0:
376,144,25994,5,0,3:0:0:0:
312,264,26163,1,2,0:0:0:0:
176,168,26332,1,0,1:0:0:0:
256,32,26500,1,2,0:0:0:0:
296,104,26669,1,0,3:0:0:0:
256,176,26837,1,2,3:2:0:0:
256,176,26921,1,0,3:0:0:0:
256,176,27006,1,0,1:0:0:0:
272,256,27174,1,2,1:2:0:0:
208,336,27343,5,4,1:0:0:0:
176,240,27512,1,0,0:0:0:0:
232,152,27680,1,0,1:0:0:0:
328,184,27849,1,2,0:2:0:0:
352,272,28017,2,0,P|344:320|344:352,1,80,0|0,3:0|0:0,0:0:0:0:
504,128,28354,2,0,P|512:80|512:48,1,80,0|2,1:0|0:2,0:0:0:0:
424,56,28691,6,0,L|328:72,1,80,0|0,3:0|0:0,0:0:0:0:
336,88,28944,2,0,P|256:88|240:72,1,80,0|0,1:0|0:0,0:0:0:0:
248,80,29197,1,2,1:2:0:0:
288,0,29365,1,0,0:0:0:0:
399,149,29534,1,0,3:0:0:0:
399,149,29618,1,0,0:0:0:0:
399,149,29703,1,0,1:0:0:0:
239,72,29871,1,2,3:2:0:0:
263,248,30040,5,4,3:1:0:0:
335,208,30208,1,0,0:0:0:0:
375,136,30377,1,0,1:0:0:0:
359,56,30545,1,2,0:2:0:0:
215,176,30714,2,0,P|231:224|255:248,1,80,0|0,3:0|0:0,0:0:0:0:
319,288,31051,1,0,1:0:0:0:
399,272,31219,5,2,1:2:0:0:
399,272,31303,1,0,0:0:0:0:
399,272,31388,1,0,1:0:0:0:
320,84,31556,2,0,L|304:172,1,80,0|0,1:0|1:0,0:0:0:0:
103,208,31894,2,0,L|119:120,1,80,2|0,2:0|1:0,0:0:0:0:
284,256,32230,1,2,0:0:0:0:
211,338,32399,1,4,1:1:0:0:
196,351,32483,1,0,1:0:0:0:
176,355,32568,1,0,1:0:0:0:
156,354,32652,1,0,1:0:0:0:
137,346,32736,5,4,1:0:0:0:
348,196,32905,2,0,L|459:193,1,80,0|0,3:0|1:0,0:0:0:0:
500,320,33242,2,0,L|389:323,1,80,0|0,3:0|0:0,0:0:0:0:
203,183,33579,1,0,3:0:0:0:
312,272,33747,2,0,P|334:310|342:355,1,80,0|0,1:0|3:0,0:0:0:0:
172,264,34084,6,0,P|181:225|201:191,1,80,0|0,0:0|3:0,0:0:0:0:
309,110,34421,1,0,1:0:0:0:
406,244,34590,2,0,P|341:287|248:248,1,160,0|0,3:0|3:0,0:0:0:0:
160,143,35096,1,0,1:0:0:0:
44,237,35264,6,0,L|28:328,1,80,0|0,3:0|0:0,0:0:0:0:
61,228,35601,1,0,3:0:0:0:
24,156,35770,1,0,1:0:0:0:
173,282,35938,2,0,L|157:373,1,80,0|0,3:0|0:0,0:0:0:0:
345,279,36275,2,0,L|331:357,1,80,0|0,3:0|1:0,0:0:0:0:
337,265,36612,1,0,3:0:0:0:
463,158,36781,5,2,0:0:0:0:
342,69,36950,1,0,0:0:0:0:
382,190,37118,1,2,1:2:0:0:
495,82,37287,1,0,0:0:0:0:
281,167,37455,2,0,P|263:214|261:246,1,80,2|0,0:0|0:0,0:0:0:0:
260,243,37708,1,0,0:0:0:0:
260,243,37792,1,2,1:2:0:0:
355,223,37961,1,0,1:0:0:0:
375,38,38129,5,4,1:0:0:0:
220,159,38298,2,0,L|109:162,1,80,0|0,3:0|1:0,0:0:0:0:
32,84,38635,2,0,L|143:81,1,80,0|0,3:0|0:0,0:0:0:0:
309,201,38972,1,0,3:0:0:0:
248,304,39140,2,0,P|226:266|218:221,1,80,0|0,1:0|3:0,0:0:0:0:
416,152,39477,6,0,P|407:191|387:225,1,80,0|0,0:0|3:0,0:0:0:0:
224,224,39814,1,0,1:0:0:0:
208,88,39983,2,0,P|273:45|366:84,1,160,0|0,3:0|3:0,0:0:0:0:
368,232,40489,1,0,1:0:0:0:
468,147,40657,6,0,L|484:56,1,80,0|0,3:0|0:0,0:0:0:0:
451,156,40994,1,0,3:0:0:0:
488,228,41163,1,0,1:0:0:0:
339,102,41331,2,0,L|355:11,1,80,0|0,3:0|0:0,0:0:0:0:
187,117,41668,2,0,L|201:39,1,80,0|0,3:0|1:0,0:0:0:0:
174,129,42005,1,0,3:0:0:0:
49,226,42174,5,2,0:0:0:0:
170,315,42343,1,0,0:0:0:0:
130,194,42511,1,2,1:2:0:0:
17,302,42680,1,0,0:0:0:0:
231,217,42848,2,0,P|249:170|251:138,1,80,2|0,0:0|0:0,0:0:0:0:
252,141,43101,1,0,0:0:0:0:
252,141,43185,1,2,1:2:0:0:
157,161,43354,1,0,1:0:0:0:
248,312,43523,5,4,1:0:0:0:
120,368,43692,2,0,L|9:365,1,80,0|0,3:0|1:0,0:0:0:0:
240,304,44029,2,0,L|129:307,1,80,0|0,3:0|0:0,0:0:0:0:
232,216,44366,1,0,3:0:0:0:
380,302,44534,2,0,P|402:340|410:385,1,80,0|0,1:0|3:0,0:0:0:0:
320,200,44871,6,0,P|329:161|349:127,1,80,0|0,0:0|3:0,0:0:0:0:
408,64,45208,1,0,1:0:0:0:
512,264,45377,2,0,P|447:307|354:268,1,160,0|0,3:0|0:0,0:0:0:0:
232,136,45883,1,0,1:0:0:0:
173,282,46051,6,0,L|157:373,1,80,0|0,3:0|0:0,0:0:0:0:
168,272,46388,1,0,3:0:0:0:
168,272,46725,1,0,3:0:0:0:
312,200,47062,2,0,L|326:278,1,80,0|0,3:0|1:0,0:0:0:0:
272,344,47399,1,0,3:0:0:0:
464,232,47568,5,2,0:0:0:0:
360,64,47737,1,0,0:0:0:0:
312,192,47905,1,2,1:2:0:0:
448,80,48074,1,0,0:0:0:0:
248,136,48242,2,0,P|230:183|228:215,1,80,2|0,0:0|0:0,0:0:0:0:
227,212,48495,1,0,0:0:0:0:
227,212,48579,1,2,1:2:0:0:
312,192,48748,1,0,1:0:0:0:
224,48,48916,5,4,1:0:0:0:
152,240,49085,2,0,L|155:351,1,80,0|0,3:0|1:0,0:0:0:0:
8,208,49422,2,0,L|5:97,1,80,0|0,3:0|0:0,0:0:0:0:
152,224,49759,1,0,3:0:0:0:
272,128,49927,2,0,P|310:106|355:98,1,80,0|0,1:0|3:0,0:0:0:0:
384,272,50264,6,0,P|346:294|301:302,1,80,0|0,0:0|3:0,0:0:0:0:
384,184,50601,1,0,1:0:0:0:
456,224,50770,2,0,P|471:312|472:384,1,160,0|0,3:0|0:0,0:0:0:0:
280,208,51276,1,0,1:0:0:0:
128,264,51444,6,0,L|112:355,1,80,0|0,3:0|0:0,0:0:0:0:
19,193,51781,1,0,3:0:0:0:
144,252,52118,2,0,L|128:343,1,80,0|0,3:0|0:0,0:0:0:0:
32,172,52455,1,0,3:0:0:0:
232,344,52792,1,0,3:0:0:0:
256,256,52961,5,2,0:0:0:0:
256,256,53635,1,0,1:0:0:0:
256,256,53972,1,0,1:0:0:0:
256,256,54309,5,4,1:0:0:0:
200,200,54478,1,0,0:0:0:0:
256,344,54646,1,0,1:0:0:0:
360,256,54815,1,2,0:0:0:0:
112,240,54983,2,0,P|104:192|104:160,1,80,0|0,3:0|0:0,0:0:0:0:
280,80,55320,2,0,P|288:128|288:160,1,80,0|2,3:0|1:2,0:0:0:0:
423,308,55657,6,0,L|327:292,1,80,0|0,1:2|0:0,0:0:0:0:
333,310,55910,2,0,P|295:333|246:329,1,80,0|0,1:0|0:0,0:0:0:0:
249,323,56163,1,2,1:2:0:0:
281,164,56331,1,0,3:0:0:0:
396,224,56500,1,0,3:0:0:0:
396,224,56584,1,0,3:0:0:0:
396,224,56669,1,0,1:0:0:0:
172,360,56837,1,2,1:2:0:0:
75,197,57006,5,4,1:0:0:0:
135,122,57174,1,0,0:0:0:0:
39,113,57343,1,0,1:0:0:0:
75,197,57511,1,2,0:2:0:0:
227,122,57680,2,0,P|211:74|187:50,1,80,0|0,3:0|0:0,0:0:0:0:
193,197,58017,1,0,1:0:0:0:
219,288,58185,1,2,3:2:0:0:
164,367,58354,5,0,3:0:0:0:
69,354,58522,2,0,P|38:325|39:267,1,80,2|0,0:0|1:0,0:0:0:0:
270,237,58860,2,0,L|254:325,1,80,2|0,0:0|3:0,0:0:0:0:
355,261,59197,2,0,P|355:215|339:173,1,80,2|0,0:0|1:0,0:0:0:0:
294,100,59534,1,2,3:2:0:0:
389,98,59702,5,4,1:0:0:0:
344,183,59871,1,0,0:0:0:0:
254,217,60039,1,0,1:0:0:0:
166,176,60208,1,2,0:2:0:0:
73,201,60376,2,0,P|65:249|65:281,1,80,0|0,3:0|0:0,0:0:0:0:
328,368,60713,2,0,P|336:320|336:288,1,80,0|2,1:0|0:2,0:0:0:0:
320,168,61050,6,0,L|224:184,1,80,0|0,1:2|0:0,0:0:0:0:
224,184,61303,2,0,P|224:104|240:88,1,80,0|0,1:0|0:0,0:0:0:0:
228,99,61556,1,2,1:2:0:0:
399,219,61725,1,0,3:0:0:0:
187,282,61893,1,0,3:0:0:0:
187,282,61978,1,0,3:0:0:0:
187,282,62062,1,0,1:0:0:0:
176,376,62230,1,2,1:2:0:0:
248,224,62399,5,4,1:0:0:0:
296,288,62567,1,0,0:0:0:0:
256,360,62736,1,0,1:0:0:0:
176,376,62904,1,2,0:2:0:0:
160,224,63073,2,0,P|176:176|200:152,1,80,0|0,3:0|0:0,0:0:0:0:
264,112,63410,1,0,1:0:0:0:
344,128,63578,1,2,0:2:0:0:
392,192,63747,5,0,1:0:0:0:
184,328,63915,2,0,L|168:240,1,80,0|0,0:0|1:0,0:0:0:0:
48,192,64253,2,0,L|64:280,1,80,0|0,0:0|1:0,0:0:0:0:
216,144,64590,2,0,P|215:98|200:56,1,80,0|0,0:0|1:0,0:0:0:0:
136,32,64927,1,0,0:0:0:0:
144,224,65096,5,4,1:0:0:0:
216,256,65264,1,0,0:0:0:0:
296,240,65433,1,0,1:0:0:0:
336,168,65601,1,0,0:0:0:0:
488,176,65770,2,0,L|504:120,2,40,0|0|2,3:0|3:0|3:2,0:0:0:0:
392,304,66107,2,0,L|376:248,2,40,0|0|0,1:3|3:3|3:3,0:0:0:0:
240,152,66444,6,0,L|256:96,2,40,0|0|2,3:0|3:0|3:2,0:0:0:0:
128,328,66781,2,0,L|144:384,2,40,0|0|0,1:0|3:0|3:0,0:0:0:0:
72,272,67118,1,0,3:0:0:0:
62,250,67202,1,0,3:0:0:0:
55,226,67287,1,2,3:2:0:0:
53,202,67371,1,0,3:0:0:0:
54,178,67455,2,0,L|64:124,3,40,0|0|0|0,1:0|3:0|3:0|3:0,0:0:0:0:
56,177,67792,6,0,L|161:188,1,80,0|0,1:0|3:0,0:0:0:0:
320,288,68129,2,0,L|215:299,1,80,0|0,1:0|3:0,0:0:0:0:
360,144,68466,2,0,L|465:133,1,80,0|0,1:0|3:0,0:0:0:0:
439,135,68719,1,0,1:0:0:0:
472,208,68888,1,0,3:0:0:0:
472,208,68972,1,0,1:0:0:0:
432,280,69141,5,4,1:0:0:0:
352,304,69309,1,0,3:0:0:0:
280,272,69478,1,0,1:0:0:0:
256,200,69646,1,0,3:0:0:0:
272,120,69815,2,0,L|255:25,1,80,0|0,0:0|3:0,0:0:0:0:
257,41,70068,1,0,1:0:0:0:
336,50,70236,1,0,1:0:0:0:
336,50,70320,1,0,3:0:0:0:
376,128,70489,5,4,1:0:0:0:
352,208,70657,1,0,3:0:0:0:
416,256,70826,1,0,1:0:0:0:
440,184,70994,1,0,3:0:0:0:
272,120,71163,2,0,L|256:64,2,40,0|0|2,3:0|3:0|3:2,0:0:0:0:
192,304,71500,2,0,L|208:248,2,40,0|0|0,1:0|3:0|3:0,0:0:0:0:
64,200,71837,6,0,L|48:144,2,40,0|0|2,3:0|3:0|3:2,0:0:0:0:
272,336,72174,2,0,L|256:392,2,40,0|0|0,1:0|3:0|3:0,0:0:0:0:
440,272,72511,1,0,3:0:0:0:
450,250,72595,1,0,3:0:0:0:
457,226,72680,1,2,3:2:0:0:
459,202,72764,1,0,3:0:0:0:
458,178,72848,2,0,L|448:124,3,40,0|0|0|0,1:0|3:0|3:2|3:0,0:0:0:0:
456,177,73185,6,0,L|351:188,1,80,4|0,1:0|3:0,0:0:0:0:
192,288,73522,2,0,L|297:299,1,80,0|0,1:0|3:0,0:0:0:0:
152,144,73859,2,0,L|47:133,1,80,0|0,3:0|1:0,0:0:0:0:
72,135,74112,1,0,1:0:0:0:
40,208,74281,1,0,1:0:0:0:
40,208,74365,1,0,1:0:0:0:
80,280,74534,5,4,1:0:0:0:
160,304,74702,1,0,1:0:0:0:
232,272,74871,1,0,1:0:0:0:
272,200,75039,1,0,3:0:0:0:
318,134,75208,2,0,P|357:111|412:103,1,80,0|0,1:0|0:0,0:0:0:0:
391,103,75461,1,0,1:0:0:0:
472,144,75629,1,0,1:0:0:0:
472,144,75713,1,0,1:0:0:0:
496,224,75882,5,4,1:0:0:0:
416,216,76050,1,0,0:0:0:0:
368,280,76219,1,0,1:0:0:0:
384,360,76387,1,0,0:0:0:0:
464,344,76556,2,0,L|480:288,2,40,0|0|2,3:0|3:0|3:2,0:0:0:0:
312,200,76893,2,0,L|296:144,2,40,0|0|0,1:3|3:3|3:3,0:0:0:0:
464,96,77230,6,0,L|480:40,2,40,0|0|2,3:0|3:0|3:2,0:0:0:0:
240,256,77567,2,0,L|256:312,2,40,0|0|0,1:0|3:0|3:0,0:0:0:0:
72,112,77904,1,0,3:0:0:0:
62,134,77988,1,0,3:0:0:0:
55,158,78073,1,2,3:2:0:0:
53,182,78157,1,0,3:0:0:0:
54,206,78241,2,0,L|64:260,3,40,0|0|0|0,1:0|3:0|3:0|3:0,0:0:0:0:
56,207,78578,6,0,L|161:196,1,80,4|0,1:0|3:0,0:0:0:0:
320,96,78915,2,0,L|215:85,1,80,0|0,1:0|3:0,0:0:0:0:
360,240,79252,2,0,L|465:251,1,80,0|0,1:0|3:0,0:0:0:0:
439,248,79505,1,0,1:0:0:0:
472,176,79674,1,0,3:0:0:0:
472,176,79758,1,0,1:0:0:0:
432,104,79927,5,4,1:0:0:0:
352,80,80095,1,0,3:0:0:0:
280,112,80264,1,0,1:0:0:0:
256,184,80432,1,0,3:0:0:0:
362,290,80601,2,0,P|365:231|356:198,1,80,0|0,0:0|3:0,0:0:0:0:
360,210,80854,1,0,1:0:0:0:
183,116,81022,1,0,1:0:0:0:
183,116,81106,1,0,3:0:0:0:
168,200,81275,6,0,L|152:288,1,80,4|0,1:0|3:0,0:0:0:0:
56,352,81612,2,0,L|72:264,1,80,0|0,1:0|3:0,0:0:0:0:
8,160,81950,1,0,3:0:0:0:
8,160,82034,1,0,3:0:0:0:
8,160,82118,1,0,3:2:0:0:
232,304,82287,2,0,L|240:352,2,40,0|0|0,1:0|0:0|3:0,0:0:0:0:
320,144,82624,6,0,L|328:96,2,40,0|0|2,3:2|0:2|3:2,0:2:0:0:
408,192,82961,2,0,L|416:240,2,40,0|0|0,1:0|0:0|3:0,0:0:0:0:
200,224,83298,1,0,3:0:0:0:
178,234,83382,1,0,3:0:0:0:
154,241,83467,1,2,3:2:0:0:
130,243,83551,1,0,3:0:0:0:
106,242,83635,2,0,L|52:232,3,40,0|0|0|0,1:0|3:0|3:0|3:0,0:0:0:0:
105,240,83972,6,0,L|116:135,1,80,4|0,1:0|3:0,0:0:0:0:
320,248,84309,2,0,L|331:353,1,80,0|0,1:0|3:0,0:0:0:0:
400,200,84646,2,0,L|389:95,1,80,0|0,1:0|3:0,0:0:0:0:
391,120,84899,1,0,1:0:0:0:
480,176,85068,1,0,3:0:0:0:
480,176,85152,1,0,1:0:0:0:
352,328,85320,6,0,P|288:352|208:336,1,120,0|0,1:0|0:0,0:0:0:0:
224,344,85657,2,0,L|208:248,1,80,0|0,1:0|0:0,0:0:0:0:
296,88,85994,1,0,1:0:0:0:
128,232,86163,1,0,1:0:0:0:
128,232,86247,1,0,1:0:0:0:
128,232,86332,2,0,L|136:288,4,40,0|0|0|0|4,1:0|1:0|1:0|1:0|1:0,0:0:0:0:
160,56,92062,5,0,1:0:0:0:
360,88,92230,2,0,P|296:96|240:112,1,120.000004577637,0|0,3:0|3:0,0:0:0:0:
160,56,92905,1,0,3:0:0:0:
384,168,93242,1,0,3:0:0:0:
112,152,93410,5,0,1:0:0:0:
176,208,93579,2,0,P|240:216|296:232,1,120.000004577637,0|0,3:0|3:0,0:0:0:0:
384,168,94253,1,0,0:0:0:0:
104,304,94590,1,0,3:0:0:0:
184,200,94759,5,0,1:0:0:0:
296,256,94927,2,0,P|304:304|320:392,2,120.000004577637,0|0|0,3:0|3:0|0:0,0:0:0:0:
264,164,95770,1,0,1:0:0:0:
224,328,95938,1,0,0:0:0:0:
224,328,96107,5,0,1:0:0:0:
408,248,96275,2,0,P|416:200|432:112,2,120.000004577637,0|0|0,3:0|3:0|0:0,0:0:0:0:
328,268,97118,1,0,1:0:0:0:
340,184,97287,1,0,0:0:0:0:
360,44,97455,5,0,1:0:0:0:
152,88,97623,2,0,P|216:96|272:112,1,120.000004577637,0|0,3:0|3:0,0:0:0:0:
360,44,98298,1,0,3:0:0:0:
128,168,98635,1,0,3:0:0:0:
400,152,98803,5,0,1:0:0:0:
336,208,98972,2,0,P|272:216|216:232,1,120.000004577637,0|0,3:0|3:0,0:0:0:0:
128,168,99646,1,0,0:0:0:0:
408,304,99983,1,0,1:0:0:0:
328,200,100152,5,0,1:0:0:0:
216,256,100320,2,0,P|208:304|192:392,2,120.000004577637,0|0|0,3:0|3:0|0:0,0:0:0:0:
232,176,101163,1,0,1:0:0:0:
288,328,101332,1,0,0:0:0:0:
288,328,101500,5,0,1:0:0:0:
104,248,101668,2,0,P|96:200|80:112,2,120.000004577637,0|0|0,3:0|3:0|0:0,0:0:0:0:
132,328,102511,1,0,1:0:0:0:
240,252,102680,1,0,0:0:0:0:
272,128,102848,6,0,L|288:56,1,60.0000022888184,4|0,1:0|0:0,0:0:0:0:
376,296,103185,2,0,L|360:368,1,60.0000022888184,0|2,1:0|0:0,0:0:0:0:
184,176,103523,2,0,L|168:104,1,60.0000022888184,0|0,0:0|0:0,0:0:0:0:
432,200,103860,2,0,L|448:128,1,60.0000022888184,0|2,1:0|1:2,0:0:0:0:
208,264,104197,5,0,1:0:0:0:
184,344,104365,1,0,0:0:0:0:
128,280,104534,1,0,1:0:0:0:
104,360,104702,1,2,0:2:0:0:
48,296,104871,2,0,L|32:216,1,60.0000022888184,0|0,3:0|3:0,0:0:0:0:
200,176,105208,2,0,L|216:96,1,60.0000022888184,0|2,1:0|0:2,0:0:0:0:
280,312,105545,6,0,P|320:344|408:328,1,120.000004577637,0|0,1:0|1:0,0:0:0:0:
432,264,106051,1,2,0:2:0:0:
424,184,106219,2,0,P|384:152|302:169,1,120.000004577637,0|0,0:0|1:0,0:0:0:0:
344,248,106725,1,2,3:2:0:0:
432,184,106893,6,0,L|448:56,1,120.000004577637,0|0,1:0|1:0,0:0:0:0:
376,24,107399,1,2,0:2:0:0:
248,128,107736,1,2,0:2:0:0:
272,296,108073,1,2,1:2:0:0:
192,248,108242,6,0,L|176:176,1,60.0000022888184,4|0,1:0|0:0,0:0:0:0:
368,296,108579,2,0,L|384:368,1,60.0000022888184,0|2,1:0|0:2,0:0:0:0:
267,168,108917,2,0,L|251:96,1,60.0000022888184
114,311,109254,2,0,L|98:239,1,60.0000022888184,0|2,1:0|1:2,0:0:0:0:
40,112,109591,5,0,1:0:0:0:
64,32,109759,1,0,0:0:0:0:
120,96,109928,1,0,1:0:0:0:
144,16,110096,1,2,0:0:0:0:
200,80,110265,2,0,L|216:160,1,60.0000022888184,0|0,3:0|3:0,0:0:0:0:
304,240,110602,2,0,L|288:320,1,60.0000022888184,0|2,1:0|0:2,0:0:0:0:
424,80,110939,6,0,P|384:48|296:64,1,120.000004577637,0|0,1:0|1:0,0:0:0:0:
128,176,111445,1,2,0:0:0:0:
96,256,111613,2,0,P|136:288|218:271,1,120.000004577637,0|0,0:0|1:0,0:0:0:0:
136,168,112119,1,0,3:2:0:0:
16,240,112287,6,0,L|0:368,1,120.000004577637,0|0,1:0|1:0,0:0:0:0:
88,360,112793,1,2,0:2:0:0:
256,336,113130,1,2,0:2:0:0:
360,200,113467,1,2,1:2:0:0:
280,200,113635,6,0,L|144:200,1,120.000004577637,4|0,1:0|1:0,0:0:0:0:
256,336,114309,2,0,L|392:336,1,120.000004577637,0|0,3:0|1:0,0:0:0:0:
464,336,114815,1,0,3:0:0:0:
464,336,114983,5,0,1:0:0:0:
432,168,115320,1,0,1:0:0:0:
288,264,115657,2,0,P|240:288|208:328,1,90.0000034332277,0|0,1:0|3:0,0:0:0:0:
215,314,115994,2,0,L|136:336,1,60.0000022888184,0|0,1:0|3:0,0:0:0:0:
72,352,116332,5,4,1:0:0:0:
16,248,117006,1,0,1:0:0:0:
32,160,117511,1,0,1:0:0:0:
32,160,117680,5,4,1:0:0:0:
256,272,118354,1,4,1:0:0:0:
256,272,118691,1,4,1:0:0:0:
256,272,119028,5,4,0:0:0:0:
293,347,119197,1,2,0:0:0:0:
370,315,119365,1,2,0:0:0:0:
335,238,119534,1,0,0:0:0:0:
256,272,119702,2,0,L|218:285,2,30.0000011444092,2|0|0,0:0|0:0|0:0,0:0:0:0:
236,190,120039,2,0,L|286:169,2,30.0000011444092,2|0|0,0:0|0:0|0:0,0:0:0:0:
91,176,120376,6,0,L|40:196,2,30.0000011444092,2|0|0,0:0|0:0|0:0,0:0:0:0:
136,104,120714,5,2,0:0:0:0:
136,104,120798,1,0,0:0:0:0:
136,104,120882,1,0,0:0:0:0:
136,292,121051,2,0,L|131:337,7,30.0000011444092,2|0|0|0|2|0|0|0,0:0|0:0|0:0|0:0|0:0|0:0|0:0|0:0,0:0:0:0:
136,292,121725,6,0,P|186:309|216:313,1,60.0000022888184,2|0,0:0|0:0,0:0:0:0:
324,234,122062,2,0,P|274:217|244:213,1,60.0000022888184,2|0,0:0|0:0,0:0:0:0:
381,157,122399,2,0,P|431:140|461:136,1,60.0000022888184,2|2,0:0|0:0,0:0:0:0:
445,135,122652,2,0,L|452:52,1,60.0000022888184
452,66,122905,1,2,0:0:0:0:
320,90,123073,6,0,P|270:107|240:111,1,60.0000022888184,2|0,0:0|0:0,0:0:0:0:
417,237,123410,2,0,P|467:220|497:216,1,60.0000022888184,2|0,0:0|0:0,0:0:0:0:
288,321,123747,2,0,P|238:304|208:300,1,60.0000022888184,2|2,0:0|0:0,0:0:0:0:
224,300,124000,2,0,L|217:217,1,60.0000022888184
217,231,124253,1,2,0:0:0:0:
256,112,124421,5,4,0:0:0:0:
219,37,124590,1,2,0:0:0:0:
142,69,124758,1,2,0:0:0:0:
177,146,124927,1,0,0:0:0:0:
256,112,125095,2,0,L|294:99,2,30.0000011444092,2|0|0,0:0|0:0|0:0,0:0:0:0:
276,194,125432,2,0,L|225:214,2,30.0000011444092,2|0|0,0:0|0:0|0:0,0:0:0:0:
421,208,125769,6,0,L|471:187,2,30.0000011444092,2|0|0,0:0|0:0|0:0,0:0:0:0:
376,280,126107,5,2,0:0:0:0:
376,280,126191,1,0,0:0:0:0:
376,280,126275,1,0,0:0:0:0:
376,92,126444,2,0,L|381:47,7,30.0000011444092,2|0|0|0|2|0|0|0,0:0|0:0|0:0|0:0|0:0|0:0|0:0|0:0,0:0:0:0:
376,92,127118,6,0,P|326:75|296:71,1,60.0000022888184,2|0,0:0|0:0,0:0:0:0:
188,150,127455,2,0,P|238:167|268:171,1,60.0000022888184,2|0,0:0|0:0,0:0:0:0:
131,227,127792,2,0,P|81:244|51:248,1,60.0000022888184,2|2,0:0|0:0,0:0:0:0:
67,249,128045,2,0,L|60:332,1,60.0000022888184
60,318,128298,1,2,0:0:0:0:
192,294,128466,6,0,P|242:277|272:273,1,60.0000022888184,2|0,0:0|0:0,0:0:0:0:
95,147,128803,2,0,P|45:164|15:168,1,60.0000022888184,2|0,0:0|0:0,0:0:0:0:
231,100,129140,2,0,P|281:117|311:121,1,60.0000022888184,2|2,0:0|0:0,0:0:0:0:
295,121,129393,2,0,L|302:204,1,60.0000022888184
304,192,129646,1,2,0:0:0:0:
308,276,129815,5,0,1:0:0:0:
292,356,129983,1,0,0:0:0:0:
476,165,130320,1,0,3:0:0:0:
472,184,130489,1,0,1:0:0:0:
389,200,130657,1,0,0:0:0:0:
232,192,130994,5,0,3:0:0:0:
228,211,131163,1,0,1:0:0:0:
147,234,131331,1,0,0:0:0:0:
104,56,131669,1,0,3:0:0:0:
100,75,131838,1,0,1:0:0:0:
20,100,132006,1,0,3:0:0:0:
20,100,132090,1,0,3:0:0:0:
20,100,132174,1,0,1:0:0:0:
218,48,132343,1,0,1:0:0:0:
176,120,132511,6,0,P|224:152|264:216,1,120.000004577637,0|0,1:0|0:0,0:0:0:0:
240,288,133017,1,0,0:0:0:0:
352,192,133185,2,0,P|403:162|462:154,1,120.000004577637,0|0,1:0|0:0,0:0:0:0:
480,72,133691,5,0,0:0:0:0:
472,152,133860,2,0,L|456:272,1,120.000004577637,0|0,1:0|1:0,0:0:0:0:
448,352,134365,1,0,0:0:0:0:
304,272,134702,1,0,3:0:0:0:
304,272,134787,1,0,3:0:0:0:
304,272,134871,1,0,1:0:0:0:
360,208,135039,1,0,1:0:0:0:
208,272,135208,5,4,1:0:0:0:
224,352,135376,1,0,0:0:0:0:
36,165,135713,1,0,3:0:0:0:
40,184,135882,1,0,1:0:0:0:
120,206,136050,1,0,0:0:0:0:
280,192,136387,5,0,3:0:0:0:
284,211,136556,1,0,1:0:0:0:
364,234,136724,1,0,0:0:0:0:
408,56,137062,1,0,3:0:0:0:
412,75,137231,1,0,1:0:0:0:
493,93,137399,1,0,3:0:0:0:
493,93,137483,1,0,3:0:0:0:
493,93,137567,1,0,1:0:0:0:
293,43,137736,1,0,1:0:0:0:
336,120,137905,6,0,P|288:152|224:240,1,160,4|0,1:0|0:0,0:0:0:0:
280,328,138410,1,0,0:0:0:0:
168,152,138578,2,0,P|116:122|8:112,1,160,0|0,1:0|0:0,0:0:0:0:
72,24,139084,1,0,3:0:0:0:
176,144,139253,5,4,1:0:0:0:
200,224,139421,1,0,0:0:0:0:
160,296,139590,1,0,1:0:0:0:
80,320,139759,1,0,1:0:0:0:
8,280,139927,1,0,1:0:0:0:
8,200,140096,1,0,1:0:0:0:
8,200,140180,1,0,1:0:0:0:
8,200,140264,2,0,L|0:144,3,40,0|0|0|0,1:0|1:0|1:0|1:0,0:0:0:0:
8,200,140601,5,4,1:0:0:0:
88,184,140769,1,2,0:0:0:0:
168,160,140938,1,0,1:0:0:0:
240,136,141106,1,0,0:0:0:0:
184,240,141275,2,0,L|168:296,2,40,0|0|2,1:0|0:0|0:0,0:0:0:0:
296,72,141612,2,0,L|280:16,2,40,0|0|0,1:0|0:0|1:0,0:0:0:0:
304,304,141949,6,0,L|288:360,2,40,0|0|2,1:0|0:0|0:0,0:0:0:0:
392,112,142286,2,0,L|376:56,2,40,0|0|0,1:0|0:0|0:0,0:0:0:0:
474,171,142623,1,0,1:0:0:0:
480,192,142707,1,0,0:0:0:0:
487,216,142792,1,2,0:0:0:0:
489,240,142876,1,0,1:0:0:0:
488,264,142961,2,0,L|478:318,3,40,0|0|0|0,1:0|0:0|1:0|0:0,0:0:0:0:
486,265,143297,6,0,L|381:254,1,80,0|2,1:0|0:0,0:0:0:0:
192,96,143634,2,0,L|297:85,1,80,0|0,1:0|0:0,0:0:0:0:
224,328,143972,2,0,L|119:339,1,80,0|2,1:0|0:0,0:0:0:0:
145,337,144224,1,0,1:0:0:0:
88,264,144393,1,0,0:0:0:0:
88,264,144477,1,0,1:0:0:0:
80,104,144646,5,4,1:1:0:0:
160,80,144814,1,2,0:0:0:0:
232,112,144983,1,0,1:0:0:0:
256,184,145151,1,0,0:0:0:0:
241,262,145320,2,0,P|219:294|186:325,1,80,0|0,1:0|3:0,1:0:0:0:
189,322,145573,1,0,1:0:0:0:
104,328,145741,1,0,1:0:0:0:
104,328,145825,1,0,1:0:0:0:
136,256,145994,5,4,1:0:0:0:
160,176,146162,1,2,0:0:0:0:
96,128,146331,1,0,1:0:0:0:
72,200,146499,1,0,0:0:0:0:
240,264,146668,2,0,L|256:320,2,40,0|0|2,1:0|0:0|0:0,0:0:0:0:
320,80,147005,2,0,L|304:136,2,40,0|0|0,1:0|0:0|1:0,0:0:0:0:
448,184,147342,6,0,L|464:240,2,40,0|0|2,1:0|0:0|0:0,0:0:0:0:
240,48,147679,2,0,L|256:-8,2,40,0|0|0,1:0|0:0|0:0,0:0:0:0:
72,112,148016,1,0,1:0:0:0:
62,134,148100,1,0,0:0:0:0:
55,158,148185,1,2,0:0:0:0:
53,182,148269,1,0,1:0:0:0:
54,206,148354,2,0,L|64:260,3,40,0|0|0|0,1:0|0:0|1:0|0:0,0:0:0:0:
56,207,148691,6,0,L|161:196,1,80,4|2,1:0|0:0,0:0:0:0:
320,96,149028,2,0,L|215:85,1,80,0|0,1:0|0:0,0:0:0:0:
360,240,149365,2,0,L|465:251,1,80,0|2,1:0|0:0,0:0:0:0:
440,249,149617,1,0,1:0:0:0:
472,176,149786,1,0,0:0:0:0:
472,176,149870,1,0,1:0:0:0:
432,104,150039,5,4,1:0:0:0:
352,80,150207,1,2,0:0:0:0:
280,112,150376,1,0,1:0:0:0:
254,187,150544,1,0,0:0:0:0:
311,244,150714,2,0,P|333:212|338:162,1,80,0|0,1:0|3:0,2:0:0:0:
339,172,150966,1,0,1:0:0:0:
225,265,151134,1,0,1:0:0:0:
225,265,151218,1,0,1:0:0:0:
264,334,151387,5,4,1:0:0:0:
342,350,151555,1,0,0:0:0:0:
398,292,151724,1,0,1:0:0:0:
407,212,151892,1,0,0:0:0:0:
328,194,152061,2,0,L|312:250,2,40,0|0|2,1:0|0:0|0:0,0:0:0:0:
159,165,152399,2,0,L|143:109,2,40,0|0|0,1:0|0:0|1:0,0:0:0:0:
173,297,152736,6,0,L|157:353,2,40,0|0|0,1:0|2:0|2:0,0:0:0:0:
272,128,153073,2,0,L|256:72,2,40,0|0|0,1:0|2:0|2:0,2:0:0:0:
440,272,153409,1,0,0:0:0:0:
450,250,153493,1,0,0:0:0:0:
457,226,153578,1,2,0:0:0:0:
459,202,153662,1,0,1:0:0:0:
458,178,153747,2,0,L|448:124,3,40,0|0|0|0,0:0|0:0|1:0|0:0,0:0:0:0:
456,177,154084,6,0,L|351:188,1,80,4|0,1:0|0:0,0:0:0:0:
192,288,154421,2,0,L|297:299,1,80,0|0,1:0|0:0,0:0:0:0:
152,144,154759,2,0,L|47:133,1,80,0|0,1:0|1:0,0:0:0:0:
73,136,155010,1,0,1:0:0:0:
40,208,155179,1,0,1:0:0:0:
40,208,155263,1,0,1:0:0:0:
80,280,155432,5,4,1:0:0:0:
160,304,155600,1,0,0:0:0:0:
232,272,155769,1,0,1:0:0:0:
256,200,155937,1,0,0:0:0:0:
231,123,156107,2,0,L|137:122,1,80,0|0,1:0|3:3,0:0:0:0:
151,122,156360,1,0,1:0:0:0:
256,200,156527,1,0,1:0:0:0:
256,200,156611,1,0,1:0:0:0:
334,180,156781,6,0,L|350:92,1,80,4|2,1:0|0:0,0:0:0:0:
448,35,157118,2,0,L|432:123,1,80,0|0,1:0|0:0,0:0:0:0:
504,224,157455,1,0,1:0:0:0:
504,224,157539,1,0,0:0:0:0:
504,224,157623,1,2,0:0:0:0:
270,78,157792,2,0,L|262:30,2,40,0|0|0,1:0|0:0|1:0,0:0:0:0:
192,240,158129,6,0,L|184:288,2,40,0|0|2,1:0|0:0|0:0,0:0:0:0:
104,192,158466,2,0,L|96:144,2,40,0|0|0,1:0|0:0|0:0,0:0:0:0:
312,160,158803,1,0,1:0:0:0:
334,150,158887,1,0,0:0:0:0:
358,143,158972,1,2,0:0:0:0:
382,141,159056,1,0,1:0:0:0:
406,142,159140,2,0,L|460:152,3,40,0|0|0|0,1:0|0:0|1:0|0:0,0:0:0:0:
407,144,159477,6,0,L|396:249,1,80,4|2,1:0|0:0,0:0:0:0:
192,136,159814,2,0,L|181:31,1,80,0|0,1:0|0:0,0:0:0:0:
112,184,160151,2,0,L|123:289,1,80,0|0,1:0|3:0,0:0:0:0:
121,264,160404,1,0,1:0:0:0:
32,208,160573,1,0,0:0:0:0:
32,208,160657,1,0,1:0:0:0:
160,56,160826,6,0,P|224:32|304:48,1,120,4|0,1:0|0:0,0:0:0:0:
288,40,161163,2,0,L|304:136,1,80,0|0,1:0|0:0,0:0:0:0:
216,296,161499,1,0,1:0:0:0:
384,152,161668,1,2,2:0:0:0:
384,152,161752,1,0,1:0:0:0:
384,152,161837,2,0,L|376:96,4,40,0|0|0|0|4,0:0|1:0|1:0|0:0|1:0,0:0:0:0:
