osu file format v14

[General]
AudioFilename: audio.mp3
AudioLeadIn: 0
PreviewTime: 16556
Countdown: 1
SampleSet: Soft
StackLeniency: 0.3
Mode: 0
LetterboxInBreaks: 0
WidescreenStoryboard: 1

[Editor]
Bookmarks: 5770
DistanceSpacing: 0.7
BeatDivisor: 2
GridSize: 4
TimelineZoom: 1

[Metadata]
Title:As the wind blows
TitleUnicode:As the wind blows
Artist:happy30
ArtistUnicode:happy30
Creator:Szafina
Version:Insane
Source:YouTube
Tags:Wind blow happy 30 blue cloud anime red hair
BeatmapID:1576074
BeatmapSetID:747560

[Difficulty]
HPDrainRate:5
CircleSize:4
OverallDifficulty:7
ApproachRate:9
SliderMultiplier:1.7
SliderTickRate:1

[Events]
//Background and Video events
0,0,"460.jpg",0,0
//Break Periods
//Storyboard Layer 0 (Background)
//Storyboard Layer 1 (Fail)
//Storyboard Layer 2 (Pass)
//Storyboard Layer 3 (Foreground)
//Storyboard Sound Samples

[TimingPoints]
5747,337.077837837838,4,2,0,70,1,0
5770,-100,4,2,0,70,0,0
65095,-100,4,2,0,70,0,1
67708,-83.3333333333333,4,2,0,70,0,1
68466,-100,4,2,0,70,0,1
69113,-83.3333333333333,4,2,0,70,0,1
69815,-100,4,2,0,70,0,1
73204,-83.3333333333333,4,2,0,70,0,1
77904,-100,4,2,0,70,0,1
78579,-83.3333333333333,4,2,0,70,0,1
80601,-100,4,2,0,70,0,1
81275,-83.3333333333333,4,2,0,70,0,1
86163,-100,4,2,0,70,0,1
86500,-83.3333333333333,4,2,0,70,0,0

[Colours]
Combo1 : 255,255,255
Combo2 : 128,255,255
Combo3 : 102,179,255
Combo4 : 153,242,226

[HitObjects]
72,264,5747,5,0,0:0:0:0:
156,136,6084,1,0,0:0:0:0:
196,284,6421,2,0,P|272:312|328:256,1,170
380,200,6927,2,0,L|300:136,1,85
200,44,7432,1,0,0:0:0:0:
313,146,7769,5,0,0:0:0:0:
328,220,7938,1,0,0:0:0:0:
404,232,8107,1,0,0:0:0:0:
464,184,8275,1,0,0:0:0:0:
452,108,8444,1,0,0:0:0:0:
328,16,8781,5,0,0:0:0:0:
212,116,9118,1,0,0:0:0:0:
328,216,9455,1,0,0:0:0:0:
148,228,9792,6,0,L|92:308,2,85
208,168,10298,1,0,0:0:0:0:
252,240,10466,2,0,P|304:284|352:276,1,85
401,279,10803,5,0,0:0:0:0:
416,248,10887,1,0,0:0:0:0:
424,216,10972,1,0,0:0:0:0:
424,184,11056,1,0,0:0:0:0:
412,152,11140,1,0,0:0:0:0:
368,68,11309,5,0,0:0:0:0:
284,24,11477,1,0,0:0:0:0:
228,100,11646,1,0,0:0:0:0:
304,152,11814,1,0,0:0:0:0:
232,216,11983,1,0,0:0:0:0:
232,216,12067,1,0,0:0:0:0:
232,216,12151,1,0,0:0:0:0:
148,176,12320,6,0,L|84:272,1,85
172,308,12657,1,0,0:0:0:0:
172,308,12741,1,0,0:0:0:0:
172,308,12826,1,0,0:0:0:0:
260,344,12994,2,0,P|308:360|360:328,1,85
376,264,13331,1,0,0:0:0:0:
304,204,13500,2,0,P|316:144|296:100,1,85
248,48,13837,5,0,0:0:0:0:
168,100,14005,1,0,0:0:0:0:
204,184,14174,1,0,0:0:0:0:
204,184,14258,1,0,0:0:0:0:
204,184,14342,2,0,P|176:240|128:248,1,85
112,164,14680,1,0,0:0:0:0:
82,248,14848,6,0,P|118:264|166:236,1,85
220,180,15185,1,0,0:0:0:0:
220,180,15269,1,0,0:0:0:0:
220,180,15354,1,0,0:0:0:0:
157,247,15522,2,0,P|161:303|149:331,2,85
140,156,16028,2,0,P|132:88|160:48,2,85
220,180,16534,5,0,0:0:0:0:
220,180,16618,1,0,0:0:0:0:
220,180,16702,2,0,P|272:192|328:160,1,85
336,96,17039,1,0,0:0:0:0:
376,180,17208,1,0,0:0:0:0:
440,112,17376,1,0,0:0:0:0:
440,112,17545,2,0,L|468:208,1,85
420,276,17882,5,0,0:0:0:0:
360,204,18050,1,0,0:0:0:0:
320,288,18219,1,0,0:0:0:0:
272,208,18387,2,0,L|228:92,1,85
276,40,18725,1,0,0:0:0:0:
276,40,18809,1,0,0:0:0:0:
276,40,18893,2,0,P|344:36|392:64,1,85
436,96,19230,5,0,0:0:0:0:
408,184,19399,1,0,0:0:0:0:
316,208,19567,1,0,0:0:0:0:
252,144,19736,1,0,0:0:0:0:
252,144,19904,2,0,P|196:132|144:148,1,85
76,124,20241,5,0,0:0:0:0:
48,212,20410,1,0,0:0:0:0:
116,276,20578,1,0,0:0:0:0:
208,280,20747,1,0,0:0:0:0:
208,280,20916,6,0,L|276:376,1,85
328,288,21253,1,0,0:0:0:0:
268,216,21421,1,0,0:0:0:0:
340,156,21590,2,0,P|392:168|432:148,1,85
380,72,21927,1,0,0:0:0:0:
380,72,22011,1,0,0:0:0:0:
380,72,22095,1,0,0:0:0:0:
340,156,22264,5,0,0:0:0:0:
252,124,22432,1,0,0:0:0:0:
268,216,22601,1,0,0:0:0:0:
320,292,22769,2,0,P|264:308|232:288,1,85
152,272,23107,2,0,L|172:372,1,85
256,324,23444,5,0,0:0:0:0:
256,324,23528,1,0,0:0:0:0:
256,324,23612,2,0,P|316:332|352:320,1,85
280,252,23949,2,0,L|304:148,1,85
388,196,24286,2,0,B|448:216|495:187,1,85
436,112,24623,5,0,0:0:0:0:
436,112,24708,1,0,0:0:0:0:
436,112,24792,2,0,P|380:104|328:112,1,85
280,48,25129,1,0,0:0:0:0:
232,128,25298,1,0,0:0:0:0:
208,220,25466,2,0,P|164:228|112:208,2,85
284,276,25972,5,0,0:0:0:0:
284,276,26056,1,0,0:0:0:0:
284,276,26140,2,0,P|340:284|396:260,1,85
324,196,26477,1,0,0:0:0:0:
288,108,26646,1,0,0:0:0:0:
236,188,26814,1,0,0:0:0:0:
188,108,26983,1,0,0:0:0:0:
100,144,27151,2,0,P|52:156|16:140,1,85
56,60,27489,5,0,0:0:0:0:
108,152,27657,1,0,0:0:0:0:
108,152,27741,1,0,0:0:0:0:
108,152,27826,2,0,L|188:232,1,85
216,296,28163,1,0,0:0:0:0:
260,212,28331,2,0,P|264:156|256:112,1,85
260,32,28668,5,0,0:0:0:0:
336,88,28837,1,0,0:0:0:0:
336,88,28921,1,0,0:0:0:0:
336,88,29005,2,0,L|416:184,1,85
480,176,29342,1,0,0:0:0:0:
412,240,29511,1,0,0:0:0:0:
320,244,29680,2,0,L|244:160,1,85
232,92,30017,5,0,0:0:0:0:
156,36,30185,1,0,0:0:0:0:
156,128,30354,1,0,0:0:0:0:
80,72,30522,1,0,0:0:0:0:
20,144,30690,2,0,P|64:188|104:188,1,85
156,128,31028,5,0,0:0:0:0:
180,220,31196,1,0,0:0:0:0:
264,176,31365,1,0,0:0:0:0:
264,176,31449,1,0,0:0:0:0:
264,176,31533,1,0,0:0:0:0:
356,184,31702,2,0,P|364:244|356:268,1,85
300,340,32039,2,0,L|224:260,1,85
196,196,32376,5,0,0:0:0:0:
176,168,32460,1,0,0:0:0:0:
148,152,32545,1,0,0:0:0:0:
116,152,32629,1,0,0:0:0:0:
84,160,32713,1,0,0:0:0:0:
124,244,32882,5,0,0:0:0:0:
96,332,33050,2,0,P|40:296|32:252,1,85
124,244,33387,1,0,0:0:0:0:
180,172,33556,1,0,0:0:0:0:
180,172,33640,1,0,0:0:0:0:
180,172,33724,2,0,P|232:180|272:164,1,85
320,96,34062,5,0,0:0:0:0:
348,184,34230,2,0,P|364:232|348:268,1,85
268,220,34567,2,0,L|228:336,1,85
159,254,34904,1,0,0:0:0:0:
159,254,34989,1,0,0:0:0:0:
159,254,35073,2,0,L|183:158,1,85
184,76,35410,5,0,0:0:0:0:
96,100,35578,2,0,L|80:8,1,85
16,84,35915,2,0,P|4:156|20:188,1,85
16,260,36253,1,0,0:0:0:0:
16,260,36337,1,0,0:0:0:0:
16,260,36421,2,0,L|68:340,1,85
152,216,36758,5,0,0:0:0:0:
212,84,36927,1,0,0:0:0:0:
260,220,37095,1,0,0:0:0:0:
328,92,37264,1,0,0:0:0:0:
380,228,37432,1,0,0:0:0:0:
268,324,37601,1,0,0:0:0:0:
152,216,37769,1,0,0:0:0:0:
152,216,37854,1,0,0:0:0:0:
152,216,37938,2,0,L|88:136,1,85
156,76,38275,5,0,0:0:0:0:
244,48,38444,1,0,0:0:0:0:
328,92,38612,1,0,0:0:0:0:
408,44,38781,1,0,0:0:0:0:
408,44,38949,2,0,L|460:124,1,85
472,208,39286,1,0,0:0:0:0:
384,236,39455,2,0,L|364:328,1,85
276,296,39792,5,0,0:0:0:0:
268,204,39960,1,0,0:0:0:0:
180,168,40129,1,0,0:0:0:0:
92,204,40297,1,0,0:0:0:0:
92,204,40466,2,0,L|40:108,1,85
76,40,40803,1,0,0:0:0:0:
164,12,40972,2,0,L|144:104,1,85
148,188,41309,6,0,P|180:208|224:196,1,85
248,108,41646,1,0,0:0:0:0:
336,136,41814,2,0,L|296:232,1,85
323,358,42151,5,0,0:0:0:0:
303,214,42319,1,0,0:0:0:0:
235,306,42488,5,0,0:0:0:0:
215,162,42656,1,0,0:0:0:0:
139,250,42825,5,2,0:0:0:0:
119,106,42993,1,0,0:0:0:0:
35,190,43162,5,0,0:0:0:0:
15,46,43331,1,0,0:0:0:0:
15,46,43415,1,0,0:0:0:0:
15,46,43499,1,0,0:0:0:0:
35,190,43668,6,0,P|32:256|60:276,1,85
139,250,44005,1,0,0:0:0:0:
212,308,44174,1,0,0:0:0:0:
212,308,44342,2,0,L|256:228,1,85
312,160,44680,2,0,P|284:128|224:136,1,85
160,84,45017,2,0,P|156:128|164:180,1,85
243,125,45353,5,0,0:0:0:0:
320,72,45522,1,0,0:0:0:0:
388,136,45690,2,0,L|480:104,1,85
472,204,46028,2,0,P|480:272|456:312,1,85
384,304,46365,1,0,0:0:0:0:
356,214,46533,2,0,L|396:114,2,85
288,280,47039,2,0,L|208:224,2,85
148,312,47545,5,0,0:0:0:0:
88,180,47713,1,0,0:0:0:0:
218,231,47881,1,0,0:0:0:0:
156,100,48050,1,0,0:0:0:0:
288,160,48219,1,0,0:0:0:0:
228,28,48387,1,0,0:0:0:0:
360,92,48556,1,0,0:0:0:0:
360,92,48640,1,0,0:0:0:0:
360,92,48724,1,0,0:0:0:0:
364,184,48893,6,0,P|368:244|392:276,1,85
448,208,49230,1,0,0:0:0:0:
472,116,49399,2,0,L|416:48,2,85
448,208,49904,2,0,L|360:280,2,85
472,116,50410,5,0,0:0:0:0:
384,144,50578,2,0,P|320:132|280:156,1,85
208,148,50915,1,0,0:0:0:0:
196,240,51084,2,0,L|108:272,1,85
92,180,51421,2,0,L|112:84,2,85
368,332,52938,5,0,0:0:0:0:
428,200,53106,1,0,0:0:0:0:
284,228,53275,1,0,0:0:0:0:
428,200,53444,1,0,0:0:0:0:
328,96,53612,1,0,0:0:0:0:
428,200,53780,1,0,0:0:0:0:
464,60,53949,1,0,0:0:0:0:
464,60,54033,1,0,0:0:0:0:
464,60,54118,1,0,0:0:0:0:
400,128,54286,6,0,P|344:116|320:76,1,85
256,36,54623,1,0,0:0:0:0:
204,112,54792,1,0,0:0:0:0:
272,176,54960,1,0,0:0:0:0:
196,232,55129,1,0,0:0:0:0:
196,232,55213,1,0,0:0:0:0:
196,232,55297,1,0,0:0:0:0:
108,200,55466,6,0,L|44:296,1,85
144,316,55803,1,0,0:0:0:0:
144,316,55887,1,0,0:0:0:0:
144,316,55971,1,0,0:0:0:0:
232,344,56140,2,0,P|280:360|332:328,1,85
364,272,56477,1,0,0:0:0:0:
292,212,56646,2,0,P|304:152|284:108,1,85
232,64,56983,5,0,0:0:0:0:
152,112,57151,1,0,0:0:0:0:
180,200,57320,1,0,0:0:0:0:
180,200,57404,1,0,0:0:0:0:
180,200,57488,2,0,P|152:256|104:264,1,85
96,176,57825,1,0,0:0:0:0:
58,264,57994,6,0,P|94:280|142:252,1,85
204,196,58331,1,0,0:0:0:0:
204,196,58415,1,0,0:0:0:0:
204,196,58499,1,0,0:0:0:0:
141,263,58668,2,0,P|145:319|133:347,2,85
124,172,59174,2,0,P|116:104|144:64,2,85
204,196,59679,5,0,0:0:0:0:
204,196,59763,1,0,0:0:0:0:
204,196,59848,2,0,P|256:208|312:176,1,85
320,112,60185,1,0,0:0:0:0:
360,196,60353,1,0,0:0:0:0:
424,128,60522,1,0,0:0:0:0:
424,128,60690,2,0,L|452:224,1,85
404,292,61028,5,0,0:0:0:0:
344,220,61196,1,0,0:0:0:0:
304,304,61365,1,0,0:0:0:0:
256,224,61533,2,0,L|212:108,1,85
260,56,61870,1,0,0:0:0:0:
260,56,61954,1,0,0:0:0:0:
260,56,62039,2,0,P|328:52|376:80,1,85
420,112,62376,5,0,0:0:0:0:
392,200,62544,1,0,0:0:0:0:
300,224,62713,1,0,0:0:0:0:
236,160,62881,1,0,0:0:0:0:
236,160,63050,2,0,P|180:148|128:164,1,85
60,140,63387,5,0,0:0:0:0:
32,228,63556,1,0,0:0:0:0:
100,292,63724,1,0,0:0:0:0:
192,296,63893,1,0,0:0:0:0:
192,296,64061,6,0,P|240:308|284:284,1,85
236,208,64398,2,0,P|232:144|240:108,1,85
328,120,64735,2,0,P|328:192|320:228,1,85
235,123,65072,6,0,L|219:59,2,42.5
136,188,65409,2,0,L|112:264,2,42.5
192,292,65746,2,0,L|212:344,2,42.5
303,240,66083,2,0,L|332:192,2,42.5
412,292,66421,2,0,L|440:252,2,42.5
384,176,66758,5,0,0:0:0:0:
384,176,66842,1,0,0:0:0:0:
384,176,66926,2,0,P|436:140|492:148,1,85
484,112,67179,1,0,0:0:0:0:
480,72,67263,1,0,0:0:0:0:
456,40,67348,1,0,0:0:0:0:
420,28,67432,1,0,0:0:0:0:
380,20,67517,1,0,0:0:0:0:
344,28,67601,1,0,0:0:0:0:
308,44,67685,1,0,0:0:0:0:
284,84,67769,6,0,P|312:144|360:148,1,101.999996887207
396,228,68106,2,0,P|352:196|360:116,1,101.999996887207
428,120,68443,2,0,L|464:64,6,50.9999984436036
343,151,69118,6,0,P|331:63|367:43,1,101.999996887207
240,48,69455,2,0,L|200:144,1,101.999996887207
108,152,69791,2,0,L|88:92,6,50.9999984436036
158,215,70465,6,0,L|202:139,1,85
276,132,70803,2,0,L|332:40,1,85
392,88,71140,6,0,L|424:28,2,42.5
352,152,71477,2,0,L|312:216,2,42.5
456,120,71814,6,0,L|492:60,2,42.5
416,184,72151,2,0,L|376:248,2,42.5
456,120,72488,5,0,0:0:0:0:
444,92,72573,1,0,0:0:0:0:
420,76,72657,1,0,0:0:0:0:
392,60,72741,1,0,0:0:0:0:
364,60,72826,1,0,0:0:0:0:
336,64,72910,1,0,0:0:0:0:
308,76,72994,1,0,0:0:0:0:
288,100,73078,1,0,0:0:0:0:
292,128,73163,6,0,L|172:104,1,85
76,60,73500,1,0,0:0:0:0:
88,200,73668,2,0,P|80:264|140:292,1,101.999996887207
244,272,74005,2,0,L|290:209,4,50.9999984436036
356,180,74511,6,0,L|436:260,1,101.999996887207
428,108,74848,1,0,0:0:0:0:
428,108,75017,2,0,L|354:29,1,101.999996887207
244,120,75353,2,0,L|280:168,4,50.9999984436036
108,80,75859,6,0,L|40:176,1,101.999996887207
100,296,76196,2,0,P|168:320|208:288,1,101.999996887207
192,164,76533,2,0,L|212:112,2,42.5
336,248,76870,2,0,L|365:296,2,42.5
376,84,77208,2,0,L|408:32,2,50.9999984436036
340,252,77545,5,0,0:0:0:0:
340,252,77629,1,0,0:0:0:0:
340,252,77713,2,0,P|288:216|232:224,1,85
240,188,77966,1,0,0:0:0:0:
244,148,78050,1,0,0:0:0:0:
268,116,78135,1,0,0:0:0:0:
304,104,78219,1,0,0:0:0:0:
344,96,78304,1,0,0:0:0:0:
380,104,78388,1,0,0:0:0:0:
416,120,78472,1,0,0:0:0:0:
440,160,78556,6,0,P|412:220|364:224,1,101.999996887207
328,304,78893,2,0,P|372:272|364:192,1,101.999996887207
304,104,79230,2,0,L|268:48,6,50.9999984436036
340,244,79905,6,0,P|328:332|364:352,1,101.999996887207
188,312,80242,6,0,L|148:216,1,101.999996887207
36,128,80578,2,0,L|16:188,6,50.9999984436036
148,172,81252,6,0,L|192:248,1,85
332,264,81590,2,0,L|388:356,1,85
492,216,81927,6,0,L|524:276,2,42.5
332,264,82264,2,0,L|292:200,2,42.5
476,348,82601,6,0,L|512:408,2,42.5
396,200,82938,2,0,L|356:136,2,42.5
456,264,83275,5,0,0:0:0:0:
444,292,83360,1,0,0:0:0:0:
420,308,83444,1,0,0:0:0:0:
392,324,83528,1,0,0:0:0:0:
364,324,83613,1,0,0:0:0:0:
336,320,83697,1,0,0:0:0:0:
308,308,83781,1,0,0:0:0:0:
288,284,83865,1,0,0:0:0:0:
292,256,83950,6,0,L|172:280,1,85
76,324,84287,1,0,0:0:0:0:
88,184,84455,2,0,P|80:120|140:92,1,101.999996887207
244,112,84792,2,0,L|290:175,4,50.9999984436036
356,204,85298,6,0,L|436:124,1,101.999996887207
428,276,85635,5,0,0:0:0:0:
428,276,85804,2,0,L|354:355,1,101.999996887207
244,264,86140,2,0,L|280:216,6,50.9999984436036,0|0|0|0|0|4|0,0:0|0:0|0:0|0:0|0:0|0:0|0:0,0:0:0:0:
132,332,86983,5,0,0:0:0:0:
72,204,87320,1,0,0:0:0:0:
64,348,87657,1,0,0:0:0:0:
132,332,87825,1,0,0:0:0:0:
164,268,87994,1,0,0:0:0:0:
232,144,88331,5,0,0:0:0:0:
284,276,88668,5,0,0:0:0:0:
348,308,88837,1,0,0:0:0:0:
408,268,89005,1,0,0:0:0:0:
412,196,89174,1,0,0:0:0:0:
348,164,89342,1,0,0:0:0:0:
236,76,89679,5,0,0:0:0:0:
256,216,90016,1,0,0:0:0:0:
124,160,90354,1,0,0:0:0:0:
176,112,90522,1,0,0:0:0:0:
108,88,90691,1,0,0:0:0:0:
212,188,91028,1,0,0:0:0:0:
344,132,91365,5,0,0:0:0:0:
336,204,91533,1,0,0:0:0:0:
404,184,91702,1,0,0:0:0:0:
468,152,91870,1,0,0:0:0:0:
